#TITLE:34+35 x Kiss Me More (Mashup);
#SUBTITLE:;
#ARTIST:Ariana Grande With Doja Cat & SZA;
#TITLETRANSLIT:;
#SUBTITLETRANSLIT:;
#ARTISTTRANSLIT:;
#CREDIT:;
#BANNER:34+35 x Kiss Me More (Mashup).png;
#BACKGROUND:34+35 x Kiss Me More (Mashup)-bg.png;
#LYRICSPATH:;
#CDTITLE:;
#MUSIC:34+35 x Kiss Me More (Mashup).ogg;
#OFFSET:0.500;
#SAMPLESTART:34.540;
#SAMPLELENGTH:15.000;
#SELECTABLE:YES;
#BPMS:0.000=111.000;
#STOPS:;
#BGCHANGES:0.917=34+35 x Kiss Me More (Mashup).avi=1.000=1=1=0,
99999=-nosongbg-=1.000=0=0=0 // don't automatically add -songbackground-
;

//---------------dance-single - Destrier75----------------
#NOTES:
     dance-single:
     Destrier75:
     Hard:
     10:
     0.381,0.365,0.173,0.083,0.060: // measure 1
0000
0000
0000
0000
,  // measure 2
0000
0000
0000
0000
,  // measure 3
0000
0000
0000
0000
,  // measure 4
0000
0000
0000
0000
,  // measure 5
0000
0000
0000
0000
,  // measure 6
1000
0010
1000
0010
1000
0000
0010
0000
,  // measure 7
0100
0001
0100
0001
0100
0000
0010
0000
,  // measure 8
1000
0010
1000
0000
0100
0001
0200
0000
,  // measure 9
0302
2003
3001
1001
,  // measure 10
1000
0010
1000
0010
1000
0000
0100
0000
,  // measure 11
0001
0100
0001
0100
0001
0000
0010
0000
,  // measure 12
0100
0010
0100
0010
0100
0000
1000
0000
,  // measure 13
0001
1000
0001
1000
0001
0000
0000
0000
,  // measure 14
1000
0001
1000
0001
1000
0000
0100
0000
,  // measure 15
0001
0100
0001
0100
0001
0000
0010
0000
,  // measure 16
1000
0010
1000
0010
1000
0000
0100
0000
,  // measure 17
0010
0000
0110
0000
0110
0000
0100
0001
,  // measure 18
0100
0000
0001
0010
1000
0010
1010
0000
,  // measure 19
1000
0000
0010
1000
0010
0100
0010
0000
,  // measure 20
0010
0000
0100
0010
0100
0010
2000
0000
,  // measure 21
3002
0000
0203
0000
0320
0000
1030
0001
,  // measure 22
1000
0000
1000
0010
1000
0010
1010
0000
,  // measure 23
1000
0000
0100
0010
0001
0100
0101
0000
,  // measure 24
0010
0000
1000
0001
0100
0001
2001
0000
,  // measure 25
3020
0000
0000
0000
0230
0000
0000
0000
0302
0000
0000
0000
1003
0000
0000
0010
,  // measure 26
1000
0000
0000
1000
0001
0000
0000
0000
0001
0000
0000
1000
0010
0000
0000
0010
,  // measure 27
0001
0000
0000
0000
0100
0000
0000
0010
0100
0000
0000
0100
0001
0000
0000
0000
,  // measure 28
0010
0000
0000
1000
0010
0000
0000
0010
0001
0000
0000
0000
0110
0000
0000
0000
,  // measure 29
0000
1001
1001
1000
,  // measure 30
0010
1000
0010
1000
0010
0000
1010
0000
,  // measure 31
0100
0010
0100
0010
0100
0000
0001
0000
,  // measure 32
1000
0001
1000
0001
1000
0000
0010
0000
,  // measure 33
1000
0010
1000
0010
1000
0000
0010
0000
,  // measure 34
0100
0001
0100
0001
0100
0000
0010
0000
,  // measure 35
1000
0010
1000
0010
1000
0000
0100
0000
,  // measure 36
0010
0100
0010
0100
0010
0000
0001
0000
,  // measure 37
1000
0000
1001
0000
1001
0000
1000
0010
,  // measure 38
1000
0010
1000
0000
0100
0000
0001
0100
,  // measure 39
0001
0100
0001
0000
0010
0000
1000
0010
,  // measure 40
1000
0010
1000
0000
0100
0000
0010
0100
,  // measure 41
0010
0100
0010
0000
0001
0000
1000
0001
,  // measure 42
1000
0001
1000
0000
0100
0000
0010
0001
,  // measure 43
0010
0001
0010
0000
1000
0000
0100
0010
,  // measure 44
0100
0010
0100
0000
0001
0000
0100
0001
,  // measure 45
0100
0001
0101
0000
0101
0000
0001
0100
,  // measure 46
0001
0000
1000
0010
1000
0010
1000
0000
,  // measure 47
0010
0000
0100
0001
0100
0001
0100
0000
,  // measure 48
0010
0000
1000
0010
1000
0010
1000
0000
,  // measure 49
0001
0000
1001
0000
1001
0000
1000
0001
,  // measure 50
1000
0000
0001
0100
0001
0100
0001
0000
,  // measure 51
0010
0000
1000
0010
1000
0010
1000
0000
,  // measure 52
0010
0000
0100
0001
0100
0001
0100
0000
,  // measure 53
0010
0000
0000
0000
1010
0000
0000
0000
1010
0000
0000
0000
1000
0000
0000
0001
,  // measure 54
1000
0000
0000
1000
0010
0000
0000
0000
0100
0000
0000
0100
0010
0000
0000
0010
,  // measure 55
0001
0000
0000
0000
0001
0000
0000
1000
0010
0000
0000
0010
0100
0000
0000
0000
,  // measure 56
0001
0000
0000
1000
0010
0000
0000
0010
1000
0000
0000
0000
1010
0000
0000
0000
,  // measure 57
0000
0000
0110
0000
0110
0000
0010
1000
,  // measure 58
0010
1000
0010
1000
0010
0000
0010
0000
,  // measure 59
0100
0000
0001
0000
0100
0000
0001
0100
,  // measure 60
0001
0100
0001
0100
0001
0000
0010
0000
,  // measure 61
1000
0001
1001
0000
;

//---------------dance-single - Destrier75----------------
#NOTES:
     dance-single:
     Destrier75:
     Medium:
     7:
     0.322,0.388,0.083,0.226,0.000:
0000
0000
0000
0000
,
0000
0000
0000
0000
,
0000
0000
0000
0000
,
0000
0000
0000
0000
,
0000
0000
0000
0000
,
0100
0001
0100
0000
0001
0000
0100
0000
,
0010
1000
0010
0000
1000
0000
0010
0000
,
0100
0010
0100
0000
0010
0001
0010
0000
,
0001
1000
0010
0010
,
1000
0001
1000
0000
0001
0000
0001
0000
,
1000
0010
1000
0000
0010
0000
1000
0000
,
0100
0001
0100
0000
0001
0000
0100
0000
,
0010
1000
0010
0000
0100
0000
0001
0000
,
1000
0010
1000
0000
0010
0000
1000
0000
,
0100
0010
0100
0000
0010
0000
0010
0000
,
0001
0100
0001
0000
0100
0000
0001
0000
,
0000
0000
1001
0000
1001
0000
1000
0001
,
1000
0000
0010
1000
0010
0000
0001
0000
,
1000
0000
0100
0001
0100
0000
0010
0000
,
1000
0000
0100
0010
0100
0000
0002
0000
,
2003
3002
2003
0001
,
3001
0000
1000
0010
1000
0000
0100
0000
,
0010
0000
0001
0100
0001
0000
0010
0000
,
0100
0000
0001
0010
0001
0000
2000
0000
,
3020
2030
3020
2030
,
3002
0203
0320
0230
,
0302
2003
3020
0230
,
0302
2003
0000
3010
,
0000
0000
0010
0000
1010
0000
1000
0001
,
1000
0000
0010
0000
0100
0000
0001
0010
,
0001
0000
1000
0000
0100
0000
1000
0100
,
1000
0000
0010
0000
0100
0000
0001
0100
,
0001
0000
0010
0000
0100
0000
1000
0010
,
1000
0000
0100
0000
0001
0000
0100
0001
,
0100
0000
0010
0000
0100
0000
1000
0010
,
1000
0100
0001
1001
,
0000
0000
1001
0000
1001
0000
1000
0010
,
1000
0000
0010
0000
0100
0000
0001
0100
,
0001
0000
1000
0000
0010
0000
1000
0010
,
1000
0000
0001
0000
0100
0000
0010
0100
,
0010
0000
1000
0000
0001
0000
0100
0001
,
0100
0000
0001
0000
1000
0000
0001
0100
,
0001
0000
0010
0000
1000
0000
1000
0001
,
1000
0010
0001
0100
,
0000
0000
0101
0000
0101
0000
0001
0100
,
0001
0000
1000
0010
1000
0000
0100
0000
,
0010
0000
0001
0100
0001
0000
0010
0000
,
1000
0000
0100
0001
0100
0000
0010
0000
,
0100
0001
1001
0100
,
0010
0000
1000
0010
1000
0000
0010
0000
,
0001
0000
1000
0001
1000
0000
0100
0000
,
0001
0000
1000
0001
1000
0000
0100
0000
,
0010
0001
1001
2000
,
3002
0203
0320
2030
,
3002
0203
0320
2030
,
3002
2003
0000
0000
,
0000
0000
0001
0000
3001
0000
1000
0010
,
1000
0000
0010
0000
0001
0000
1000
0010
,
1000
0000
0010
0000
0001
0000
1000
0010
,
1000
0000
0010
0000
0001
0000
1000
0010
,
1000
0010
1010
0000
;

//---------------dance-single - Destrier75----------------
#NOTES:
     dance-single:
     Destrier75:
     Easy:
     4:
     0.238,0.296,0.098,0.090,0.000:
0000
0000
0000
0000
,
0000
0000
0000
0000
,
0000
0000
0000
0000
,
0000
0000
0000
0000
,
0000
0000
0000
0000
,
1000
1000
1000
0000
,
0001
0001
0001
0000
,
1000
1000
1000
0000
,
0010
0010
0010
0000
,
0100
0100
0100
0000
,
0010
0010
0010
0000
,
0001
0001
0001
0000
,
0100
0100
0100
0000
,
1000
1000
1000
0000
,
0001
0001
0001
0000
,
0100
0100
0100
0000
,
0000
0001
0001
1001
,
0000
1000
1000
1000
,
1000
0001
0001
0001
,
0001
0100
0100
0100
,
0100
0010
0010
0010
,
0010
1000
1000
1000
,
1000
0001
0001
0001
,
0001
0100
0100
0100
,
0100
0001
0001
2001
,
0001
3001
0210
0010
,
0310
2010
0010
3010
,
0201
0001
0301
0001
,
0000
1000
1001
1000
,
1000
0001
0001
0100
,
0100
0010
0010
1000
,
1000
0001
0001
1000
,
1000
0010
0010
0100
,
0100
0001
0001
1000
,
1000
0001
0001
0100
,
0100
0010
0010
1000
,
1000
0001
1001
1000
,
0010
1000
0100
0001
,
0100
0010
0001
0010
,
1000
0010
1000
0100
,
0001
0100
0010
1000
,
0010
0100
0001
0100
,
0010
1000
0010
0100
,
0001
0100
1000
0001
,
1000
0001
1000
1001
,
0000
1000
1000
1000
,
1000
0001
0001
0001
,
0001
0100
0100
0100
,
0100
0010
0010
0010
,
0010
0100
0100
0100
,
0100
0001
0001
0001
,
0001
1000
1000
1000
,
0000
0001
0001
2010
,
0010
3010
0201
0001
,
0301
2010
0010
3010
,
0210
0010
0310
0100
,
0000
0100
0110
2000
,
0000
0000
0000
3002
,
0000
0000
0000
0203
,
0000
0000
0000
0320
,
0000
0100
0130
0000
;

//---------------dance-single - Destrier75----------------
#NOTES:
     dance-single:
     Destrier75:
     Beginner:
     1:
     0.140,0.159,0.008,0.000,0.000:
0000
0000
0000
0000
,
0000
0000
0000
0000
,
0000
0000
0000
0000
,
0000
0000
0000
0000
,
0000
0000
0000
0000
,
1000
0000
1000
0000
,
0001
0000
0001
0000
,
0100
0000
0100
0000
,
0001
0000
0001
0000
,
0100
0000
0100
0000
,
0010
0000
0010
0000
,
1000
0000
1000
0000
,
0001
0000
0001
0000
,
0100
0000
0100
0000
,
0010
0000
0010
0000
,
1000
0000
1000
0000
,
0000
1000
1000
1000
,
0000
0001
0000
0001
,
0000
1000
0000
1000
,
0000
0001
0000
0001
,
0000
1000
0000
1000
,
0000
0010
0000
0010
,
0000
0100
0000
0100
,
0000
0010
0000
0010
,
0000
0100
0000
0100
,
0000
0100
0000
0010
,
0000
0010
0000
0100
,
0000
0100
0000
0110
,
0000
0000
0000
1000
,
1000
1000
0000
0001
,
0001
0001
0000
1000
,
1000
1000
0000
0001
,
0001
0001
0000
0100
,
0100
0100
0000
0010
,
0010
0010
0000
0100
,
0100
0100
0000
0010
,
0010
0010
0000
0100
,
0100
0100
0000
0010
,
0010
0010
0000
0100
,
0100
0100
0000
0001
,
0001
0001
0000
1000
,
1000
1000
0000
0001
,
0001
0001
0000
1000
,
1000
1000
0000
0000
,
0000
1000
1000
1000
,
0000
0001
0000
0001
,
0000
1000
0000
1000
,
0000
0001
0000
0001
,
0000
0100
0000
0100
,
0000
0010
0000
0010
,
0000
0100
0000
0100
,
0000
0010
0000
0010
,
0000
0100
0000
0100
,
0100
0100
0000
0001
,
0001
0001
0000
1000
,
1000
1000
0000
1000
,
0000
1000
0000
1000
,
0000
1000
0000
0001
,
0000
0001
0000
0100
,
0000
0100
0000
0010
,
0000
0010
0000
0000
;

//---------------dance-single - Destrier75----------------
#NOTES:
     dance-single:
     Destrier75:
     Challenge:
     12:
     0.513,0.524,0.234,0.075,0.275:
0000
0000
0000
0000
,
0000
0000
0000
0000
,
0000
0000
0000
0000
,
0000
0000
0000
0000
,
0000
0000
0000
0000
,
1000
0001
1000
0001
1000
0100
1000
0000
0000
0010
0000
0000
,
1000
0010
1000
0010
1000
0010
1000
0000
0000
0001
0000
0000
,
0100
0001
0000
0000
0001
1000
0000
0000
1000
0001
0000
0000
0002
0000
0000
0000
,
2003
0000
0000
0000
3010
0000
0000
1000
0010
0000
0000
0000
1010
0000
0000
0000
,
1000
0001
1000
0001
1000
0000
0001
0000
0100
0000
0001
0000
1001
0000
0000
0000
,
1000
0010
1000
0010
1000
0000
0010
0000
0001
0000
1000
0000
1001
0000
0000
0000
,
0001
0100
0001
0100
0001
0000
0010
0000
1000
0000
0001
0000
1000
0001
1000
0001
,
1000
0010
1000
0001
1001
0000
0110
0000
,
0100
0010
0100
0010
0100
0000
0001
0000
1000
0000
0001
0000
1001
0000
0000
0000
,
0010
1000
0010
1000
0010
0000
0100
0000
0001
0000
0100
0000
0110
0000
0000
0000
,
1000
0001
1000
0001
1000
0000
0001
0000
1000
0000
0010
0000
1000
0000
0000
0000
,
0000
0000
1010
0000
0101
0000
1000
0001
,
1000
0000
0010
0000
1000
0001
0000
0001
1000
0000
0010
0000
1000
0000
0001
0000
,
1000
0000
0010
0000
0100
0001
0000
0001
0100
0000
0010
0000
1000
0000
0001
0000
,
0100
0000
0010
0000
0100
0010
0000
0010
0100
0000
0010
0000
2000
0000
0000
0000
,
3002
0000
0203
0000
0302
0000
1003
0001
,
1000
0000
0010
0000
1000
0010
0000
0010
0001
0000
1000
0000
0001
0000
0100
0000
,
0010
0000
0100
0000
0010
0100
0000
0100
0001
0000
0001
0000
1000
0000
0010
0000
,
1000
0000
0001
0000
0100
0010
0000
0010
0001
0000
1000
0000
0002
0000
0000
0000
,
2003
0000
0000
0000
3020
0000
0000
0000
0230
0000
0000
0000
0301
0000
0000
0001
,
1000
0000
0000
1000
0010
0000
0000
0000
1010
0000
0000
1000
0010
0000
0000
0010
,
0001
0000
0000
0000
1010
0000
0000
0001
1000
0000
0000
1000
0010
0000
0000
0000
,
0101
0000
0000
0001
0100
0000
0000
0100
1000
0000
0000
0000
1001
0000
0000
0000
,
1000
0000
1001
0000
0110
0000
1000
0010
,
1000
0001
1000
0000
0100
0000
0010
0000
1000
0000
0001
0000
0100
0000
0010
0000
,
0100
0010
0100
0000
0001
0000
0100
0000
1000
0000
0001
0000
0100
0000
0001
0000
,
0100
0001
0100
0000
0010
0000
0100
0000
1000
0000
0010
0000
1000
0000
0010
0000
,
1000
0010
1000
0000
0100
0000
0010
0000
1000
0000
0001
0000
0100
0000
0001
0000
,
0100
0001
0100
0000
0001
0000
1000
0000
0010
0000
0100
0000
0010
0000
0100
0000
,
1000
0010
1000
0000
0100
0000
0010
0000
1000
0000
0001
0000
0100
0000
0010
0000
,
0001
0100
0001
0000
0010
0000
0100
0000
1000
0000
0010
0000
1000
0000
0100
0000
,
0001
0000
1000
0000
1001
0000
0000
0000
0110
0000
0000
0000
1000
0010
1000
0000
,
0100
0000
0010
0000
1000
0000
0001
0000
0100
0000
0010
0000
0100
0001
0100
0000
,
0001
0000
1000
0000
0001
0000
0100
0000
0010
0000
1000
0000
0010
0100
0010
0000
,
1000
0000
0001
0000
0100
0000
0010
0000
1000
0000
0001
0000
0100
0010
0100
0000
,
0001
0000
1000
0000
0100
0000
0010
0000
1000
0000
0001
0000
1000
0001
1000
0000
,
0001
0000
0100
0000
0010
0000
1000
0000
0001
0000
0100
0000
0010
0100
0010
0000
,
1000
0000
0001
0000
1000
0000
0001
0000
1000
0000
0010
0000
0100
0001
0100
0000
,
0010
1000
0001
0100
0010
0001
1000
0001
,
1000
0010
1010
0000
1001
0000
1000
0010
,
1000
0000
0010
0000
1000
0010
1000
0000
0100
0000
0010
0000
1000
0000
0001
0000
,
0100
0000
0001
0000
0100
0001
0100
0000
0010
0000
0100
0000
1000
0000
0010
0000
,
0100
0000
0010
0000
0100
0010
0100
0000
0001
0000
1000
0000
0001
0000
0100
0000
,
0010
0100
0110
0000
1001
0000
1000
0010
,
1010
0000
1000
0001
1000
0010
1000
0001
,
1000
0000
0010
0000
1000
0001
1000
0000
0001
0000
0100
0000
1000
0000
0001
0000
,
0010
0000
0100
0000
0001
0100
0001
0000
1000
0000
0010
0000
1000
0000
0001
0000
,
0100
0000
0010
0000
0110
0000
0000
0000
1001
0000
0000
0000
1000
0000
0000
0010
,
1000
0000
0000
1000
0001
0000
0000
0000
1001
0000
0000
0001
0100
0000
0000
0100
,
1000
0000
0000
0000
1010
0000
0000
0010
1000
0000
0000
1000
0001
0000
0000
0000
,
1001
0000
0000
0001
0100
0000
0000
0100
0001
0000
0000
0000
1001
0000
0000
0000
,
0100
0000
1010
0000
1001
0000
1000
0010
,
1000
0001
1000
0100
1000
0001
1000
0010
,
1000
0010
1000
0100
1000
0001
1000
0010
,
1000
0001
1000
0010
1000
0001
1000
0010
,
1000
0001
1000
0000
1001
0000
0000
0000
;
