#TITLE:2 Phut Hon;
#SUBTITLE:(KAIZ Remix);
#ARTIST:Phao;
#TITLETRANSLIT:;
#SUBTITLETRANSLIT:;
#ARTISTTRANSLIT:;
#CREDIT:;
#BANNER:2 Phut Hon (KAIZ Remix).png;
#BACKGROUND:2 Phut Hon (KAIZ Remix)-bg.png;
#LYRICSPATH:;
#CDTITLE:;
#MUSIC:2 Phut Hon (KAIZ Remix).ogg;
#OFFSET:1.860;
#SAMPLESTART:48.680;
#SAMPLELENGTH:15.000;
#SELECTABLE:YES;
#BPMS:0.000=128.000;
#STOPS:;
#BGCHANGES:4.000=2 Phut Hon (Kaiz Remix).avi=1.000=1=1=0,
99999=-nosongbg-=1.000=0=0=0 // don't automatically add -songbackground-
;

//---------------dance-single - ----------------
#NOTES:
     dance-single:
     Destrier75:
     Challenge:
     13:
     0.484,0.718,0.133,0.257,0.195:
0000
0000
0000
0000
,
0000
0000
0000
0000
,
0000
0000
0000
0000
,
0000
0000
0000
0000
,
0000
0000
0000
0000
,
0000
0000
0000
0000
,
0000
0000
0000
0000
,
1000
0010
0100
0001
,
0100
0010
0100
1000
,
0001
0100
0010
0100
,
0010
0100
0001
0100
,
1000
0010
1000
0001
0100
0010
0100
0001
,
0100
0001
0100
0000
0010
0000
0100
0000
1000
0000
0001
0000
0100
0000
0010
0000
,
0100
0010
0100
0000
0010
0000
1000
0000
0001
0000
0100
0000
0010
0000
0100
0000
,
0001
0100
0001
0000
0010
0000
0100
0000
0001
0000
0100
0000
0010
0000
0100
0000
,
0010
0010
0200
0302
,
2003
3002
0203
0320
,
0100
0100
0230
0302
,
2003
0000
3020
0000
0230
0000
0010
0310
,
0100
0000
0000
0010
0000
0000
0100
0000
0100
0000
0000
0001
0000
0000
1000
0000
,
1000
0000
0000
0010
0000
0000
0100
0000
0100
0000
0000
0001
0000
0000
0100
0000
,
0100
0000
0000
0001
0000
0000
0010
0000
0010
0000
0000
0100
0000
0000
1000
0000
,
1000
0000
0000
0010
0000
0000
0100
0000
0100
0000
0000
0010
0000
0000
1000
0000
,
1000
0010
1000
0000
0100
0010
0100
0000
0001
0010
0001
0000
1000
0010
1000
0000
,
0100
0010
0100
0000
0001
0100
0001
0000
1000
0001
1000
0000
0100
0001
0100
0000
,
0001
0010
0100
1000
0001
0010
0100
1000
0001
0010
0100
1000
0001
0010
0100
1000
,
0100
0110
0101
0010
,
0100
0010
0100
0000
0010
0000
0100
0000
0001
0000
0010
0000
0100
0000
0001
0000
,
0010
0001
0010
0000
1000
0000
0100
0000
0010
0000
0001
0000
1000
0000
0010
0000
,
1000
0001
1000
0000
0001
0000
0100
0000
0010
0000
1000
0000
0001
0000
0100
0000
,
0010
0100
0010
0000
1000
0000
0010
0000
0100
0000
0001
0000
0100
0000
0010
0000
,
0100
0001
0100
0000
0010
0000
1000
0000
0001
0000
0100
0000
0010
0000
0100
0000
,
0010
0100
0010
0000
1000
0000
0001
0000
0100
0000
0010
0000
0001
0000
0010
0000
,
0100
0001
0100
0000
0001
0000
0100
0000
0010
0000
1000
0000
0010
0000
0100
0000
,
0101
1001
0101
0011
,
1000
0001
1000
0000
0010
0000
0100
0000
0001
0000
0100
0000
0010
0000
1000
0000
,
0001
0100
0001
0000
0010
0000
0100
0000
0010
0000
1000
0000
0010
0000
0100
0000
,
0010
0100
0010
0000
0100
0000
0001
0000
1000
0000
0010
0000
0100
0000
0001
0000
,
0010
0001
0010
0000
1000
0000
0001
0000
0100
0000
0010
0000
0100
0000
0001
0000
,
1000
0010
1000
0000
0100
0000
0001
0000
0100
0000
0010
0000
0001
0000
0100
0000
,
0010
0100
0010
0000
1000
0000
0001
0000
0100
0000
0010
0000
0100
0000
0001
0000
,
0100
0001
0100
0000
0010
0000
0000
0000
0011
0000
0000
0000
1010
0000
0000
0000
,
0011
0110
0101
0011
,
0200
0302
2003
3002
,
2003
3020
2030
0001
,
3002
2003
3020
2030
,
3002
0023
0230
0301
,
1001
1000
0010
0100
0010
0001
1000
0001
,
1000
0100
0010
0001
0100
0001
0100
0010
,
0001
1000
0010
0100
0001
0100
0010
0001
,
0010
0100
1000
0001
0100
0010
0001
0000
,
2002
0000
0000
0000
,
3003
0000
0000
0000
;

//---------------dance-single - Destrier75----------------
#NOTES:
     dance-single:
     Destrier75:
     Hard:
     11:
     0.385,0.510,0.010,0.114,0.019:
0000
0000
0000
0000
,
0000
0000
0000
0000
,
0000
0000
0000
0000
,
0000
0000
0000
0000
,
0000
0000
0000
0000
,
0000
0000
0000
0000
,
0000
0000
0000
0000
,
1000
0001
1000
0010
,
1000
0100
1000
0001
,
1000
0001
0100
0100
,
0010
1000
0001
0100
,
0010
0000
1000
0010
1000
0000
0001
0000
,
0100
0001
0100
0000
0010
0000
1000
0010
,
1000
0000
0100
0000
0010
0100
0010
0000
,
0001
0000
0100
0010
0100
0000
0001
0000
,
2000
3002
0023
0100
,
0100
0100
0130
0010
,
2000
3020
0230
0001
,
0001
0001
0301
0010
,
1000
0010
1000
0000
0001
0100
0001
0000
,
0100
0010
0100
0010
0100
0000
0001
0000
,
1000
0010
1000
0000
0100
0001
0100
0000
,
0010
0100
0010
0100
0010
0000
1000
0000
,
0001
0100
0001
0010
0100
0001
0100
0010
,
0100
1000
0100
0010
0001
0100
0001
0100
,
0010
0100
0010
0000
0001
1000
0001
0000
0100
0001
0100
0000
0001
0100
0001
0000
,
0010
0010
0010
0010
,
1000
0010
1000
0100
0010
0001
0100
0010
,
0001
0010
0100
1000
0001
0100
0010
0001
,
0100
0010
0001
0010
0100
1000
0001
0100
,
0010
0001
0100
0001
1000
0010
1000
0010
,
0100
0001
0100
0001
0100
0010
1000
0001
,
0100
0010
0100
0010
0100
0001
1000
0001
,
1000
0100
0010
0001
1000
0001
1000
0001
,
1000
0010
0100
0010
0001
0100
0001
0100
,
0010
0001
0010
0100
0001
0100
0001
0100
,
0010
1000
0001
0100
0010
0100
0001
0010
,
0001
1000
0001
0100
0010
0001
0100
0010
,
0100
0001
0100
0001
0010
1000
0010
1000
,
0010
0100
0001
0010
0100
1000
0100
0010
,
0001
0100
0001
0100
0010
0100
0001
0100
,
0010
0100
0010
0100
,
0001
1000
0001
1000
,
0002
0203
0320
1000
,
1000
1000
1030
0010
,
2000
3002
0203
0010
,
0010
0010
0310
0010
,
1000
0001
1000
0000
0100
0001
0100
0000
,
0001
1000
0001
0000
1000
0001
1000
0000
,
0100
0010
0100
0000
0001
0100
0001
0000
,
1000
0010
1000
0000
0100
0010
0100
0000
,
0110
0000
0000
0000
;

//---------------dance-single - Destrier75----------------
#NOTES:
     dance-single:
     Destrier75:
     Medium:
     8:
     0.309,0.364,0.010,0.105,0.000:
0000
0000
0000
0000
,
0000
0000
0000
0000
,
0000
0000
0000
0000
,
0000
0000
0000
0000
,
0000
0000
0000
0000
,
0000
0000
0000
0000
,
0000
0000
0000
0000
,
0100
0010
0100
0000
0001
0000
1000
0000
,
0001
0100
0001
0000
0010
0000
1000
0000
,
0100
0010
0100
0000
0001
0000
0100
0000
,
0010
0100
0010
0000
1000
0000
0010
0000
,
1000
0001
1000
0000
0100
0000
0001
0000
,
1000
0010
1000
0000
0100
0000
0010
0000
,
0100
0001
0100
0000
0010
0000
1000
0000
,
0001
0100
0001
0000
1000
0000
0010
0000
,
0200
0302
1000
1000
,
1000
1000
1003
0100
,
0020
0230
0302
0010
,
0010
0010
0013
0100
,
1000
0001
1000
0000
0100
0000
0010
0000
,
0001
1000
0001
0000
0100
0000
0001
0000
,
1000
0010
1000
0000
0100
0000
0001
0000
,
0100
0010
0100
0000
0001
0000
1000
0000
,
0100
0001
0100
0000
0010
0100
0010
0000
,
0001
0100
0001
0000
1000
0010
1000
0000
,
1000
0100
0010
0001
0010
0100
1000
0001
,
1000
0001
1000
0001
,
1000
0010
1000
0000
0100
0000
0001
0000
,
0100
0001
0100
0000
0010
0000
1000
0000
,
0100
0010
0100
0000
0100
0000
0001
0000
,
0001
1000
0001
0000
0100
0000
0010
0000
,
1000
0001
1000
0000
0100
0000
0001
0000
,
0100
0001
0100
0000
0001
0000
1000
0000
,
0001
0100
0001
0000
0100
0000
0010
0000
,
1000
0001
1000
0000
0001
0000
0100
0000
,
0001
0100
0001
0000
1000
0000
0001
0000
,
0100
0010
0100
0000
0001
0000
0100
0000
,
0010
1000
0010
0000
0100
0000
0001
0000
,
0100
0010
0100
0000
0001
0000
1000
0000
,
0001
0100
0001
0000
1000
0000
0010
0000
,
1000
0001
1000
0000
0100
0000
0001
0000
,
0100
0010
0100
0010
,
0100
0100
0100
0100
,
0020
2030
3002
0100
,
0100
0100
0103
0010
,
2000
3002
0203
0010
,
0010
0010
0310
0010
,
1000
0010
1000
0000
0100
0000
0001
0000
,
0100
0010
0100
0000
0001
0000
1000
0000
,
0100
0001
0100
0000
0010
0000
1000
0000
,
0100
0010
0100
0000
0001
0000
0100
0000
,
0101
0000
0000
0000
;

//---------------dance-single - Destrier75----------------
#NOTES:
     dance-single:
     Destrier75:
     Easy:
     4:
     0.220,0.219,0.010,0.038,0.000: // measure 1
0000
0000
0000
0000
,  // measure 2
0000
0000
0000
0000
,  // measure 3
0000
0000
0000
0000
,  // measure 4
0000
0000
0000
0000
,  // measure 5
0000
0000
0000
0000
,  // measure 6
0000
0000
0000
0000
,  // measure 7
0000
0000
0000
0000
,  // measure 8
1000
0001
1000
0001
,  // measure 9
0100
0001
0100
0001
,  // measure 10
0010
1000
0010
1000
,  // measure 11
0100
0001
0100
0001
,  // measure 12
0100
0010
0100
0010
,  // measure 13
1000
0010
1000
0010
,  // measure 14
0100
0001
0100
0001
,  // measure 15
1000
0010
1000
0010
,  // measure 16
0100
0100
0200
0000
,  // measure 17
0000
0000
0300
0000
,  // measure 18
0010
0010
0020
0000
,  // measure 19
0000
0000
0030
0000
,  // measure 20
1000
0001
1000
0001
,  // measure 21
1000
0010
1000
0010
,  // measure 22
1000
0100
1000
0100
,  // measure 23
1000
0001
1000
0001
,  // measure 24
1000
0100
0010
0001
,  // measure 25
0010
0100
1000
0100
,  // measure 26
0010
0001
0010
0100
,  // measure 27
1000
1000
1000
1000
,  // measure 28
0001
0100
0001
0100
,  // measure 29
0010
0100
0010
0100
,  // measure 30
1000
0010
1000
0010
,  // measure 31
0100
0001
0100
0001
,  // measure 32
0010
1000
0010
1000
,  // measure 33
0100
0010
0100
0010
,  // measure 34
0001
0100
0001
0100
,  // measure 35
0010
1000
0010
1000
,  // measure 36
0100
0001
0100
0001
,  // measure 37
0010
0100
0010
0100
,  // measure 38
1000
0010
1000
0010
,  // measure 39
0100
0001
0100
0001
,  // measure 40
1000
0010
1000
0010
,  // measure 41
0100
0010
0100
0010
,  // measure 42
0100
0001
0100
0001
,  // measure 43
0010
1000
0010
1000
,  // measure 44
0001
0001
0002
0000
,  // measure 45
0000
0000
0003
0000
,  // measure 46
1000
1000
2000
0000
,  // measure 47
0000
0000
3000
0000
,  // measure 48
0100
0010
0100
0010
,  // measure 49
0100
0001
0100
0010
,  // measure 50
1000
0001
1000
0100
,  // measure 51
0010
0001
0100
0001
,  // measure 52
1001
0000
0000
0000
;

//---------------dance-single - Destrier75----------------
#NOTES:
     dance-single:
     Destrier75:
     Beginner:
     2:
     0.147,0.170,0.010,0.000,0.000:
0000
0000
0000
0000
,
0000
0000
0000
0000
,
0000
0000
0000
0000
,
0000
0000
0000
0000
,
0000
0000
0000
0000
,
0000
0000
0000
0000
,
0100
0000
0100
0000
,
0010
0000
0010
0000
,
1000
0000
1000
0000
,
0001
0000
0001
0000
,
1000
0000
1000
0000
,
0001
0000
0001
0000
,
0100
0000
0100
0000
,
0010
0000
0010
0000
,
0100
0000
0100
0000
,
0010
0000
0010
0000
,
0100
0000
0100
0000
,
0010
0000
0010
0000
,
0001
0000
0001
0000
,
1000
0000
1000
0000
,
0001
0000
0001
0000
,
0100
0000
0100
0000
,
0010
0000
0010
0000
,
0100
0000
0100
0000
,
0010
0000
0010
0000
,
0100
0000
0100
0000
,
0010
0000
0010
0000
,
0010
0000
0100
0100
,
0100
0000
0010
0010
,
0010
0000
1000
1000
,
1000
0000
0001
0001
,
0001
0000
1000
1000
,
1000
0000
0001
0001
,
0001
0000
0100
0100
,
0100
0000
0010
0010
,
0010
0000
1000
1000
,
1000
0000
0001
0001
,
0001
0000
0100
0100
,
0100
0000
0010
0010
,
0010
0000
1000
1000
,
1000
0000
0001
0001
,
0001
0000
1000
1000
,
1000
0000
0001
0001
,
0001
0000
0001
0000
,
1000
0000
1000
0000
,
0010
0000
0010
0000
,
0100
0000
0100
0000
,
0001
0000
0001
0000
,
0100
0000
0100
0000
,
0010
0000
0010
0000
,
1000
0000
1000
0000
,
1001
0000
0000
0000
;
