#TITLE:Precious Moments;
#ARTIST:TRUE KISS DESTINATION;
#BANNER:Precious Moments.png;
#BACKGROUND:Precious Moments-bg.png;
#CDTITLE:cdtitle.png;
#MUSIC:Precious Moments.ogg;
#SAMPLESTART:77.168;
#SAMPLELENGTH:15;
#DISPLAYBPM:100;
#BPMS:0=100.2,4=99.943,19=99.8,41.5=103.164,44=99.974,104=99.001,105=95.214,105.5=98.99,108=99.763,124=99.977,127=97.498,128=99.116,131=99.717,132=100.001,158=98.516,160=99.541;
#BGCHANGES:4=Precious Moments.avi=1=1=0=0;

//---------------dance-single - ----------------
#NOTES:
     dance-single:
     :
     Beginner:
     1:
     :
0000
0000
0000
0000
,
0000
0000
0000
0000
,
0000
0000
0000
0000
,
0000
0000
0000
0000
,
0000
0000
0000
0000
,
0000
0010
0000
0000
,
0000
1000
0000
0000
,
0000
0001
0000
0000
,
0000
0010
0000
0000
,
0000
0000
0000
0000
,
0000
0000
0000
0000
,
0000
0000
0000
0000
,
1000
0010
0000
0100
,
0001
0000
0000
0000
,
0000
0000
0000
0000
,
0000
0000
0000
0000
,
0000
0001
0000
0100
,
0000
0000
0000
0000
,
0000
0000
0000
0000
,
0000
0000
0000
0000
,
1000
0100
0001
0100
,
0000
0000
0000
0000
,
0000
0000
0000
0000
,
0000
0000
0000
0000
,
1000
0100
0001
1000
,
0000
0000
0000
0000
,
0000
0000
0000
0000
,
0000
0000
0000
0000
,
0000
0000
0000
0000
,
1000
0100
0001
0010
,
1000
0100
0001
0010
,
0000
0000
0000
0000
,
0000
0000
0010
0010
,
0100
0000
1000
0001
,
0010
0000
0001
1000
,
0100
0000
0000
0000
,
0000
0000
0000
0000
,
0000
0000
0000
0000
,
0000
0000
0000
0000
,
0000
0000
0000
0000
,
0100
0000
0001
1000
,
0010
0000
0000
0000
;

//---------------dance-single - ----------------
#NOTES:
     dance-single:
     :
     Easy:
     1:
     :
0000
0000
0000
0000
,
0000
0000
0000
0000
,
0000
0000
0000
0000
,
0000
0000
0000
0000
,
0000
0000
0000
0000
,
0000
0010
0000
0000
,
0000
0010
0000
0000
,
0000
0010
0000
0000
,
0000
0010
0000
0100
,
0000
0001
0000
0000
,
0000
1000
0000
0000
,
0000
0001
0000
0000
,
0000
1000
0000
0000
,
0000
0010
0000
0000
,
0000
1000
0000
0000
,
0000
0100
0000
0000
,
0000
0001
0000
1000
,
0000
0001
0000
1000
,
0000
0001
0000
1000
,
0000
0001
0000
1000
,
0000
0001
0000
1000
,
0000
0001
0000
0100
,
0000
1000
0000
0100
,
0000
0001
0000
0100
,
0000
1000
0000
0001
,
0010
0010
0010
0010
,
1000
1000
1000
1000
,
0001
0001
0001
0001
,
0100
0100
0100
0100
,
0000
1000
0000
0001
,
0000
1000
0000
0001
,
0000
1000
0100
0010
,
0001
0000
0000
0000
,
0000
0100
0000
0000
,
0000
0100
0000
0000
,
0000
0010
0000
0000
,
0000
1000
0000
0000
,
0000
0001
0000
0000
,
0000
0001
0000
0000
,
0000
1000
0000
0000
,
0000
0100
0000
0000
;

//---------------dance-single - ----------------
#NOTES:
     dance-single:
     :
     Medium:
     2:
     :
0000
0000
0000
0000
,
0000
0000
0000
0000
,
0000
0000
0000
0000
,
0000
0000
0000
0000
,
0000
0000
0000
0000
,
0000
0010
0000
0000
,
0000
1000
0000
0000
,
0000
0001
0000
0000
,
0000
0010
1000
0100
,
0010
0001
0000
0000
,
1000
0010
0000
0000
,
1000
0001
0000
0000
,
1000
0010
0000
0100
,
0001
0010
0000
0000
,
0001
1000
0000
0000
,
0001
0100
0000
0000
,
0000
0001
0000
0100
,
1000
0100
0001
0100
,
1000
0100
0001
0100
,
1000
0100
0001
0100
,
1000
0100
0001
0100
,
1000
0100
0001
0100
,
1000
0100
0001
0100
,
1000
0100
0001
0100
,
1000
0100
0001
1000
,
0010
0000
0000
0010
0000
0000
0010
0000
0000
0000
0010
0000
0010
0000
0000
0000
,
1000
0000
0000
1000
0000
0000
1000
0000
0000
0000
1000
0000
1000
0000
0000
0000
,
0001
0000
0000
0001
0000
0000
0001
0000
0000
0000
0001
0000
0001
0000
0000
0000
,
0100
0000
0000
0100
0000
0000
0100
0000
0000
0000
0100
0000
0100
0000
0000
0000
,
1000
0100
0001
0010
,
1000
0100
0001
0010
,
0001
1000
0100
0010
,
1100
0000
0010
0010
,
0100
0000
1000
0001
,
0010
0000
0001
1000
,
0100
0000
0010
0010
,
1000
0000
0010
0010
,
0001
0000
0100
0100
,
0010
0000
1000
0001
,
0100
0000
0010
1000
,
0100
0000
0001
1000
,
0010
0000
0000
0000
;

//---------------dance-single - ----------------
#NOTES:
     dance-single:
     :
     Hard:
     3:
     :
0000
0000
0000
0000
,
0000
0000
0000
0000
,
0000
0000
0000
0000
,
0000
0000
0000
0000
,
0000
0000
0000
0010
,
0100
0010
0000
0000
,
0000
0000
0000
1000
,
0001
1000
1000
0001
,
0001
0010
0010
0100
,
0001
0000
0001
1000
0000
0000
0000
0000
0000
0000
0000
0000
,
1000
0000
1000
0001
0000
0000
0000
0000
0000
0000
0000
0000
,
0001
0000
0001
0100
0000
0000
0000
0000
0000
0000
0000
0000
,
1000
0000
1000
0100
0000
0000
0000
0000
0000
0000
0000
0000
,
0001
0000
0001
0010
0000
0000
0000
0000
0000
0000
0000
0000
,
1000
0000
1000
0010
0000
0000
0000
0000
0000
0000
0000
0000
,
0001
0000
0001
1000
0000
0000
0000
0000
0000
0000
0000
0000
,
1000
0000
1000
0001
0000
0000
0001
0000
0001
1000
0000
0000
,
0001
0000
0001
1000
0000
0000
1000
0000
1000
0001
0000
0000
,
0001
0000
0001
1000
0000
0000
1000
0000
1000
0001
0000
0000
,
0001
0000
0001
1000
0000
0000
1000
0000
1000
0001
0000
0000
,
0001
0000
0001
1000
0000
0000
1000
0000
1000
0001
0000
0000
,
0001
0000
0001
0100
0000
0000
1000
0000
1000
0100
0000
0000
,
0001
0000
0001
0100
0000
0000
1000
0000
1000
0100
0000
0000
,
0001
0000
0001
0010
0000
0000
1000
0000
1000
0100
0000
0000
,
0001
0000
0001
0010
0000
0000
1000
0000
1000
0100
0000
0000
,
0010
0000
0000
0010
0000
0000
0010
0000
0000
0000
1000
0000
0001
0000
0000
0000
,
1000
0000
0000
1000
0000
0000
1000
0000
0000
0000
0100
0000
0010
0000
0000
0000
,
0001
0000
0000
0001
0000
0000
0001
0000
0000
0000
0010
0000
0100
0000
0000
0000
,
0100
0000
0000
0100
0000
0000
0100
0000
0000
0000
0001
0000
1000
0000
0000
0000
,
1000
0000
1000
0010
0000
0000
0010
0000
0010
0001
0000
0000
,
0001
0000
0001
0100
0000
0000
0100
0000
0100
1000
0000
0000
,
0100
0000
0001
0010
0000
1000
0100
0000
0001
0010
0000
1000
,
0110
0000
0010
0010
,
0100
0000
0000
0100
1000
0000
0001
0000
,
0010
0000
0000
0010
0001
0000
1000
0000
,
0100
0000
0000
0100
0010
0000
0010
0000
,
1000
0000
0000
1000
0010
0000
0010
0000
,
0001
0000
0000
0001
0100
0000
0100
0000
,
0010
0000
0000
0010
1000
0000
0001
0000
,
0100
0000
0000
0100
0010
0000
1000
0000
,
0100
0000
0000
0100
0001
0000
1000
0000
,
0010
0000
0000
0000
;

//---------------dance-single - ----------------
#NOTES:
     dance-single:
     :
     Challenge:
     5:
     :
0000
0000
0000
0000
,
0000
0000
0000
0000
,
0000
0000
0000
0000
,
0000
0000
0000
0000
,
0000
0000
0000
0000
0000
0000
0000
0000
0000
0000
0000
0000
1000
0001
1000
0001
,
0100
0010
0000
0000
0000
0000
0000
0000
,
1000
0100
0000
0000
0000
0000
0000
0000
,
0001
0100
1000
0010
,
0001
0000
0000
0000
0000
0000
0000
0000
1000
0000
0000
0000
0010
0001
0010
0001
,
1000
1000
0011
1000
0000
0000
0000
0000
,
0001
0001
1100
0001
0000
0000
0000
0000
,
0100
0100
0011
0100
0000
0000
0000
0000
,
0010
0010
1100
0010
0000
0000
0000
0000
,
0100
0100
0011
1100
0000
0000
0000
0000
,
0010
0010
0101
1010
0000
0000
0000
0000
,
1000
0001
0110
1001
0000
0000
0000
0000
,
1000
1000
1100
0000
0001
0001
0101
0000
,
0001
0000
0100
1000
0000
0000
1000
0000
0100
0001
0000
0000
,
0001
0000
0010
1000
0000
0000
1000
0000
0010
0001
0000
0000
,
0001
0000
0100
1000
0000
0000
1000
0000
0100
0001
0000
0000
,
0001
0000
0010
1000
0000
0000
1000
0000
0010
0001
0000
0000
,
0001
0000
1000
0100
0000
0000
1000
0000
0001
0100
0000
0000
,
0010
0000
0001
0100
0000
0000
0010
0000
1000
0100
0000
0000
,
1000
0000
0001
0010
0000
0000
1000
0000
0001
0010
0000
0000
,
0001
0000
0000
0000
0000
0000
0000
0100
,
0010
0000
0000
0100
0000
0000
0010
0000
0000
0000
1010
0000
0101
0000
0000
0000
,
0100
0000
0000
0010
0000
0000
0100
0000
0000
0000
0101
0000
1010
0000
0000
0000
,
0001
0000
0000
1000
0000
0000
0001
0000
0000
0000
0110
0000
1001
0000
0000
0000
,
0100
0000
0000
0010
0000
0000
0100
0000
0000
0000
1001
0000
0110
0000
0000
0000
,
1000
0000
1000
0010
0000
0000
0010
0000
0010
0001
0000
0000
,
0001
0000
0001
0100
0000
0000
0100
0000
0100
1000
0000
0000
,
0100
0000
0001
0010
0000
1000
0100
0000
0001
0010
0000
1000
,
0110
0001
0001
0001
1000
0000
1000
0000
,
0100
0000
0000
0100
1000
0000
0001
0000
,
0010
1000
1000
1000
0001
0000
1000
0000
,
0100
0000
0000
0100
0010
0000
0010
0000
,
1000
0001
0001
0001
0010
0000
0010
0000
,
0001
0000
0000
0001
0100
0000
0100
0000
,
0010
1000
0100
0010
0001
0000
0001
0000
,
0100
0000
0000
0100
0010
0000
1000
0000
,
0100
0001
0010
0100
1000
0000
1000
0000
,
0010
0000
0000
0000
;

//---------------dance-double - ----------------
#NOTES:
     dance-double:
     :
     Beginner:
     1:
     :
00000000
00000000
00000000
00000000
,
00000000
00000000
00000000
00000000
,
00000000
00000000
00000000
00000000
,
00000000
00000000
00000000
00000000
,
00000000
00000000
00000000
00010000
,
10000000
00100000
00000000
00000000
,
00000000
00000000
00000000
00000000
,
00000000
00000000
00000000
00000000
,
00001000
00000010
00000000
00000100
,
00000001
00000000
00000000
00000000
,
00000000
00000000
00000000
00000000
,
00000000
00000000
00000000
00000000
,
00000000
00000000
00000000
00000000
,
00000000
00000000
00000000
00000000
,
00000000
00000000
00000000
00000000
,
00000000
00000000
00000000
00000000
,
00010000
01000000
00001000
00000100
,
00000000
00000000
00000000
00000000
,
00000000
00000000
00000000
00000000
,
00000000
00000000
00000000
00000000
,
00010000
00100000
00001000
00000100
,
00000000
00000000
00000000
00000000
,
00000000
00000000
00000000
00000000
,
00010000
01000000
00001000
00000010
,
00000100
00010000
10000000
01000000
,
00000000
00000000
00000000
00000000
,
00000000
00000000
00000000
00000000
,
00000000
00000000
00000000
00000000
,
00000000
00000000
00000000
00000000
,
00000001
00001100
00001000
00000101
,
00000001
00001100
00000001
00000101
,
00000000
00000000
00000000
00000000
,
00000000
00000000
00001000
00001000
,
00010000
00000000
00000000
00000000
,
00000000
00000000
00000000
00000000
,
00000000
00000000
00000000
00000000
,
00000001
00000000
00000000
00000001
00001000
00000000
00010000
00000000
,
10000000
00000000
00000000
00000000
,
00000000
00000000
00000000
00000000
,
00000000
00000000
01000000
10000000
,
00100000
00000000
00000100
00000001
,
00001000
00000000
00000000
00000000
;

//---------------dance-double - ----------------
#NOTES:
     dance-double:
     :
     Easy:
     2:
     :
00000000
00000000
00000000
00000000
,
00000000
00000000
00000000
00000000
,
00000000
00000000
00000000
00000000
,
00000000
00000000
00000000
00000000
,
00000000
00000000
00000000
00000000
,
00000000
00100000
00000000
00000000
,
00000000
00010000
00000000
00000000
,
00000000
00001000
00000000
00000000
,
00000000
00000010
00000000
00000100
,
00000000
00000010
00000000
00000000
,
00000010
00001000
00000000
00000000
,
00001000
00010000
00000000
00000000
,
00010000
10000000
00000000
00000000
,
10000000
00100000
00000000
00000000
,
00100000
01000000
00000000
00000000
,
01000000
00010000
00000000
00000000
,
00000000
00010000
00000000
00000100
,
00000001
00000100
00001000
00000100
,
00000001
00000100
00001000
00000100
,
00000001
00000100
00001000
00000100
,
00000001
00000010
00000100
00001000
,
00010000
01000000
10000000
01000000
,
00010000
01000000
10000000
01000000
,
00010000
01000000
10000000
01000000
,
00010000
01000000
10000000
00010000
,
00100000
00100000
00100000
00100000
,
00010000
00010000
00010000
00010000
,
00001000
00001000
00001000
00001000
,
00000010
00000010
00000010
00000010
,
00000001
00000100
00001000
00000010
,
00000001
00000100
00001000
00000010
,
00001000
00000001
00001000
00000100
,
00000010
00000000
00001000
00001000
,
00010000
00000000
01000000
10000000
,
00100000
00000000
10000000
00010000
,
01000000
00000000
00100000
00100000
,
10000000
00000000
00100000
00100000
,
00010000
00000000
01000000
01000000
,
00100000
00000000
00010000
10000000
,
01000000
00000000
00100000
00010000
,
01000000
00000000
00010000
00001000
,
00000010
00000000
00000000
00000000
;

//---------------dance-double - ----------------
#NOTES:
     dance-double:
     :
     Medium:
     3:
     :
00000000
00000000
00000000
00000000
,
00000000
00000000
00000000
00000000
,
00000000
00000000
00000000
00000000
,
00000000
00000000
00000000
00000000
,
00000000
00000000
00000000
00010000
,
10000000
00100000
00000000
00000000
,
00000000
00000000
00000000
00010000
,
00001000
00000001
00000001
00001000
,
00001000
00000010
00000000
00000100
,
00000001
00010000
00000000
00000000
,
10000000
00001000
00000000
00000000
,
00000010
00100000
00000000
00000000
,
01000000
00000100
00000000
00000000
,
00000010
00010000
00000000
00000000
,
00100000
00001000
00000000
00000000
,
00000100
00010000
00000000
00000000
,
00010000
01000000
00001000
00000100
,
00010000
01000000
00001000
00000100
,
00010000
01000000
00001000
00000100
,
00010000
01000000
00001000
00000100
,
00010000
00100000
00001000
00000100
,
00010000
01000000
00001000
00000100
,
00010000
01000000
00001000
00000100
,
00010000
01000000
00001000
00000010
,
00000100
00010000
10000000
01000000
,
00010000
00000000
00000000
00010000
00000000
00000000
00010000
00000000
00000000
00000000
00001000
00000000
00001000
00000000
00000000
00000000
,
00001000
00000000
00000000
00001000
00000000
00000000
00001000
00000000
00000000
00000000
00010000
00000000
00010000
00000000
00000000
00000000
,
00000010
00000000
00000000
00001000
00000000
00000000
00010000
00000000
00000000
00000000
10000000
00000000
00010000
00000000
00000000
00000000
,
00100000
00000000
00000000
00010000
00000000
00000000
00001000
00000000
00000000
00000000
00000001
00000000
00001000
00000000
00000000
00000000
,
00000001
00001100
00001000
00000101
,
00000001
00001100
00000001
00000101
,
00001000
00001100
00000011
00001001
,
00011000
00000000
00001000
00001000
,
00010000
00000000
00000000
00010000
01000000
00000000
10000000
00000000
,
00100000
00000000
00000000
00100000
10000000
00000000
00010000
00000000
,
00001000
00000000
00000000
00001000
00000100
00000000
00000010
00000000
,
00000001
00000000
00000000
00000001
00001000
00000000
00010000
00000000
,
10000000
00000000
00000000
10000000
00010000
00000000
00001000
00000000
,
00000001
00000000
00000100
00000001
,
00000010
00000000
01000000
10000000
,
00100000
00000000
00000100
00000001
,
00001000
00000000
00000000
00000000
;

//---------------dance-double - ----------------
#NOTES:
     dance-double:
     :
     Hard:
     4:
     :
00000000
00000000
00000000
00000000
,
00000000
00000000
00000000
00000000
,
00000000
00000000
00000000
00000000
,
00000000
00000000
00000000
00000000
,
00000000
00000000
00000000
00000000
00000000
00000000
01000000
00100000
,
10000000
00010000
00000000
00000000
00010000
00000000
00000000
00000000
,
00001000
00000000
00001000
00000000
,
00000001
00000001
00001000
00010000
,
10000000
00000000
10000000
00000000
,
01000000
01000000
00010000
00100000
00000000
00000000
00000000
00000000
,
00000100
00000100
00001000
00000010
00000000
00000000
00000000
00000000
,
10000000
10000000
00100000
01000000
00000000
00000000
00000000
00000000
,
00000001
00000001
00000010
00000100
00000000
00000000
00000000
00000000
,
00100000
00010000
00001000
00010000
00000000
00000000
00000000
00000000
,
00000100
00001000
00010000
00001000
00000000
00000000
00000000
00000000
,
00000010
00001000
00000100
00000001
00000000
00000000
00000000
00000000
,
00001000
00010000
00100000
00000000
00010000
00001000
00000010
00000000
,
00010000
00100000
01100000
00000000
00010000
00100000
01100000
00000000
,
00001000
00000100
00000110
00000000
00001000
00000100
00000110
00000000
,
00010000
00100000
11000000
00000000
00010000
01000000
00101000
00000000
,
00001000
00000010
00000101
00000000
00001000
00000100
00010010
00000000
,
00000010
00000001
00000100
00000000
00001000
00000100
00010000
00000000
,
00010000
00001000
00100000
00000000
01000000
00100000
10000000
00000000
,
01000000
10000000
00100000
00000000
00010000
00100000
00001000
00000000
,
00001000
00010000
00000100
00000000
00000010
00000100
00000001
00000000
,
00000001
00000000
00000000
00000010
00000000
00000000
00001000
00000000
00000000
00000000
00010000
00000000
00010000
00000000
00000000
00000000
,
00000001
00000000
00000000
00000100
00000000
00000000
00001000
00000000
00000000
00000000
00010000
00000000
00010000
00000000
00000000
00000000
,
10000000
00000000
00000000
00100000
00000000
00000000
00010000
00000000
00000000
00000000
00001000
00000000
00001000
00000000
00000000
00000000
,
10000000
00000000
00000000
01000000
00000000
00000000
00010000
00000000
00000000
00000000
00001000
00000000
00001000
00000000
00000000
00000000
,
00000001
00000010
00001000
00000000
00001000
00000010
00000001
00000000
,
00000001
00000100
00001000
00000000
00010000
01000000
10000000
00000000
,
00100000
00010000
10000000
01000000
00010000
00100000
10000000
01000000
,
00010000
00000000
00001000
00001000
,
00010000
00000000
00000000
00010000
01000000
00100000
00001000
00010000
,
00000010
00000000
00000000
00000010
00000001
00000100
00001000
00010000
,
01000000
00000000
00000000
01000000
00010000
00100000
00001000
00000010
,
00000001
00000000
00000000
00000001
00000100
00001000
00100000
01000000
,
00010000
00000000
00000000
00010000
00001000
00000100
00010000
00100000
,
10000000
01000000
10000000
00000000
00010000
01000000
00100000
00010000
,
00001000
00000100
00001000
00000000
00000001
00000010
00000100
00000001
,
00001000
00010000
00001000
00000000
00010000
00100000
01000000
10000000
,
00010000
00000000
00000000
00000000
;

//---------------dance-couple - ----------------
#NOTES:
     dance-couple:
     :
     Easy:
     1:
     :
00000000
00000000
00000000
00000000
,
00000000
00000000
00000000
00000000
,
00000000
00000000
00000000
00000000
,
00000000
00000000
00000000
00000000
,
00000000
00000000
00000000
00000000
,
00000000
00011000
00000000
00000000
,
00000000
10000001
00000000
00000000
,
00000000
00100010
00000000
00000000
,
00000000
00100010
00000000
01000100
,
00000000
00010001
00000000
00000000
,
00000000
10001000
00000000
00000000
,
00000000
00010001
00000000
00000000
,
00000000
10001000
00000000
00000000
,
00000000
00100010
00000000
00000000
,
00000000
10001000
00000000
00000000
,
00000000
01000010
00000000
00000000
,
00000000
00011000
00000000
10000001
,
00000000
00011000
00000000
10000001
,
00000000
00011000
00000000
10000001
,
00000000
00011000
00000000
10000001
,
00000000
00011000
00000000
10000001
,
00000000
10001000
00000000
01000100
,
00000000
10001000
00000000
01000100
,
00000000
00010001
00000000
01000100
,
00000000
10001000
00000000
00010001
,
00100010
00100010
00100010
00100010
,
10001000
10001000
10001000
10001000
,
00010001
00010001
00010001
00010001
,
01000100
01000100
01000100
01000100
,
00000000
00011000
00000000
10000001
,
00000000
00011000
00000000
10000001
,
00000000
00011000
00100100
01000010
,
10000001
00000000
00000000
00000000
,
00000000
01000100
00000000
00000000
,
00000000
01000100
00000000
00000000
,
00000000
00100010
00000000
00000000
,
00000000
10001000
00000000
00000000
,
00000000
00010001
00000000
00000000
,
00000000
00010001
00000000
00000000
,
00000000
10001000
00000000
00000000
,
00000000
01000100
00000000
00000000
;

//---------------dance-couple - ----------------
#NOTES:
     dance-couple:
     :
     Medium:
     2:
     :
00000000
00000000
00000000
00000000
,
00000000
00000000
00000000
00000000
,
00000000
00000000
00000000
00000000
,
00000000
00000000
00000000
00000000
,
00000000
00000000
00000000
00000000
,
00000000
00100100
00000000
00000000
,
00000000
10000001
00000000
00000000
,
00000000
00010100
00000000
00000000
,
00000000
00100010
10000001
01000100
,
00100010
00011000
00000000
00000000
,
00011000
00100010
00000000
00000000
,
00011000
10000001
00000000
00000000
,
00011000
00100010
00000000
01000100
,
10000001
00100010
00000000
00000000
,
10000001
00011000
00000000
00000000
,
00011000
01000100
00000000
00000000
,
00000000
00011000
00000000
01000100
,
10000001
01000100
00011000
01000100
,
10000001
01000100
00011000
01000100
,
10000001
01000100
00011000
01000100
,
10000001
01000100
00011000
01000100
,
10000001
01000100
00011000
01000100
,
10000001
01000100
00011000
01000100
,
10000001
01000100
00011000
01000100
,
10000001
01000100
00011000
10000001
,
00100010
00000000
00000000
00100010
00000000
00000000
00100010
00000000
00000000
00000000
00100010
00000000
00100010
00000000
00000000
00000000
,
10001000
00000000
00000000
10001000
00000000
00000000
10001000
00000000
00000000
00000000
10001000
00000000
10001000
00000000
00000000
00000000
,
00010001
00000000
00000000
00010001
00000000
00000000
00010001
00000000
00000000
00000000
00010001
00000000
00010001
00000000
00000000
00000000
,
01000100
00000000
00000000
01000100
00000000
00000000
01000100
00000000
00000000
00000000
01000100
00000000
01000100
00000000
00000000
00000000
,
00011000
01000100
10000001
00100010
,
00011000
01000100
10000001
00100010
,
10000001
00011000
01000100
00100010
,
01011100
00000000
00100010
00100010
,
01000100
00000000
10000001
00011000
,
00100100
00000000
00011000
10000001
,
01000100
00000000
00100010
00100010
,
10000001
00000000
00100010
00100010
,
00011000
00000000
01000100
01000100
,
00100010
00000000
10000001
00011000
,
01000100
00000000
00100010
10000001
,
01000100
00000000
00011000
10000001
,
00100010
00000000
00000000
00000000
;

//---------------dance-couple - ----------------
#NOTES:
     dance-couple:
     :
     Hard:
     3:
     :
00000000
00000000
00000000
00000000
,
00000000
00000000
00000000
00000000
,
00000000
00000000
00000000
00000000
,
00000000
00000000
00000000
00000000
,
00000000
00000000
00000000
00100100
,
01000010
00100100
00000000
00000000
,
00000000
00000000
00000000
10000001
,
00011000
10000001
10000001
00011000
,
00011000
00100100
00100100
01000010
,
10000001
00000000
10000001
00011000
00000000
00000000
00000000
00000000
00000000
00000000
00000000
00000000
,
00011000
00000000
00011000
10000001
00000000
00000000
00000000
00000000
00000000
00000000
00000000
00000000
,
10000001
00000000
10000001
01000100
00000000
00000000
00000000
00000000
00000000
00000000
00000000
00000000
,
00011000
00000000
00011000
01000100
00000000
00000000
00000000
00000000
00000000
00000000
00000000
00000000
,
10000001
00000000
10000001
00100010
00000000
00000000
00000000
00000000
00000000
00000000
00000000
00000000
,
00011000
00000000
00011000
00100010
00000000
00000000
00000000
00000000
00000000
00000000
00000000
00000000
,
10000001
00000000
10000001
00011000
00000000
00000000
00000000
00000000
00000000
00000000
00000000
00000000
,
10000001
00000000
10000001
00011000
00000000
00000000
00011000
00000000
00011000
10000001
00000000
00000000
,
00011000
00000000
00011000
10000001
00000000
00000000
10000001
00000000
10000001
00011000
00000000
00000000
,
00011000
00000000
00011000
10000001
00000000
00000000
10000001
00000000
10000001
00011000
00000000
00000000
,
00011000
00000000
00011000
10000001
00000000
00000000
10000001
00000000
10000001
00011000
00000000
00000000
,
00011000
00000000
00011000
10000001
00000000
00000000
10000001
00000000
10000001
00011000
00000000
00000000
,
00011000
00000000
00011000
01000100
00000000
00000000
10000001
00000000
10000001
01000100
00000000
00000000
,
00011000
00000000
00011000
01000100
00000000
00000000
10000001
00000000
10000001
01000100
00000000
00000000
,
00011000
00000000
00011000
01000100
00000000
00000000
10000001
00000000
10000001
01000100
00000000
00000000
,
00011000
00000000
00011000
00100010
00000000
00000000
10000001
00000000
10000001
01000100
00000000
00000000
,
01000010
00000000
00000000
01000010
00000000
00000000
01000010
00000000
00000000
00000000
00011000
00000000
10000001
00000000
00000000
00000000
,
00011000
00000000
00000000
00011000
00000000
00000000
00011000
00000000
00000000
00000000
00100100
00000000
01000010
00000000
00000000
00000000
,
10000001
00000000
00000000
10000001
00000000
00000000
10000001
00000000
00000000
00000000
01000010
00000000
00100100
00000000
00000000
00000000
,
00100100
00000000
00000000
00100100
00000000
00000000
00100100
00000000
00000000
00000000
10000001
00000000
00011000
00000000
00000000
00000000
,
10001000
00000000
10001000
00100010
00000000
00000000
00100010
00000000
00100010
00010001
00000000
00000000
,
00010001
00000000
00010001
01000100
00000000
00000000
01000100
00000000
01000100
10001000
00000000
00000000
,
01000100
00000000
00010001
00100010
00000000
10001000
01000100
00000000
00010001
00100010
00000000
10001000
,
01100110
00000000
00100010
00100010
,
01000100
00000000
00000000
01000100
10000001
00000000
00011000
00000000
,
00100010
00000000
00000000
00100010
00011000
00000000
10000001
00000000
,
01000100
00000000
00000000
01000100
00100010
00000000
00100010
00000000
,
10000001
00000000
00000000
10000001
00100010
00000000
00100010
00000000
,
00011000
00000000
00000000
00011000
01000100
00000000
01000100
00000000
,
00100010
00000000
00000000
00100010
10000001
00000000
00011000
00000000
,
01000100
00000000
00000000
01000100
00100010
00000000
10000001
00000000
,
01000100
00000000
00000000
01000100
00011000
00000000
10000001
00000000
,
00011000
00000000
00000000
00000000
;
