#TITLE:PURE MIND;
#ARTIST:TRUE KISS DESTINATION;
#BANNER:PURE MIND.png;
#BACKGROUND:PURE MIND-bg.png;
#CDTITLE:./CDTitles/Dancing Stage featuring TRUE KISS DESTINATION.png;
#MUSIC:PURE MIND.ogg;
#SAMPLESTART:49.25;
#SAMPLELENGTH:15;
#DISPLAYBPM:120;
#BPMS:0=120;

//---------------dance-single - ----------------
#NOTES:
     dance-single:
     :
     Beginner:
     1:
     :
0000
0000
0000
0000
,
0000
0000
0000
0000
,
0000
0000
0000
0000
,
0000
0000
0000
0000
,
1000
0000
1000
0000
0001
0010
1000
0000
,
0000
0000
0000
0000
,
0000
0000
0000
0000
,
0000
0000
0000
0000
,
0010
0000
0100
0000
1000
0100
0010
0001
,
0000
0000
0000
0000
,
0000
0000
0000
0000
,
0000
0000
0000
0000
,
1000
0000
0001
0000
0010
0010
1000
0100
,
0000
0000
0000
0000
,
0000
0000
0000
0000
,
0000
0000
0000
0000
,
1000
0001
0001
0000
1000
0001
0001
0000
,
0000
0000
0000
0000
,
0000
0000
0000
0000
,
0000
0000
0000
0000
,
1000
0000
0001
0000
0010
1000
0001
0100
,
0000
0000
0000
0000
,
0000
0000
0000
0000
,
0000
0000
0000
0000
,
0000
0000
0000
0000
,
1000
0100
1001
0001
,
0001
0100
1001
1000
,
0000
0000
0000
0000
,
0000
0000
0000
0000
,
0001
0100
1001
0010
,
0010
1000
0110
0100
,
0000
0000
0000
0000
,
0000
0000
0000
0000
,
1001
0000
0010
0000
1000
0001
1000
1000
,
0001
0000
0100
0000
0001
1000
0001
0001
,
0000
0000
0000
0000
,
0000
0000
0000
0000
,
0000
0000
0000
0000
,
0000
0000
0000
0000
,
0000
0000
0000
0000
,
0000
0000
0000
0000
,
0001
0000
0100
0000
1000
0000
0100
0010
,
0001
0000
0100
0000
1000
0000
0100
0010
,
0000
0000
0000
0000
,
0000
0000
0000
0000
,
0001
0000
0000
1000
0000
0000
0000
0000
;

//---------------dance-single - ----------------
#NOTES:
     dance-single:
     :
     Easy:
     3:
     :
0000
0000
0000
0000
,
0000
0000
0000
0000
,
0000
0000
0000
0000
,
0000
0000
0000
0000
,
0000
0000
0000
0000
,
0001
0010
1000
0100
,
0001
0010
1000
0100
,
0010
0010
0100
0100
,
0010
0100
0001
0001
,
1000
0010
0001
0100
,
1000
0010
0001
0100
,
0001
0001
1000
1000
,
0001
1000
0001
0001
,
1000
0100
0001
0100
,
1000
0100
1000
0100
,
0001
0100
1000
0100
,
0001
0100
0001
1001
,
1000
0010
0001
0010
,
1000
0100
0001
0010
,
1000
0010
0001
0010
,
1000
0100
0001
1001
,
0010
0000
0000
0010
0000
0000
0000
0000
0010
0000
0000
0010
0000
0000
0000
0000
,
0100
0000
0000
0100
0000
0000
0000
0000
0100
0000
0000
0100
0000
0000
0000
0000
,
0001
0000
0000
0001
0000
0000
0000
0000
0001
0000
0000
0001
0000
0000
0000
0000
,
0010
0100
1001
0000
,
1000
0100
0001
0001
,
0001
0100
1000
1000
,
1000
0100
0001
0010
,
1000
0001
0100
1001
,
1000
0010
0001
0001
,
0001
0010
1000
1000
,
1000
0010
0001
0100
,
1000
0010
0001
0100
,
1001
0000
0100
0010
,
1001
0000
0100
0010
,
1001
0000
1000
1000
,
0001
0100
0010
1000
,
0110
0000
1000
0001
,
0110
0000
1000
0001
,
0110
1000
0010
0100
,
1000
0100
0001
0001
,
0001
0100
1000
0100
,
0001
0010
1000
0100
,
0001
0110
1000
0110
,
0010
0001
1000
1000
,
0010
0000
0000
0001
0000
0000
0000
0000
;

//---------------dance-single - ----------------
#NOTES:
     dance-single:
     :
     Medium:
     4:
     :
0000
0000
0000
0000
,
0000
0000
0000
0000
,
0000
0000
0000
0000
,
0000
0000
0000
0000
,
1000
0000
1000
0000
0001
0010
1000
0000
,
0010
0000
0001
0000
0010
0000
1000
0100
,
0010
0000
0001
0000
0010
0000
1000
0100
,
0001
0010
0001
0100
,
0010
0000
0100
0000
1000
0100
0010
0001
,
0010
0000
1000
0000
0010
0000
0001
0100
,
0010
0000
1000
0000
0010
0000
0001
0100
,
1000
0010
1000
0100
,
1000
0000
0001
0000
0010
0010
1000
0100
,
0010
0000
0001
0000
0010
0000
1000
0010
,
0100
0000
1000
0000
0100
0000
0001
0010
,
0100
0001
1000
0110
,
1000
0001
0001
0000
1000
0001
0001
0000
,
0001
0100
1000
0000
0001
0010
1000
0000
,
0010
0000
1000
0000
0100
0001
0100
1000
,
0001
0010
1000
0100
,
1000
0000
0001
0000
0010
1000
0001
0100
,
0010
0000
0000
0010
0000
0000
0000
0000
0100
0000
0000
0100
0000
0000
0000
0000
,
1000
0000
0000
1000
0000
0000
0000
0000
0001
0000
0000
0001
0000
0000
0000
0000
,
1001
0000
0000
0001
0000
0000
0000
0000
1001
0000
0000
1000
0000
0000
0000
0000
,
0110
0000
0000
1000
0000
0000
0010
0000
1001
0000
0000
0000
0000
0000
0000
0000
,
1000
0100
1001
0001
,
0001
0100
1001
1000
,
1000
0000
0100
0000
0001
0000
0010
0001
,
0001
0000
1000
0000
0001
0100
0010
1000
,
0001
0100
1001
0010
,
0010
1000
0110
0100
,
1000
0000
0100
0000
0001
0000
0100
1000
,
1000
0010
0001
0110
,
1001
0000
0010
0000
1000
0001
1000
1000
,
0001
0000
0100
0000
0001
1000
0001
0001
,
1000
0000
0100
0000
0001
0001
1000
1000
,
0100
0000
0010
0000
0001
0010
0100
1000
,
0001
0000
1000
0000
0001
0100
0010
1000
,
0001
0000
1000
0000
0001
0010
0100
0001
,
1000
0100
0010
0001
,
1000
0100
0010
0001
1000
0000
1001
0000
,
0001
0000
0100
0000
1000
0000
0100
0010
,
0001
0000
0100
0000
1000
0000
0100
0010
,
1000
0000
0100
0000
0001
0000
0100
0010
,
1000
0000
0100
0000
0001
0000
0100
0010
,
0001
0000
0000
1000
0000
0000
0000
0000
;

//---------------dance-single - ----------------
#NOTES:
     dance-single:
     :
     Hard:
     6:
     :
0000
0000
0000
0000
,
0000
0000
0000
0000
,
0000
0000
0000
0000
,
0000
0000
0000
0000
,
0010
0100
0010
0010
1000
0010
0100
0000
,
0010
1000
0000
1000
0000
1000
0100
1000
,
0010
0001
0000
0001
0000
0001
0100
0001
,
1000
0010
0000
0100
0100
0010
0000
0001
,
0010
1000
0000
1000
0101
0000
0101
0000
,
0100
0001
0000
0001
0000
0001
0100
1000
,
0100
1000
0000
1000
0000
1000
0100
0001
,
1000
0100
0000
0001
1000
0100
0000
0001
,
1000
0010
0100
0001
1000
0100
1000
0100
,
0001
0010
0000
0010
1000
0010
0100
0001
,
1000
0100
0000
0100
0001
0010
0100
1000
,
1000
0010
0001
0001
0001
0100
1000
1000
,
1000
0100
0001
0010
1100
0000
0101
0000
,
0010
0001
0100
0100
0100
1000
0010
0010
,
0010
1000
0010
0001
0100
0001
0100
1000
,
0010
0100
0010
0001
0001
0100
0010
1000
,
1000
0001
0100
1000
0001
0001
0001
0001
,
1000
0000
0000
1000
0000
0000
0100
0000
0001
0000
0000
0001
0000
0000
0010
0000
,
1000
0000
0000
1000
0000
0000
0010
0000
0001
0000
0000
0001
0000
0000
0100
0000
,
0010
0000
0000
1000
0000
0000
0100
0000
0001
0000
0000
1000
0000
0000
0010
0000
,
1000
0000
0000
0001
0000
0000
0100
0000
1001
0000
0000
0000
0000
0000
0000
0000
,
1000
0000
0100
0000
0001
0000
0001
1000
,
0001
0000
0100
0000
1000
0000
1000
0001
,
1000
0100
0001
0010
,
1000
0010
0001
1000
0010
0010
0010
0010
,
1000
0000
0100
0000
0001
0000
0001
1000
,
0001
0000
0010
0000
1000
0000
1000
0001
,
1000
0010
0001
0100
,
1000
0010
0001
0100
0001
0100
0001
0100
,
0001
0000
0100
0000
0101
0100
1000
0001
,
1000
0000
0100
0000
0101
0100
1000
0001
,
1000
0000
0100
0000
1010
1000
0011
0001
,
1000
1000
1000
1000
,
0001
0000
0010
0000
0101
0001
1000
0001
,
1000
0000
0010
0000
0101
0001
1000
0001
,
1000
0000
0001
0000
1100
1000
0101
0001
,
1000
0000
1000
0000
1000
1000
1000
1000
,
0001
0000
0000
0001
0000
0000
0001
0000
0000
0000
1000
0000
0110
0000
0000
0000
,
0010
0000
0001
0000
1000
0000
0100
0000
0000
0100
0010
0000
1001
0000
0000
0000
,
0100
0000
0000
0100
0000
0000
0100
0000
0000
0000
0010
0000
1001
0000
0000
0000
,
1100
0010
0011
0100
1001
0010
0110
0100
,
0001
1000
0000
0000
0000
0000
1000
0001
0000
0000
0000
0000
0000
0000
0000
0000
;

//---------------dance-single - ----------------
#NOTES:
     dance-single:
     :
     Challenge:
     7:
     :
0000
0000
0000
0000
,
0000
0000
0000
0000
,
0000
0000
0000
0000
,
0000
0000
0000
0000
,
0010
1000
1000
1000
0001
0100
0100
0000
,
0010
1000
0000
1000
0010
0001
0100
1000
,
0010
0001
0000
0001
0100
1000
0010
0001
,
0010
0100
1000
0000
0000
0010
0100
1000
,
0000
0010
0100
1000
0000
1001
0110
0000
,
0100
0001
0000
0001
0100
1000
0010
0001
,
0100
1000
0000
1000
0010
0001
0100
1000
,
0100
0010
0001
0000
0000
0100
0010
0001
,
0000
0100
0010
0001
0000
0011
1100
0000
,
0100
0010
0000
0010
1000
0001
0100
0010
,
0100
0010
0000
0010
0001
1000
0100
0010
,
0001
0001
0001
0100
0100
0100
0001
0100
,
1000
0010
1000
0010
0000
1001
0110
0000
,
0010
0100
0000
0100
0001
1000
0010
0100
,
0010
0100
0000
0100
1000
0001
0010
0100
,
1000
1000
1000
0010
0010
0010
1000
0010
,
0100
0000
0100
0000
0001
0010
1000
0000
,
1000
0000
0000
0010
0000
0000
0001
0000
1000
0000
0000
0010
0000
0000
0001
0000
,
0010
0000
0000
1000
0000
0000
0100
0000
0010
0000
0000
1000
0000
0000
0100
0000
,
0001
0000
0000
1010
0000
0000
0101
0000
1000
0000
0000
1100
0000
0000
0011
0000
,
0100
0000
0000
0100
0000
0000
0010
0000
1001
0000
0000
0000
0000
0000
0000
0000
,
1000
0000
0000
1000
0000
0000
1000
0000
0000
0000
0001
0000
0010
0000
1000
0000
,
0001
0000
0000
0001
0000
0000
0001
0000
0000
0000
1000
0000
0010
0000
0001
0000
,
0100
0000
0000
0100
0000
0000
0100
0000
0000
0000
0010
0000
0001
0000
1000
0000
,
0100
0100
0100
0010
1000
1000
1000
1000
,
0010
0000
0000
0100
0000
0000
0100
0000
0000
0000
1000
0000
0001
0000
1000
0000
,
0100
0000
0000
0010
0000
0000
0010
0000
0000
0000
0001
0000
1000
0000
0001
0000
,
0010
0000
0000
1000
0000
0000
0100
0000
0000
0000
0001
0000
0010
0000
1000
0000
,
1000
0000
0000
0100
0000
0000
0001
0000
0001
0000
0000
0010
0000
0000
1000
0000
,
1000
0000
0000
0100
0000
0000
0001
0000
0010
0000
0010
0000
0010
0000
0010
0000
,
0001
0000
0000
0010
0000
0000
1000
0000
0100
0000
0100
0000
0100
0000
0100
0000
,
1001
0000
0000
0110
0000
0000
1001
0000
1000
0000
0001
0000
1000
0000
0001
0000
,
1000
1000
1000
0001
0010
0010
0010
0010
,
0110
0000
0000
1010
0000
0000
0011
0000
0000
0000
1000
0000
1000
0000
1000
0000
,
0110
0000
0000
1100
0000
0000
0101
0000
0000
0000
0001
0000
0001
0000
0001
0000
,
0010
0000
0000
1000
0000
0000
0100
0000
0100
0000
0000
0001
0000
0000
0010
0000
,
1000
0000
0000
0000
0000
0000
0000
0000
0000
0000
0001
0010
1000
0000
0000
0000
,
0010
1000
0000
1000
0001
0100
0001
0010
,
0100
0001
0000
0001
1000
0010
1000
0100
,
0001
0001
0100
0100
0000
0001
0001
0100
,
0100
0000
1000
1000
0100
0100
0010
0010
,
0001
1000
0000
0000
0000
0000
1000
0001
0000
0000
0000
0000
0000
0000
0000
0000
;

//---------------dance-double - ----------------
#NOTES:
     dance-double:
     :
     Beginner:
     1:
     :
00000000
00000000
00000000
00000000
,
00000000
00000000
00000000
00000000
,
00000000
00000000
00000000
00000000
,
00000000
00000000
00000000
00000000
,
00000000
00000000
00000000
00000000
,
00001000
00000000
00000001
00000100
00001000
00000000
00000001
00000010
,
00001000
00000000
00000000
00000000
,
10000000
00000000
00010000
01000000
10000000
00000000
00010000
00100000
,
10000000
00000000
00000000
00000000
,
00000001
00000000
00001000
00000100
00000001
00000000
00001000
00000010
,
00000001
00000000
00000000
00000000
,
10000000
00000000
00010000
01000000
10000000
00000000
00010000
00100000
,
10000000
00000000
00000000
00000000
,
00000000
00000000
00000000
00000000
,
00000000
00000000
00000000
00000000
,
00000000
00000000
00000000
00000000
,
00000000
00000000
00000000
00000000
,
00000000
00000000
00000000
00000000
,
00000000
00000000
00000000
00000000
,
00000000
00000000
00000000
00000000
,
00010000
00000000
00000010
00000001
00000100
00001000
00010000
00100000
,
01000000
00000000
00001000
00000000
,
00000001
00000000
00001000
00000000
,
01000000
00000000
00001000
00000000
,
00001000
00000000
00000000
00000000
,
00000000
00000000
00000000
00000000
,
00000000
00000000
00000000
00000000
,
00000000
00000000
00000000
00000000
,
00000010
00000000
00000100
00000000
00000001
00000100
00001000
00010000
,
00000000
00000000
00000000
00000000
,
00000000
00000000
00000000
00000000
,
00000000
00000000
00000000
00000000
,
00010000
01000000
00100000
00010000
00001000
00010000
01000000
10000000
,
00000000
00000000
00000000
00000000
,
00000000
00000000
00000000
00000000
,
00000000
00000000
00000000
00000000
,
00001000
00000000
00010000
00000000
10000000
01000000
00100000
00000000
,
00000000
00000000
00000000
00000000
,
00000000
00000000
00000000
00000000
,
00000000
00000000
00000000
00000000
,
00000001
00000000
00001000
00000000
00011000
00001000
00000100
00000010
,
00000000
00000000
00000000
00000000
,
10000000
01000000
00100000
00010000
00001000
00000100
00000010
00000001
,
00000000
00000000
00000000
00000000
,
00000001
00000010
00000100
00001000
00010000
00100000
01000000
10000000
;

//---------------dance-double - ----------------
#NOTES:
     dance-double:
     :
     Easy:
     4:
     :
00000000
00000000
00000000
00000000
,
00000000
00000000
00000000
00000000
,
00000000
00000000
00000000
00000000
,
00000000
00000000
00000000
00000000
,
00000000
00000000
00000000
00000000
,
00010000
00001000
00000001
00001000
,
00001000
00010000
10000000
00010000
,
00010000
00001000
10000000
01000000
,
00100000
00001000
00000001
00000001
,
00001000
00010000
10000000
00010000
,
00010000
00001000
00000001
00001000
,
00001000
00010000
00000001
00000010
,
00000100
00000000
00010000
00000000
10000000
00000000
10000000
00010000
,
00001000
00000100
00010000
01000000
,
00001000
00000010
00010000
00100000
,
10000000
00010000
00000100
00000010
,
00010000
00000010
00000001
00001000
,
00010000
01000000
00001000
00000100
,
00010000
00100000
00001000
00000010
,
00000001
00001000
01000000
00100000
,
00001000
00100000
10000000
00010000
,
00001000
00000000
00000000
00001000
00000000
00000000
00000000
00000000
00000001
00000000
00000000
00000001
00000000
00000000
00000000
00000000
,
00001000
00000000
00000000
00001000
00000000
00000000
00000000
00000000
00010000
00000000
00000000
00010000
00000000
00000000
00000000
00000000
,
10000000
00000000
00000000
10000000
00000000
00000000
00000000
00000000
00010000
00000000
00000000
00010000
00000000
00000000
00000000
00000000
,
00001000
00000000
00000000
00000100
00000000
00000000
00000010
00000000
00001001
00000000
00000000
00000000
00000000
00000000
00000000
00000000
,
00000001
00000100
00010000
00010000
,
00001000
01000000
10000000
10000000
,
00010000
00100000
10000000
01000000
,
00001000
00000010
00000001
00001001
,
00000100
00000010
00010000
00010000
,
00001000
00100000
10000000
10000000
,
00010000
00001000
00000001
00001000
,
00001000
00010000
10000000
00010000
,
00001000
00000100
00000001
00000110
,
00010000
01000000
10000000
01100000
,
00010000
00000010
00001000
00100000
,
00010000
00000010
00000100
00010000
,
01000000
10000000
00100000
00011000
,
00000100
00000001
00000010
00011000
,
10000000
00010000
00100000
00001000
,
00000001
00001000
00000010
00010000
,
00000001
00001000
00000001
00001000
,
10000000
00010000
10000000
00010000
,
00000001
00000100
00010000
01000000
,
10000000
00100000
00001000
00000110
;

//---------------dance-double - ----------------
#NOTES:
     dance-double:
     :
     Medium:
     7:
     :
00000000
00000000
00000000
00000000
,
00000000
00000000
00000000
00000000
,
00000000
00000000
00000000
00000000
,
00000000
00000000
00000000
00000000
,
00000000
00000000
00000000
00000000
,
00001000
00000000
00000001
00000100
00001000
00000000
00000001
00000010
,
00001000
00000000
00000001
00000100
00001000
00010000
01000000
00000000
,
10000000
00000000
00010000
01000000
10000000
00000000
00010000
00100000
,
10000000
00000000
00010000
01000000
00100000
00010000
00001000
00000010
,
00000001
00000000
00001000
00000100
00000001
00000000
00001000
00000010
,
00000001
00000000
00001000
00000100
00000010
00001000
00010000
00000000
,
10000000
00000000
00010000
01000000
10000000
00000000
00010000
00100000
,
10000000
00000000
00010000
01000000
00100000
00010000
00001000
00000010
,
00000001
00000000
00000010
00000100
00001000
00000000
01000000
00100000
,
00010000
00000000
00001000
00000100
00000001
00000010
00001000
00000000
,
00010000
00000000
01000000
00100000
00010000
00000000
00000100
00000010
,
00001000
00000000
00010000
01000000
00010000
00001000
00000100
00000001
,
00000010
00000000
00000100
00001000
00010000
00000000
00100000
00010000
,
00001000
00000000
00000010
00000100
00001000
00010000
01000000
00000000
,
00010000
00000000
00000010
00010000
00001000
00000000
01000000
00001000
,
00010000
00000000
00000010
00000001
00000100
00001000
00010000
00100000
,
01000000
00000000
00000000
01000000
00000000
00000000
00010000
00000000
00001000
00000000
00000000
00001000
00000000
00000000
00000010
00000000
,
00000001
00000000
00000000
00000001
00000000
00000000
00000100
00000000
00001000
00000000
00000000
00001000
00000000
00000000
00010000
00000000
,
01000000
00000000
00000000
01000000
00000000
00000000
00100000
00000000
00001000
00000000
00000000
00001000
00000000
00000000
00000001
00000000
,
00001000
00000100
00000001
00001000
00001001
00000000
00000000
00000000
,
00001000
00000000
00000100
00000000
00000010
00000000
00000001
00001000
,
00010000
00000000
01000000
00000000
00100000
00000000
10000000
00010000
,
00001000
00000000
00000001
00000000
00000010
00000000
00000100
00000001
,
00000010
00000000
00000100
00000000
00000001
00000100
00001000
00010000
,
00001000
00000000
00100000
00000000
01000000
00100000
10000000
00010000
,
00001000
00000000
00000100
00000000
00000010
00000100
00000001
00001000
,
00010000
00000000
10000000
00000000
01000000
00000000
00100000
10000000
,
00010000
01000000
00100000
00010000
00001000
00010000
01000000
10000000
,
00010000
00000000
00001000
00000000
00000001
00000000
00000001
00001000
,
00010000
00001000
00000001
00000001
,
00001000
00000000
00010000
00000000
10000000
00000000
10000000
00010000
,
00001000
00000000
00010000
00000000
10000000
01000000
00100000
00000000
,
10000000
00000000
00010000
00000000
00011000
00000000
00100000
01000000
,
10000000
00000000
00010000
00000000
00011000
00000000
00100000
01000000
,
10000000
00000000
00010000
00000000
00011000
00001000
00000100
00000010
,
00000001
00000000
00001000
00000000
00011000
00001000
00000100
00000010
,
00001000
00010000
00100000
01000000
,
10000000
01000000
00100000
00010000
00001000
00000100
00000010
00000001
,
00000010
00000010
00000010
00000010
,
00000001
00000010
00000100
00001000
00010000
00100000
01000000
10000000
;

//---------------dance-double - ----------------
#NOTES:
     dance-double:
     :
     Hard:
     7:
     :
00000000
00000000
00000000
00000000
,
00000000
00000000
00000000
00000000
,
00000000
00000000
00000000
00000000
,
00000000
00000000
00000000
00000000
,
00100000
01000000
01000000
01000000
00010000
00010000
00010000
00000000
,
00100000
10000000
00000000
10000000
00000000
10000000
01000000
00010000
,
00001000
00010000
00000000
00010000
00000000
00010000
00001000
00000010
,
00000001
00000010
00000000
00000100
00000100
00000010
00000000
00000001
,
00000010
00001000
00000100
00000001
00000000
00001001
00000110
00000000
,
00000100
00000001
00000000
00000001
00000000
00000001
00000010
00001000
,
00010000
00001000
00000000
00001000
00000000
00001000
00010000
01000000
,
10000000
01000000
00000000
00010000
10000000
01000000
00000000
00010000
,
10000000
00100000
01000000
00010000
10000000
01000000
00010000
01000000
,
10000000
00100000
00000000
00100000
10000000
01000000
00010000
00001000
,
00000001
00000010
00000000
00000010
00000001
00000100
00001000
00010000
,
00100000
00100000
00100000
01000000
01000000
01000000
00100000
01000000
,
10000000
00010000
10000000
00100000
00010000
00001000
00000100
00000000
,
00000001
00000010
00000000
00000010
00000001
00000100
00001000
00010000
,
10000000
00100000
00000000
00100000
10000000
01000000
00010000
00001000
,
00000001
00000001
00000001
00001000
00001000
00001000
00000010
00000100
,
00000001
00001000
00000001
00000010
00001000
00001000
00001000
00001000
,
00010000
00000000
00000000
00010000
00000000
00000000
01100000
00000000
10000000
00000000
00000000
10000000
00000000
00000000
01100000
00000000
,
00010000
00000000
00000000
00010000
00000000
00000000
00011000
00000000
00000010
00000000
00000000
00000010
00000000
00000000
00000110
00000000
,
00000001
00000000
00000000
00000100
00000000
00000000
00001010
00000000
00000100
00000000
00000000
00010000
00000000
00000000
00101000
00000000
,
01000000
00000000
00000000
00010000
00000000
00000000
00100000
00000000
10010000
00000000
00000000
00000000
00000000
00000000
00000000
00000000
,
10000000
01000000
10000000
01000000
00010000
00010000
00010000
00010000
,
00001000
00000100
00001000
00000100
00000001
00000001
00000001
00000001
,
00000001
00001000
00010000
10000000
,
10000000
01000000
00100000
00010000
00001000
00000100
00000010
00000000
,
00000001
00000010
00000001
00000010
00001000
00001000
00001000
00001000
,
00010000
00100000
00010000
00100000
10000000
10000000
10000000
10000000
,
10000000
00010000
00001000
00000001
,
00000001
00000100
00000010
00001000
00010000
01000000
00100000
00000000
,
00010000
00100000
00010000
10000000
01000000
01000000
11000000
00000000
,
10000000
01000000
10000000
00010000
00100000
00100000
00110000
00000000
,
00001000
00000000
00000101
00000000
00000010
00000000
00000011
00000100
,
00001000
00000100
00000001
00000000
00001000
00000100
00000001
00000000
,
00001000
00000010
00001000
00000001
00000100
00000100
00000101
00000000
,
00000001
00000100
00000001
00001000
00000010
00000010
00001010
00000000
,
00010000
00000000
10100000
00000000
01000000
00000000
01010000
00100000
,
10000000
00000000
00000000
00000000
00000000
10100000
01010000
00000000
,
00010000
00000000
00000000
00010000
00000000
00000000
00010000
00000000
00000000
00000000
00001000
00000000
00000110
00000000
00000000
00000000
,
00000010
00000000
00000001
00000000
00001000
00000000
00000100
00000000
00000000
00000100
00000000
00000010
00001001
00000000
00000000
00000000
,
00001000
00000000
00000000
00001000
00000000
00000000
00001000
00000000
00000000
00000000
00010000
00000000
01100000
00000000
00000000
00000000
,
11000000
00100000
00110000
01000000
10010000
00100000
01100000
01000000
,
10000000
00010000
00000000
00000000
00000000
00000000
00000001
00001000
00000000
00000000
00000000
00000000
00000000
00000000
00000000
00000000
;

//---------------dance-couple - ----------------
#NOTES:
     dance-couple:
     :
     Easy:
     3:
     :
00000000
00000000
00000000
00000000
,
00000000
00000000
00000000
00000000
,
00000000
00000000
00000000
00000000
,
00000000
00000000
00000000
00000000
,
00000000
00000000
00000000
00000000
,
00011000
00100100
10000001
01000010
,
00011000
00100100
10000001
01000010
,
00100100
00100100
01000010
01000010
,
00100100
01000010
00010001
00010001
,
00011000
01000010
10000001
00100100
,
00011000
01000010
10000001
00100100
,
10000001
10000001
00011000
00011000
,
10000001
10001000
00010001
00010001
,
10001000
01000100
00010001
01000100
,
10001000
01000100
10001000
01000100
,
00010001
01000100
10001000
01000100
,
00010001
01000100
00010001
10011001
,
10001000
00100010
00010001
00100010
,
10001000
01000100
00010001
00100010
,
10001000
00100010
00010001
00100010
,
10001000
01000100
00010001
10011001
,
00000010
00000000
00000000
00000010
00000000
00000000
00000000
00000000
00100000
00000000
00000000
00100000
00000000
00000000
00000000
00000000
,
00000100
00000000
00000000
00000000
00000100
00000000
00000000
00000000
01000000
00000000
00000000
01000000
00000000
00000000
00000000
00000000
,
00011000
00000000
00000000
00011000
00000000
00000000
00000000
00000000
00011000
00000000
00000000
00011000
00000000
00000000
00000000
00000000
,
00100010
01000100
10011001
00000000
,
00011000
01000100
10000001
10000001
,
10000001
01000100
00011000
00011000
,
00011000
01000100
00010001
00100010
,
10001000
00010001
01000100
10011001
,
00011000
00100010
10000001
10000001
,
10000001
00100010
00011000
00011000
,
00011000
00100010
10000001
01000100
,
10001000
00100010
00010001
01000100
,
10011001
00000000
00100100
00100100
,
10011001
00000000
01000010
01000010
,
10011001
00000000
10000001
10000001
,
00010001
01000100
00100010
10000001
,
01100110
00000000
00011000
00011000
,
01100110
00000000
10000001
10000001
,
01100110
10000001
00100010
01000100
,
10000001
01000100
00011000
00011000
,
00011000
01000100
10000001
01000100
,
00011000
00100010
10000001
01000100
,
00010010
01101001
10000100
01101001
,
00100100
00011000
10000001
10000001
,
00100010
00000000
00000000
00011000
00000000
00000000
00000000
00000000
;

//---------------dance-couple - ----------------
#NOTES:
     dance-couple:
     :
     Medium:
     4:
     :
00000000
00000000
00000000
00000000
,
00000000
00000000
00000000
00000000
,
00000000
00000000
00000000
00000000
,
00000000
00000000
00000000
00000000
,
01000010
00000000
01000010
00000000
00010001
00100010
10001000
00000000
,
00100010
00000000
00010001
00000000
00100010
00000000
10001000
01000100
,
00100010
00000000
00010001
00000000
00100010
00000000
10001000
01000100
,
00011000
00100010
00011000
01000100
,
00100010
00000000
01000100
00000000
10001000
01000100
00100010
00010001
,
00100010
00000000
10001000
00000000
00100010
00000000
00010001
01000100
,
00100010
00000000
10001000
00000000
00100010
00000000
00010001
01000100
,
00011000
00100010
00011000
01000100
,
10001000
00000000
00010001
00000000
00100010
00100010
10001000
01000100
,
00100010
00000000
00010001
00000000
00100010
00000000
10001000
00100010
,
01000100
00000000
10001000
00000000
01000100
00000000
00010001
00100010
,
01000100
00011000
10000001
01100110
,
10001000
00010001
00010001
00000000
10000100
00010001
00010001
00000000
,
00010001
01000100
10001000
00000000
00010001
00100010
10001000
00000000
,
00100010
00000000
10001000
00000000
01000100
00010001
01000100
10001000
,
10000001
00100010
00011000
01000100
,
10001000
00000000
00010001
00000000
00100010
10001000
00010001
01100100
,
00111000
00000000
00000000
00011000
00000000
00000000
00000000
00000000
01000100
00000000
00000000
01000100
00000000
00000000
00000000
00000000
,
10000001
00000000
00000000
10000001
00000000
00000000
00000000
00000000
00011000
00000000
00000000
00011000
00000000
00000000
00000000
00000000
,
10011001
00000000
00000000
10000001
00000000
00000000
00000000
00000000
10011001
00000000
00000000
00011000
00000000
00000000
00000000
00000000
,
01100110
00000000
00000000
00011000
00000000
00000000
01000010
00000000
10011001
00000000
00000000
00000000
00000000
00000000
00000000
00000000
,
10001000
01000100
10011001
00010001
,
00010001
01000100
10011001
10001000
,
10001000
00000000
01000100
00000000
00010001
00000000
00100010
00010001
,
00010001
00000000
10001000
00000000
00010001
01000100
00100010
10001000
,
00010001
01000100
10011001
00100010
,
00100010
10001000
01100110
01000100
,
10001000
00000000
01000100
00000000
00010001
00000000
01000100
10001000
,
10001000
00100010
00010001
01101001
,
10010110
00000000
00100100
00000000
10000001
00011000
10000001
10000001
,
00011000
00000000
01000010
00000000
00011000
10000001
00011000
00011000
,
10000001
00000000
01000010
00000000
00011000
00011000
10000001
10000001
,
01000100
00000000
00100010
00000000
00010001
00100010
01000100
10001000
,
10000001
00000000
00011000
00000000
10000001
01000100
00100010
00011000
,
10000001
00000000
00011000
00000000
10000001
00100010
01000100
10000001
,
00011000
01000100
00100010
10000001
,
00011000
01000100
00100010
10000001
00011000
00000000
10011001
00000000
,
00010001
00000000
01000100
00000000
10001000
00000000
01000100
00100010
,
00010001
00000000
01000100
00000000
10001000
00000000
01000100
00100010
,
10001000
00000000
01000100
00000000
00010001
00000000
01000100
00100010
,
10001000
00000000
01000100
00000000
00010001
00000000
01000100
00100010
,
00011000
00000000
00000000
10000001
00000000
00000000
00000000
00000000
;

//---------------dance-couple - ----------------
#NOTES:
     dance-couple:
     :
     Hard:
     6:
     :
00000000
00000000
00000000
00000000
,
00000000
00000000
00000000
00000000
,
00000000
00000000
00000000
00000000
,
00000000
00000000
00000000
00000000
,
00101000
01000001
00101000
00101000
10000001
00100010
01000100
00000000
,
00100010
10001000
00000000
10001000
00000000
10001000
01000100
10001000
,
00100010
00010001
00000000
00010001
00000000
00010001
01000100
00010001
,
10001000
00100010
00000000
01000100
01000100
00100010
00000000
00010001
,
00100010
10001000
00000000
10001000
01010101
00000000
01010101
00000000
,
01000100
00010001
00000000
00010001
00000000
00010001
01000100
10001000
,
01000100
10001000
00000000
10001000
00000000
10001000
01000100
00010001
,
10001000
01000100
00000000
00010001
10001000
01000100
00000000
00010001
,
10001000
00100010
01000100
00010001
10001000
01000100
10001000
01000100
,
00010001
00100010
00000000
00100010
10001000
00100010
01000100
00010001
,
10001000
01000100
00000000
01000100
00010001
00100010
01000100
10001000
,
10001000
00100010
00010001
00010001
00010001
01000100
10001000
10001000
,
10001000
01000100
00010001
00100010
11001100
00000000
01010101
00000000
,
00100010
00010001
01000100
01000100
01000100
10001000
00100010
00100010
,
00100010
10001000
00100010
00010001
01000100
00010001
01000100
10001000
,
00100010
01000100
00100010
00010001
00010001
01000100
00100010
10001000
,
10001000
00010001
01000100
10001000
00010001
00010001
00010001
00010001
,
10001000
00000000
00000000
10001000
00000000
00000000
01000100
00000000
00010001
00000000
00000000
00010001
00000000
00000000
00100010
00000000
,
10001000
00000000
00000000
10001000
00000000
00000000
00100010
00000000
00010001
00000000
00000000
00010001
00000000
00000000
01000100
00000000
,
00100010
00000000
00000000
10001000
00000000
00000000
01000100
00000000
00010001
00000000
00000000
10001000
00000000
00000000
00100010
00000000
,
10001000
00000000
00000000
00010001
00000000
00000000
01000100
00000000
10011001
00000000
00000000
00000000
00000000
00000000
00000000
00000000
,
10000001
00000000
01000100
00000000
00011000
00000000
00011000
10000001
,
00011000
00000000
01000100
00000000
10000001
00000000
10000001
00011000
,
10000001
01000100
00011000
00100010
,
10000001
00100010
00011000
10000001
00100100
00100100
00100100
00100100
,
10000001
00000000
01000100
00000000
00011000
00000000
00011000
10000001
,
00011000
00000000
00100010
00000000
10000001
00000000
10000001
00011000
,
10000001
00100010
00011000
01000100
,
10000001
00100010
00011000
01000100
00011000
01000100
00011000
01000100
,
00011000
00000000
01000100
00000000
01011100
01000100
10000001
00011000
,
10000001
00000000
01000100
00000000
01011100
01000100
10000001
00011000
,
10000001
00000000
01000100
00000000
10100011
10000001
00111010
00011000
,
10000001
10000001
10000001
10000001
,
00011000
00000000
00100010
00000000
01011100
00011000
10000001
00011000
,
10000001
00000000
00100010
00000000
01011100
00011000
10000001
00011000
,
10000001
00000000
00011000
00000000
11001100
10001000
01010101
00010001
,
10001000
00000000
10001000
00000000
10001000
10001000
10001000
10001000
,
00010001
00000000
00000000
00010001
00000000
00000000
00010001
00000000
00000000
00000000
10001000
00000000
01100110
00000000
00000000
00000000
,
00100010
00000000
00010001
00000000
10001000
00000000
01000100
00000000
00000000
01000100
00100010
00000000
10011001
00000000
00000000
00000000
,
01000100
00000000
00000000
01000100
00000000
00000000
01000100
00000000
00000000
00000000
00100010
00000000
10011001
00000000
00000000
00000000
,
11001100
00100010
00110011
01000100
10011001
00100010
01100110
01000100
,
00010001
10001000
00000000
00000000
00000000
00000000
10001000
00010001
00000000
00000000
00000000
00000000
00000000
00000000
00000000
00000000
;
