#TITLE:Fire;
#ARTIST:COMBINED;
#BANNER:Fire.png;
#BACKGROUND:Fire-bg.png;
#CDTITLE:CDTITLES/avex.png;
#MUSIC:Fire.ogg;
#SAMPLESTART:16.931;
#SAMPLELENGTH:15;
#DISPLAYBPM:142;
#BPMS:0=141.755;

//---------------dance-single - ----------------
#NOTES:
     dance-single:
     :
     Easy:
     3:
     :
0000
0000
0000
0000
,
0000
0000
0000
0000
,
0000
0000
0000
0000
,
0000
0000
0000
0000
,
0000
0000
0000
0000
,
0000
0000
0000
0000
,
0010
0000
0010
0000
,
0010
0000
0010
0000
,
0001
0001
1000
1000
,
1001
0000
0000
0000
,
0010
1000
0100
0000
,
0100
0100
0100
0100
,
0010
0001
0100
0000
,
0100
0100
0100
0100
,
0010
1000
0100
0000
,
0100
0100
0100
0100
,
0010
0001
1000
0000
,
1000
1000
1000
1000
,
1000
0000
0000
0000
,
0001
0000
0000
0000
,
0100
0000
0000
0000
,
0010
0000
0000
0000
,
1000
0000
0000
0000
,
0001
0000
0000
0000
,
0100
0000
0000
0000
,
0010
0010
0010
0000
,
1000
0000
1000
0000
,
0010
0010
0100
0000
,
0001
0000
0001
0000
,
0010
0010
0100
0000
,
1000
0000
0001
0000
,
0100
0100
0010
0000
,
1000
0000
0001
0000
,
0100
0000
0010
0000
,
1000
1000
1000
1001
,
0000
0001
0001
0001
,
0001
0000
0000
0000
,
1000
0000
0000
0000
,
0010
0000
0010
0000
,
0100
0000
0100
0000
,
0001
0010
0100
0000
,
0100
0100
0100
0100
,
0010
0001
1000
0000
,
1000
1000
1000
1000
,
0010
0100
0001
0000
,
0001
0001
0001
0001
,
0100
0010
1000
0000
,
1000
1000
1000
1000
,
0100
0010
0001
0000
,
0001
0001
0001
0001
,
0100
0010
1000
0000
,
1000
1000
1000
1000
,
0001
0001
0100
0000
;

//---------------dance-single - ----------------
#NOTES:
     dance-single:
     :
     Medium:
     5:
     :
0000
0000
0000
0000
,
0000
0000
0000
0000
,
0000
0000
0000
0000
,
0000
0000
0000
0000
,
0000
0000
0000
0000
,
0000
0000
0000
0000
,
0010
0010
0010
0010
,
0010
0010
0001
0001
,
0010
1000
0110
0001
,
1001
0000
0000
0000
,
0010
0000
0001
0000
1000
0100
0010
0000
,
0001
0001
0100
0100
,
0010
0000
1000
0000
0001
0010
0100
0000
,
1000
1000
0001
0001
,
1000
0000
0001
0000
0010
0100
0010
0000
,
1000
1000
0100
0100
,
0010
0000
0001
0000
1000
0100
0010
0000
,
0001
1000
0010
0100
,
0001
0100
0000
0000
,
0010
1000
0000
0000
,
0001
0100
0100
0100
,
1000
0100
0100
0100
,
0010
0001
0100
0100
,
0010
1000
0100
0100
,
1000
0000
0001
0000
,
0100
0100
0100
0000
,
0011
0000
0011
0000
0001
0010
0001
0000
,
0100
0000
0010
0000
1000
0100
1000
0000
,
0010
0000
0010
0000
0001
0100
0010
0000
,
1000
0000
1000
0000
0001
0100
0001
0000
,
1100
0000
1100
0000
1000
0100
1000
0000
,
0010
0000
0100
0000
0001
0010
0001
0000
,
0010
0000
0010
0000
0001
1000
0100
0000
,
0010
0000
0010
0000
1000
0100
0010
0000
,
0001
1000
0010
1001
,
0000
1001
1001
1001
,
0010
0000
0010
0000
,
1000
1000
1000
1000
,
0001
0001
0100
0001
,
0010
0010
1000
0100
,
0001
0000
0100
0000
0010
1000
0100
0000
,
1000
1000
1000
1000
,
0100
0010
0001
0000
0100
0000
1001
0000
,
0100
0100
0100
0100
,
0010
0000
0001
0000
,
0100
0010
1000
0100
,
0010
0001
0100
0000
0010
0000
1001
0000
,
0100
0100
0100
0100
,
0001
0100
0010
0000
1000
0000
0100
0000
,
0010
0001
0100
0100
,
0010
0000
1000
0000
0100
0010
0001
0000
,
0100
1001
1001
1001
,
1000
0100
0001
1000
0000
0000
0000
0000
;

//---------------dance-single - ----------------
#NOTES:
     dance-single:
     :
     Hard:
     7:
     :
0000
0000
0000
0000
,
0000
0000
0000
0000
,
0000
0000
0000
0000
,
0000
0000
0000
0000
,
0000
0000
0000
0000
,
0000
0000
0000
0000
,
0010
0010
0010
0010
,
1000
1000
0001
0001
,
1001
1001
1001
0110
,
1001
0000
0000
0000
,
0010
0100
0000
0000
1001
0000
0000
0000
0010
0100
0000
0000
1001
0000
0000
0000
,
0010
1000
0001
0100
0010
1000
1001
0000
,
0010
0100
0000
0000
1001
0000
0000
0000
0010
0100
0000
0000
1001
0000
0000
0000
,
0001
0000
0000
0001
0000
0000
0001
0000
1000
0000
0000
1000
0000
0000
1000
0000
,
0010
0100
0000
0000
1001
0000
0000
0000
0010
0100
0000
0000
1001
0000
0000
0000
,
0010
0001
1000
0100
0010
0001
1001
0000
,
0010
0100
0000
0000
1001
0000
0000
0000
0010
0100
0000
0000
1001
0000
0000
0000
,
1000
0000
0000
1000
0000
0000
1000
0000
0001
0000
0000
0001
0000
0000
0001
0000
,
1000
0000
0000
0000
,
0100
0000
0000
0000
,
0010
0000
0000
0000
,
0001
0000
0000
0000
,
1000
0001
0000
0000
,
0010
0100
0000
0000
,
0100
0001
0010
1000
,
0001
0010
0000
0000
1000
0100
0000
0000
0110
0000
0000
0000
0000
0000
0000
0000
,
0101
0000
0101
0000
0001
0010
0100
0000
,
1000
0000
1000
0000
1000
0100
0010
0000
,
0001
0100
0010
1000
0100
0010
0001
0000
,
1000
0000
1000
0000
1000
0100
0010
0000
,
1001
0000
1001
0000
0001
0010
0100
0000
,
1000
0000
1000
0000
1000
0100
0010
0000
,
1000
0010
0100
0001
0010
0100
1000
0000
,
0001
0000
0001
0000
0001
0010
0100
0000
,
1001
1001
0110
1001
,
0000
1001
1001
1001
,
0010
0100
0000
0000
1001
0000
0000
0000
0010
0100
0000
0000
1001
0000
0000
0000
,
0010
1000
0001
0100
0010
1000
1001
0000
,
0010
0100
0000
0000
1001
0000
0000
0000
0010
0100
0000
0000
1001
0000
0000
0000
,
0001
0000
0000
0001
0000
0000
0001
0000
1000
0000
0000
1000
0000
0000
1000
0000
,
0001
1000
0000
0000
1100
0000
0000
0000
1000
0001
0000
0000
0101
0000
0000
0000
,
1000
0010
0100
0001
0010
0100
1001
0000
,
1000
0001
0000
0000
0101
0000
0000
0000
0001
1000
0000
0000
1100
0000
0000
0000
,
0010
1001
1001
1001
,
0001
0010
0000
0000
1100
0000
0000
0000
1000
0010
0000
0000
0101
0000
0000
0000
,
0001
0000
0000
0001
0000
0000
0001
0000
1000
0000
0000
1000
0000
0000
1000
0000
,
0001
0010
0000
0000
1100
0000
0000
0000
1000
0010
0000
0000
0101
0000
0000
0000
,
1000
0010
0100
0001
0010
0100
1001
0000
,
0010
0100
0000
0000
1001
0000
0000
0000
0001
0010
0000
0000
1100
0000
0000
0000
,
0001
0000
0000
0001
0000
0000
0001
0000
1000
0000
0000
1000
0000
0000
1000
0000
,
0010
0100
0000
0000
1001
0000
0000
0000
1000
0010
0000
0000
0101
0000
0000
0000
,
0010
1001
1001
1001
,
1000
1000
0001
0001
0000
0000
0000
0000
;

//---------------dance-double - ----------------
#NOTES:
     dance-double:
     :
     Easy:
     5:
     :
00000000
00000000
00000000
00000000
,
00000000
00000000
00000000
00000000
,
00000000
00000000
00000000
00000000
,
00000000
00000000
00000000
00000000
,
00000000
00000000
00000000
00000000
,
00000000
00000000
00000000
00000000
,
10000000
00000000
00100000
00000000
,
01000000
01000000
01000000
01000000
,
00010000
10000000
01000000
00100000
,
10010000
00000000
00000000
00000000
,
00100000
00000000
00100000
00000000
00010000
01000000
00100000
00000000
,
10000000
10000000
10000000
10000000
,
01000000
00000000
01000000
00000000
00100000
00010000
00001000
00000000
,
00000001
00000001
00000001
00000001
,
00000010
00000000
00000010
00000000
00000001
00000100
00000010
00000000
,
00010000
00010000
00010000
00010000
,
00001000
00000000
00001000
00000000
00010000
00001000
01000000
00000000
,
00100000
10000000
00010000
00100000
,
10010000
10010000
00000000
00000000
,
01100000
01100000
00000000
00000000
,
00011000
00011000
00000000
00000000
,
00000110
00000110
00000000
00000000
,
00001001
00001001
00000000
00000000
,
00000110
00001100
00000000
00000000
,
00011000
00110000
00000000
00000000
,
01100000
11000000
00000000
00000000
,
11000000
00000000
11000000
00000000
00100000
10000000
01000000
00000000
,
00100000
00000000
00010000
00000000
01000000
00100000
00010000
00000000
,
00001000
00000000
00001000
00000000
00000010
00000001
00000100
00000000
,
00000010
00000000
00001000
00000000
00000100
00000010
00000001
00000000
,
00000101
00000000
00000101
00000000
00000010
00001000
00000100
00000000
,
00010000
00000000
00010000
00000000
00001000
00010000
01000000
00000000
,
10000000
00000000
00010000
00000000
00100000
00010000
01000000
00000000
,
10010000
00000000
10010000
00000000
10000000
01000000
00010000
00000000
,
00100000
10000000
01000000
10010000
,
00000000
01100000
01010000
01001000
,
00100000
00000000
00001000
00000000
,
00010000
00010000
00001000
00001000
,
00000010
00000010
00000001
00000100
,
00000010
00000000
00000010
00000000
00001000
00000001
00000100
00000000
,
00001000
00000000
00000110
00000000
00000001
00000010
00000100
00000000
,
00010000
00010000
00010000
00010000
,
00001000
00000000
00011000
00000000
00001000
01000000
00100000
00000000
,
10000000
10010000
10010000
10010000
,
01000000
00000000
01000000
00000000
,
10000000
00100000
01000000
00010000
,
00100000
00000000
00100000
00000000
00001000
00100000
00010000
00000000
,
00001000
00001000
00001000
00001000
,
00000010
00000000
00001001
00000000
00000100
00000010
00000001
00000000
,
00001000
00001000
00000001
00000001
,
00000010
00000100
00010000
00000000
00001000
00000000
00010000
00000000
,
00001000
00011000
00011000
00011000
,
00001000
00010000
01000000
00000000
10010000
00000000
00000000
00000000
;

//---------------dance-double - ----------------
#NOTES:
     dance-double:
     :
     Medium:
     8:
     :
00000000
00000000
00000000
00000000
,
00000000
00000000
00000000
00000000
,
00000000
00000000
00000000
00000000
,
00000000
00000000
00000000
00000000
,
00000000
00000000
00000000
00000000
,
00000000
00000000
00000000
00000000
,
00010000
00010000
00010000
00010000
,
00001000
00001000
00000100
00000100
,
00001001
00001001
00001001
00000110
,
00001001
00000000
00000000
00000000
,
00000010
00000100
00000000
00000000
00000011
00000000
00000000
00000000
00001000
00010000
00000000
00000000
01100000
00000000
00000000
00000000
,
10000000
00010000
01000000
00100000
10000000
00010000
10010000
00000000
,
00100000
01000000
00000000
00000000
11000000
00000000
00000000
00000000
00010000
00001000
00000000
00000000
00000110
00000000
00000000
00000000
,
00001000
00000000
00000000
00001000
00000000
00000000
00001000
00000000
00000001
00000000
00000000
00000001
00000000
00000000
00000001
00000000
,
00000010
00000100
00000000
00000000
00000011
00000000
00000000
00000000
00001000
00010000
00000000
00000000
01100000
00000000
00000000
00000000
,
10000000
00010000
01000000
00100000
10000000
00010000
10010000
00000000
,
00100000
01000000
00000000
00000000
11000000
00000000
00000000
00000000
00010000
00001000
00000000
00000000
00000110
00000000
00000000
00000000
,
00001000
00000000
00000000
00001000
00000000
00000000
00001000
00000000
00000001
00000000
00000000
00000001
00000000
00000000
00000001
00000000
,
00001001
00000100
00000000
00000000
,
00000110
00001000
00000000
00000000
,
00011000
01000000
00000000
00000000
,
01100000
00010000
00000000
00000000
,
00001001
00000100
00000000
00000000
,
00000110
00001000
00000000
00000000
,
00011000
01000000
00000000
00000000
,
01100000
10000000
00000000
00000000
,
00110000
00000000
00110000
00000000
00010000
10000000
01000000
00000000
,
00100000
00000000
00010000
00000000
10000000
01000000
00100000
00000000
,
00001000
00010000
00000100
00000010
00000001
00001000
00000010
00000000
,
00000100
00000000
00000100
00000000
00000001
00000010
00000100
00000000
,
00001001
00000000
00001001
00000000
00000010
00001000
00010000
00000000
,
00010000
00000000
00010000
00000000
00001000
00010000
01000000
00000000
,
10000000
00100000
01000000
00010000
10000000
01000000
01100000
00000000
,
00010000
00000000
00010000
00000000
00010000
00001000
00000100
00000000
,
00001001
00001001
00000110
00001001
,
00000000
00000011
00001010
00001001
,
00000010
00000100
00000000
00000000
00000011
00000000
00000000
00000000
00001000
00010000
00000000
00000000
01100000
00000000
00000000
00000000
,
10000000
00010000
01000000
00100000
10000000
00010000
10010000
00000000
,
00100000
01000000
00000000
00000000
11000000
00000000
00000000
00000000
00010000
00001000
00000000
00000000
00000110
00000000
00000000
00000000
,
00001000
00000000
00000000
00001000
00000000
00000000
00001000
00000000
00000001
00000000
00000000
00000001
00000000
00000000
00000001
00000000
,
00000010
00000100
00000000
00000000
00000011
00000000
00000000
00000000
00001000
00010000
00000000
00000000
01100000
00000000
00000000
00000000
,
10000000
00010000
00100000
01000000
10000000
00010000
10010000
00000000
,
00100000
01000000
00000000
00000000
11000000
00000000
00000000
00000000
00010000
00001000
00000000
00000000
00000110
00000000
00000000
00000000
,
00000010
00001001
00001001
00001001
,
00000010
00000100
00000000
00000000
00000011
00000000
00000000
00000000
00001000
00010000
00000000
00000000
11000000
00000000
00000000
00000000
,
00010000
00000000
00000000
00010000
00000000
00000000
00010000
00000000
10000000
00000000
00000000
10000000
00000000
00000000
10000000
00000000
,
00100000
01000000
00000000
00000000
11000000
00000000
00000000
00000000
00010000
00001000
00000000
00000000
00000101
00000000
00000000
00000000
,
00000010
00000001
00001000
00000100
00000010
00000001
00001001
00000000
,
00000010
00000100
00000000
00000000
00000011
00000000
00000000
00000000
00001000
00010000
00000000
00000000
11000000
00000000
00000000
00000000
,
00010000
00000000
00000000
00010000
00000000
00000000
00010000
00000000
10000000
00000000
00000000
10000000
00000000
00000000
10000000
00000000
,
00100000
01000000
00000000
00000000
11000000
00000000
00000000
00000000
00010000
00001000
00000000
00000000
00000101
00000000
00000000
00000000
,
00000010
00001001
00001001
00001001
,
00000001
00000001
00000100
00000100
00000000
00000000
00000000
00000000
;
