#TITLE:opening theme ~the monster is coming~;
#ARTIST:DREAMS COME TRUE;
#BANNER:opening theme ~the monster is coming~.png;
#BACKGROUND:opening theme ~the monster is coming~-bg.png;
#CDTITLE:cdtitle.png;
#MUSIC:opening theme ~the monster is coming~.ogg;
#SAMPLESTART:11.885;
#SAMPLELENGTH:15;
#DISPLAYBPM:143:165;
#BPMS:0=160,20=163.82,28=165.18,32=159.8,100=160.18,216=159.5,240=148.7,242=148.33,244=142.69;

//---------------dance-single - ----------------
#NOTES:
     dance-single:
     :
     Easy:
     6:
     :
0000
0000
0000
0000
,
0000
0000
0000
0000
,
0000
0000
0000
0000
,
0000
0000
0000
0000
,
0000
0000
0000
0000
,
1000
0000
0001
0000
,
0010
0100
0010
0000
,
1001
1001
1001
1001
,
1000
0100
1000
0100
,
1000
0100
1001
0110
,
1001
0000
1001
0000
,
1001
0000
0110
0110
,
0001
0100
0001
0100
,
0001
0100
1001
0110
,
1001
0000
1001
0000
,
1001
0000
0110
0110
,
0001
0010
1000
0100
,
0001
0010
1000
0100
,
1001
0000
0110
0000
,
1001
0000
0110
0000
,
0010
1000
0110
0000
,
0010
0001
0100
1000
,
0010
0001
0110
0000
,
1100
0000
0011
0000
,
0100
1000
0000
1000
0000
1000
0000
1000
,
0010
0000
0010
0000
0001
0001
0001
0001
,
1000
0100
1000
0100
,
1000
0000
0100
0000
0010
0000
0001
1000
,
1000
0010
0001
0010
,
1001
0000
0110
0000
,
1000
0100
0010
0001
,
1001
1001
0110
0110
,
0001
0100
0010
0001
,
0010
1000
0010
1000
0010
1000
0010
1000
,
0010
0001
0100
1000
,
0110
1000
0100
0001
,
1001
0010
1001
0100
,
0001
0000
0000
0010
0000
0000
0001
0000
0000
0010
0000
0000
0100
0000
1000
0000
0100
0000
1000
0000
0100
0000
1000
0000
,
0001
0100
1000
0110
,
1000
0100
0001
0110
,
1000
0100
0001
0100
,
1000
0010
0001
0100
,
1000
0010
0001
0110
,
1000
0010
0001
0110
,
1000
0000
1000
0000
0001
0001
0001
0000
,
0010
0001
0010
0000
0100
1000
0100
0000
,
0010
1000
0100
0101
,
0010
0001
0100
1100
,
0010
0100
0001
1001
,
0100
0010
1000
1001
,
0010
0001
0001
0000
1000
0100
0100
0000
,
0001
0010
0010
0000
0100
1000
1000
0000
,
1001
0010
1001
0010
,
1001
0110
1100
0101
,
1000
0000
1000
0000
0010
0001
1000
0000
,
0001
0000
0001
0000
0010
1000
0001
0000
,
0100
0000
0001
0000
1000
0001
0010
0000
,
0100
0000
1000
0000
0001
1000
0010
0000
,
1000
0010
0100
0000
0001
0010
0100
0000
,
1000
0010
0100
0000
0001
0010
0100
0000
,
0010
0001
0100
1000
,
0010
0001
1001
0000
;

//---------------dance-single - ----------------
#NOTES:
     dance-single:
     :
     Medium:
     8:
     :
0000
0000
0000
0000
,
0000
0000
0000
0000
,
0000
0000
0000
0000
,
0000
0000
0000
0000
,
0000
0000
0000
0000
,
0010
1000
0001
0100
,
1010
1001
0101
0000
,
0010
0100
0010
0100
,
0001
0010
0001
0000
0010
0010
0001
0000
,
1000
0100
1000
0000
0100
0100
1000
0000
,
0001
0100
1000
0010
0001
0100
1000
0000
,
0101
1010
1100
0011
,
0001
0100
0001
0000
0100
0100
0001
0000
,
1000
0010
1000
0000
0010
0010
1000
0000
,
0100
0001
0010
1000
0100
0001
0010
0000
,
1010
0101
0011
1100
,
1000
0100
0001
1010
,
0001
0100
0010
0000
1000
0010
0001
0000
,
0011
0100
1010
0001
,
1001
0010
0110
1000
,
0010
0100
0010
0100
1001
0000
0000
0000
,
0010
0100
0010
0100
0001
1000
0001
1000
,
0010
0100
0010
0100
1001
0000
0000
0000
,
1100
0000
0011
0000
,
0110
0001
0000
0001
0000
1000
0000
1000
,
0100
0010
0100
0010
0100
0100
0100
0100
,
0100
0001
1000
0010
,
0001
0000
1000
0000
0100
0000
0010
0001
,
0001
0100
0010
1000
,
0011
0010
0100
0000
1010
0010
0100
0000
,
1010
0100
0001
1000
,
1001
0110
0011
1010
,
0110
0110
1001
1001
,
0010
0001
0010
0001
1000
0100
1001
0000
,
0110
0000
1001
0000
0001
0010
1000
0000
,
0110
0000
1001
0000
1000
0100
0001
0000
,
0011
0011
1100
1100
,
0001
0000
0000
1000
0000
0000
0001
0010
0001
0010
0001
0100
,
1000
0010
0001
0100
,
1000
0010
0001
0100
,
1000
0100
0001
0000
1000
0100
0001
0000
,
1000
0100
0001
0000
1000
0100
0001
0000
,
0001
0010
1000
0100
,
0001
0010
1000
0100
,
0001
0100
1000
0000
0001
0100
1000
0000
,
0001
0100
1000
0000
0001
0100
1000
0000
,
1000
0101
0001
1010
,
1000
0011
0001
1100
,
1000
0010
0001
0000
0001
0010
1000
0000
,
1000
0100
0001
0000
0001
0100
1000
0000
,
1010
0000
0100
0000
0001
1000
0100
0000
,
1010
0000
0100
0000
0001
1000
0100
0000
,
1001
0000
0110
0000
,
0011
1010
1100
0101
,
0010
0001
0010
0000
1000
0010
0001
0000
,
1000
0100
1000
0000
0001
0100
1000
0000
,
0001
0010
1000
0100
0001
0100
1000
0000
,
1000
0010
0001
0010
1000
0010
0001
0000
,
0100
0100
0001
1000
0100
0100
0001
0000
,
0010
0010
0001
1000
0010
0010
0001
0000
,
1000
0000
1000
0000
1000
0000
1000
0001
0000
0001
0000
0000
,
0010
0000
0010
0000
1000
0100
0001
0000
0000
0000
0000
0000
;

//---------------dance-single - ----------------
#NOTES:
     dance-single:
     :
     Hard:
     9:
     :
0000
0000
0000
0000
,
0000
0000
0000
0000
,
0000
0000
0000
0000
,
0000
0000
0000
0000
,
0000
0000
0000
0000
,
0010
0000
0000
1000
0000
0000
0001
0000
,
1010
0011
0110
0000
,
1100
1010
0011
0101
,
0010
0000
0000
0010
0000
0000
1000
0000
0001
0000
0001
0000
0001
0000
0000
0000
,
0100
0000
0000
0100
0000
0001
0000
0000
1000
0000
1000
0000
1000
0000
0000
0000
,
0001
0010
1000
0010
0001
0010
1000
0100
,
0001
0100
0010
0000
1000
0100
0010
0000
,
0010
0000
0000
0010
0000
0000
0001
0000
1000
0000
1000
0000
1000
0000
0000
0000
,
0100
0000
0000
0100
0000
0000
1000
0000
0001
0000
0001
0000
0001
0000
0000
0000
,
0010
1000
0010
1000
0001
0100
0001
0100
,
0010
0001
1000
0100
0001
0010
1000
0000
,
0010
0000
0000
0010
0000
0000
0010
0000
0001
0000
0001
0000
0001
0000
0000
0000
,
1000
0000
0000
1000
0000
0000
1000
0000
0100
0000
0100
0000
0100
0000
0000
0000
,
0010
1000
0100
0000
0010
0001
0100
0000
,
0010
1000
0100
1000
0010
0001
0100
0000
,
0010
1000
0100
0001
1001
0000
0000
0000
,
0010
1000
0010
1000
0001
0100
0001
0010
,
0100
0001
0010
1000
1001
0000
0000
0000
,
1100
1001
0011
1001
,
0010
1010
0000
0011
0000
1010
0000
0010
,
0001
1000
0100
0010
0001
0001
0100
0100
,
0010
0000
0000
0010
0000
0000
0010
0000
1000
0000
1000
0000
1000
0000
0000
0000
,
0010
0000
0000
0010
0000
0000
0010
0000
0001
0000
0001
0000
0001
0000
0100
0000
,
0100
0000
0000
0100
0000
0000
0010
0000
1000
0000
1000
0000
1000
0000
0000
0000
,
0001
0100
1000
0100
0001
0010
1000
0000
,
0100
0000
0000
0100
0000
0000
1000
0000
0001
0000
0001
0000
0001
0000
0000
0000
,
1000
1000
0001
0001
1000
1000
0001
0001
,
1000
0000
0000
1000
0000
0000
0001
0000
0100
0000
0100
0000
0100
0000
0000
0000
,
0010
0010
0100
0100
0010
0010
0100
0100
,
0110
0001
0100
1000
,
1001
0010
0001
0100
,
0001
0010
1000
0100
0001
0100
1000
0010
,
0100
0000
0000
0100
0000
0000
0001
0100
0001
1000
0100
1000
,
0001
0010
0100
1000
,
0110
0011
0110
1100
,
0010
1000
0010
1000
0010
0100
0010
0001
,
0100
0001
0100
0001
0100
0001
0100
0000
,
1000
0100
0010
0001
,
1001
1100
1001
0011
,
0100
0010
1000
0001
1000
0010
0100
0001
,
0010
0100
1000
0001
0010
0100
0001
0000
,
1000
0000
0001
0000
1100
1100
1100
0000
,
0001
0000
1000
0000
0101
0101
0101
0000
,
0001
1000
0001
0100
0010
0100
1000
0001
,
1000
0010
0100
0010
0001
1000
1001
0000
,
1010
1100
0101
0011
,
1010
0101
0011
1100
,
0001
0010
0100
0000
0001
0010
0100
0000
,
0010
0001
1000
0100
0010
0001
1000
0000
,
0001
0010
0100
1000
0001
0100
0010
1000
,
0001
0010
0100
1000
0001
0100
0010
0001
,
1000
0100
0010
0001
1000
0010
0100
0001
,
1000
0100
0010
0001
1000
0010
0100
0000
,
0010
1000
0100
1000
0010
1000
0001
0100
,
0010
0001
0100
0001
0010
0001
1000
0000
,
0100
0000
0100
0000
0100
0000
0010
0100
0000
0100
0000
0000
,
0001
0000
0001
0010
1000
0100
1000
0000
0000
0000
0000
0000
;

//---------------dance-single - ----------------
#NOTES:
     dance-single:
     :
     Challenge:
     9:
     :
0000
0000
0000
0000
,
0000
0000
0000
0000
,
0000
0000
0000
0000
,
0000
0000
0000
0000
,
0000
0000
0000
0000
,
0010
0001
0010
0100
1000
0100
1000
0001
,
1010
0101
0000
0000
,
0001
0010
1000
0010
0001
0100
1001
0000
,
0010
0000
0000
0010
0000
0000
0001
0000
0100
0000
1000
0000
0100
0000
0000
0000
,
0010
0000
0000
0010
0000
1000
0000
0000
0100
0000
0001
0000
0100
0000
0000
0000
,
1000
0010
0001
0100
1000
0010
0001
0100
,
1000
0100
0001
0010
1000
0100
0001
0000
,
0010
0000
0000
0010
0000
0000
0001
0000
1000
0000
0010
0000
1000
0000
0000
0000
,
0100
0000
0000
0100
0000
0000
1000
0000
0001
0000
0100
0000
0001
0000
0000
0000
,
0001
0010
1000
0100
0001
0100
1000
0010
,
0001
0010
1000
0100
0001
0010
1000
0000
,
0010
0000
0000
0001
0000
0000
0010
0000
0001
0000
0010
0000
0001
0000
0000
0000
,
0100
0000
0000
1000
0000
0000
0100
0000
1000
0000
0100
0000
1000
0000
0000
0000
,
0011
0000
1000
0100
1100
0000
0001
0100
,
0101
0000
1000
0010
1010
0000
0000
0000
,
0010
0001
1000
0100
1100
0000
0000
0000
,
0010
0000
1000
0000
0001
0000
0100
0000
0010
1000
0000
1000
0000
0001
0000
0001
,
0010
0001
1000
0100
1001
0000
0000
0000
,
0010
0001
0000
0001
0000
1000
0000
1000
0100
0010
0000
0010
0000
0001
0000
0001
,
1000
0010
0000
0010
0000
0010
0000
0010
,
1001
0000
0110
0000
1001
0010
1000
0100
,
0001
0000
0000
1000
0000
0000
0001
0000
1000
0000
1000
0000
1000
0000
0000
0000
,
1000
0000
0000
0001
0000
0000
1000
0000
0001
0000
0001
0000
0001
0000
0110
0000
,
0110
0000
0000
1000
0000
0000
0001
0000
1000
0000
1000
0000
1000
0000
0000
0000
,
0001
0100
0010
0100
1000
0100
0001
0100
,
0001
0000
0000
1000
0000
0000
0001
0000
1000
0000
1000
0000
1000
0000
0000
0000
,
0010
0010
0100
0100
0100
0100
0010
0010
,
0010
0000
0000
0100
0000
0000
1000
0000
0001
0000
0001
0000
0001
0000
0000
0000
,
0010
0001
0010
0100
1000
0001
0100
0010
,
1001
0000
0000
0000
0000
0110
0110
0000
,
1001
0000
0000
0000
0000
1100
0011
0000
,
1010
1000
0100
0010
0101
0001
0010
0100
,
1000
0000
0000
1000
0000
0000
0010
0100
1000
0001
0100
0010
,
1000
0100
1000
0100
1000
0001
0100
0001
,
0100
0010
1000
0100
0001
0100
1000
0000
,
0010
1000
0010
0001
0010
0100
1000
0100
,
0001
0100
0010
1000
0001
0100
1000
0000
,
0001
0010
0001
0010
0001
0010
0100
1000
0100
1000
0100
1000
,
0010
1000
0100
0000
0010
0001
0100
0000
,
0110
0000
0010
1000
0110
0000
0100
0001
,
0010
0000
0000
0100
0000
0000
1000
0000
0000
0001
0000
0000
0010
0000
0100
0000
1000
0000
0001
0000
0000
0000
0000
0000
,
1000
0100
0001
0100
0001
1000
0100
0001
,
0100
1000
0001
0010
0100
1000
0001
0000
,
0010
1000
0010
1000
0000
0000
0010
0001
0010
0001
0000
0000
,
0100
1000
0100
1000
0100
0010
0100
0001
0100
0001
0000
0000
,
1010
1100
0101
0011
,
1010
0000
0101
0000
1000
0100
0001
0010
,
0001
0010
1100
0000
0001
0010
1100
0000
,
0011
0000
1100
0001
1010
0000
0101
0000
,
1000
1000
0100
0100
1000
0100
0010
1000
,
0001
0001
0100
0100
0001
0100
0010
0001
,
1000
0100
0001
0010
1000
1000
0100
0100
,
0001
0100
1000
0010
0001
0001
0100
1000
,
0010
0001
0100
1000
0010
1000
0001
0100
,
1000
0010
0100
0001
0010
0001
1000
0000
,
0010
0100
0010
0100
0010
0100
0010
1000
0001
0100
0000
0000
,
0001
0100
0001
1000
0100
1000
0010
0000
0000
0000
0000
0000
;

//---------------dance-double - ----------------
#NOTES:
     dance-double:
     :
     Easy:
     6:
     :
00000000
00000000
00000000
00000000
,
00000000
00000000
00000000
00000000
,
00000000
00000000
00000000
00000000
,
00000000
00000000
00000000
00000000
,
00000000
00000000
00000000
00000000
,
00000000
00000000
00000000
00000000
,
00000000
00000000
00000000
00000000
,
01000000
00011000
00000010
00011000
,
00100000
00001000
00010000
01000000
,
00100000
00001000
00010000
01000000
,
01100000
00000000
00011000
00000000
,
00000110
00000000
00000000
00000000
,
00000010
00010000
00001000
00000100
,
00000010
00010000
00001000
00000100
,
00000110
00000000
00011000
00000000
,
01100000
00000000
00000000
00000000
,
00100000
00001000
00000010
00010000
,
00100000
00001000
00000100
00010000
,
01010000
00000000
00011000
00000000
,
00001100
00000000
00011000
00000000
,
00100000
00010000
00100000
00010000
00100000
00000000
00000000
00000000
,
00001000
00010000
00001000
00000000
00010000
00001000
00010000
00000000
,
00000010
00001000
00000010
00001000
00000010
00000000
00000000
00000000
,
00011000
00000000
01100000
00000000
,
00100000
01000000
00000000
01000000
00000000
01000000
00000000
01000000
,
00010000
00000000
00001000
00000000
00000010
00000010
00000100
00000100
,
00000010
00001000
00010000
00000010
,
00000100
00000000
00001000
00000000
00010000
00000000
00000010
00000100
,
00000100
00001000
00010000
01000000
,
01100000
00010000
00011000
00000100
,
00000010
00001000
00010000
00100000
,
00110000
00011000
00001010
00011000
,
00010000
00000010
00001000
00000010
,
00000100
00000010
00000100
00000010
00000100
00000010
00000100
00000010
,
00000100
00001000
00000010
00000100
,
00001000
00010000
00001000
00000010
,
00001100
00010000
00110000
00001000
,
00010000
00000000
00000000
00010000
00000000
00000000
00100000
01000000
00100000
01000000
00100000
01000000
,
00100000
00010000
00001000
01000000
,
00100000
00001000
00010000
01000000
,
00100000
00010000
00001000
01000000
,
00100000
00000000
00001000
00000000
,
00000100
00001000
00010000
00000010
,
00000100
00010000
00001000
00000010
,
00000100
00000100
00000010
00000010
,
00000100
00000000
00010000
00000000
,
00110000
00001000
00000010
00000100
,
00011000
00000000
00100000
00000000
01000000
01000000
00010000
00000000
,
00011000
00000100
00010000
00100000
,
01010000
00100000
00010000
00000100
,
00001010
00000100
00011000
00100000
,
01100000
00000000
00100000
00000000
00010000
00001000
00000100
00000000
,
00000110
00000000
00011000
00000000
,
00110000
00011000
00001100
00000110
,
00001000
00010000
00001000
00000000
00100000
00010000
00001000
00000000
,
00010000
00001000
00010000
00000000
00000010
00001000
00010000
00000000
,
01001000
00011000
00010010
00011000
,
00001000
00001000
00010000
00000000
00010000
00010000
00001000
00000000
,
00000010
00001000
00000100
00000000
01000000
00010000
00100000
00000000
,
00000010
00001000
00000100
00000000
01000000
00010000
00100000
00000000
,
00011000
00011000
00100010
00011000
,
01000000
00010000
00000010
00000000
;

//---------------dance-double - ----------------
#NOTES:
     dance-double:
     :
     Medium:
     10:
     :
00000000
00000000
00000000
00000000
,
00000000
00000000
00000000
00000000
,
00000000
00000000
00000000
00000000
,
00000000
00000000
00000000
00000000
,
00000000
00000000
00000000
00000000
,
00000000
00000000
00000000
00000000
,
00000000
00000000
00000000
00000000
,
00100010
00011000
00100010
00011000
,
00100000
00000000
10000000
00000000
00001000
00100000
10000000
00000000
,
01000000
00000000
10000000
00000000
00001000
01000000
10000000
00000000
,
00110000
00000000
00001010
00000000
,
00011000
00000000
00100000
00000000
01000000
00010000
00001000
00000000
,
00000010
00000000
00000001
00000000
00010000
00000010
00000001
00000000
,
00000100
00000000
00000001
00000000
00000001
00000100
00010000
00000000
,
01000100
00000000
00011000
00000000
,
00100010
00000000
00000100
00000000
00000010
00001000
00010000
00000000
,
00100000
00010000
00000010
00001000
,
01000000
00010000
00000100
00001000
,
00100000
00010000
00001000
00000000
00000010
00001000
00010000
00000000
,
01000000
00010000
00001000
00000000
00000100
00001000
00010000
00000000
,
00100000
01000000
00010000
01000000
10010000
00000000
00000000
00000000
,
00010000
01100000
00001000
00000110
,
00000100
00000010
00001000
00000100
00001001
00000000
00000000
00000000
,
00010010
00000100
00101000
01000000
,
00100000
00010000
00000000
00010000
00000000
00010000
00000000
00010000
,
00011000
00000000
00001100
00000000
00000010
00000100
00001000
00010000
,
00100000
00010000
00001000
00000010
,
00000100
00000010
00001000
00000100
00010000
00001000
01000000
00100000
,
00100000
00010000
00001000
00000010
,
00000011
00001100
00110000
11000000
,
00100000
10000000
00010000
00000000
01000000
00010000
10000000
00000000
,
10100000
01010000
00001010
00000101
,
00000010
00001000
00000001
00000000
00000100
00001000
00000001
00000000
,
00001000
00000100
00001000
00000100
00001000
00000001
00000100
00000001
,
00000100
00000000
00001000
00000000
00010000
00000000
10000000
10000000
,
10000000
00000000
00010000
00000000
00001000
00000000
00000001
00000001
,
00000001
00000100
00001000
00010000
,
01000000
00000000
00000000
01000000
00000000
00000000
00100000
10000000
00100000
10000000
00100000
00010000
,
00100000
00010000
00001000
00000010
,
00100000
00100000
00010000
00000000
00001000
00001000
00000010
00000000
,
00000001
00001000
00010000
00001000
,
00001001
00000110
00011000
01100000
,
01000000
00010000
00001000
00000100
,
01000000
01000000
00010000
00000000
00001000
00001000
00000100
00000000
,
00000001
00001000
00010000
00001000
,
00000110
00011000
01100000
10010000
,
00100000
00010000
00001000
00000000
00010000
00001000
00000010
00000000
,
00000100
00001000
00010000
00000000
00001000
00010000
01000000
00000000
,
10000000
00010000
00001000
00010000
,
00100000
01010000
00000010
00001100
,
00000010
00001000
00010000
00000000
00001000
00010000
00100000
00000000
,
01000000
00010000
00001000
00000000
00010000
00001000
00000100
00000000
,
00000110
00000001
00001000
00000000
00001001
00000100
00000010
00000000
,
00001010
00011000
00110000
01100000
,
00100000
10000000
00010000
00000000
01000000
00010000
00001000
00000000
,
00000010
00001000
00000001
00000000
00000100
00001000
00010000
00000000
,
10000000
00100000
01000000
00010000
00001000
00100000
00001000
00000100
,
00000001
00000010
00000100
00001000
00010000
00100000
01000000
00000000
,
10000000
00100000
00010000
00001000
00010000
00001000
00000100
00000001
,
00000010
00001000
00010000
00001000
00010000
01000000
10000000
00000000
,
00100000
00000000
00100000
00000000
00100000
00000000
00100000
00010000
00000000
00010000
00000000
00000000
,
00001000
00000000
00001000
00000000
00001000
00000100
00000001
00000000
00000000
00000000
00000000
00000000
;

//---------------dance-double - ----------------
#NOTES:
     dance-double:
     :
     Hard:
     10:
     :
00000000
00000000
00000000
00000000
,
00000000
00000000
00000000
00000000
,
00000000
00000000
00000000
00000000
,
00000000
00000000
00000000
00000000
,
00000000
00000000
00000000
00000000
,
00000010
00000000
00000000
00100000
00000000
00000000
01000000
00000000
,
10000000
00010000
00001000
00000000
,
00000110
00011000
01100000
00011000
,
00000010
00001000
00010000
00001000
00100000
00010000
00001000
00010000
,
00000010
00000100
00001000
00000010
00000001
00001000
00000100
00000000
,
00000011
00001100
01010000
10100000
,
01100000
00000000
00000000
00000000
10000000
00010000
00001000
00000000
,
00000010
00001000
00010000
00001000
01000000
00010000
00001000
00010000
,
00100000
00010000
01000000
00100000
00010000
00001000
00000010
00000000
,
00000101
00001010
00110000
11000000
,
10010000
00000000
00000000
00000000
00100000
00010000
00001000
00000010
,
00000001
00001000
00000100
00001000
00000001
00001000
00000100
00001000
,
00010000
00100000
10000000
00010000
10000000
01000000
00010000
00100000
,
00010000
00001000
00000100
00000000
00000010
00001000
01000000
00000000
,
10000000
00010000
00001000
00000000
00010000
00001000
00000001
00000000
,
00000010
00000100
00000010
00000100
00001001
00000000
00000110
00000000
,
00000010
00010000
00000010
00010000
01000000
00001000
01000000
00001000
,
00100000
01000000
00100000
01000000
10010000
00000000
01100000
00000000
,
00000000
00010000
00100000
00010000
00000000
10000000
01000000
10000000
,
00100000
01010000
00000000
00001000
00000000
00000110
00000000
00000001
,
00000011
00000000
00001100
00000000
00000010
00001000
00010000
01000000
,
00100000
10000000
00010000
00001000
,
00000100
00010000
00001000
00100000
01000000
00010000
00100000
10000000
,
10000000
01000000
00010000
00100000
,
10000000
00100000
01000000
00010000
00010000
00001000
00000100
00000010
,
00000001
00000100
00001000
00000010
,
00000001
00000100
00000010
00001000
00001000
00010000
00100000
01000000
,
10000000
10000000
00010000
00010000
,
00001000
00000100
00001000
00000100
00000001
00000010
00000001
00000010
,
00001001
00000000
00000100
00000000
00000010
00000000
00001000
00100000
,
10010000
00000000
01000000
00000000
00100000
00000000
00010000
00000100
,
00001001
00000000
00011000
00000000
,
00010000
00000000
00000000
00000010
00000000
00000000
00100000
00010000
00100000
00001000
00010000
00001000
,
00010000
00100000
10000000
00001000
,
00001000
00000010
00000001
00010000
,
00100000
00010000
01000000
00001000
00000010
00001000
00000100
00010000
,
00100000
00010000
00001000
00010000
00000010
00010000
00001000
00000000
,
00001000
00000100
00000001
00010000
,
00010000
01000000
10000000
00001000
,
00010000
00001000
00010000
00001000
00100000
01000000
00100000
01000000
,
00010000
00001000
00010000
00001000
00000100
00000010
00000100
00000000
,
00000010
00010000
00000100
00001000
,
00100000
00001000
01000000
10000000
,
00100000
00001000
01000000
00000000
00000010
00010000
00000100
00000000
,
00010000
00001000
00000010
00001000
00010000
00001000
00000100
00000000
,
00010000
00100000
00001000
00000010
,
00010000
01000000
00001000
00000100
,
00000010
00010000
00001000
00000000
00000010
00010000
00001000
00000000
,
00100000
00001000
01000000
00001000
00100000
00001000
00010000
00000000
,
00100000
10000000
00010000
00000000
01000000
00010000
10000000
00000000
,
01000000
00100000
00001000
00010000
00000100
00000010
00000001
00000100
,
00001000
00000001
00000100
00001000
00000001
00001000
00000010
00000001
,
00000100
00000010
00010000
00001000
00100000
01000000
10000000
00010000
,
00100000
10000000
00010000
01000000
00001000
00010000
00100000
00010000
,
00000100
00001000
00000001
00000010
00000100
00001000
00010000
00000000
,
00100000
00000000
00000000
00010000
00000000
00000000
00000010
00001000
00000000
00010000
00000000
00000000
,
01000000
00010000
01000000
00000000
00000100
00001000
00000100
00000000
00000000
00000000
00000000
00000000
;

//---------------dance-couple - ----------------
#NOTES:
     dance-couple:
     :
     Easy:
     6:
     :
00000000
00000000
00000000
00000000
,
00000000
00000000
00000000
00000000
,
00000000
00000000
00000000
00000000
,
00000000
00000000
00000000
00000000
,
00000000
00000000
00000000
00000000
,
10000010
00000000
00010100
00000000
,
00101000
01000001
00101000
00000000
,
10010110
10010110
10010110
10010110
,
10001000
01000100
10001000
01000100
,
10001000
01000100
10011001
01100110
,
10011001
00000000
10011001
00000000
,
01101001
00000000
10010110
10010110
,
00010001
01000100
00010001
01000100
,
00010001
01000100
10011001
01100110
,
10011001
00000000
01101001
00000000
,
01101001
00000000
10010110
10010110
,
00010001
00100010
10001000
01000100
,
00010001
00100010
10001000
01000100
,
01100110
00000000
10011001
00000000
,
01100110
00000000
10011001
00000000
,
00010010
01000001
10010110
00000000
,
00100010
00011000
01000100
10000001
,
00100010
00010100
01101001
00000000
,
11000101
00000000
00111010
00000000
,
01000100
10000001
00000000
10000001
00000000
10000001
00000000
10000001
,
00100010
00000000
00100010
00000000
00011000
00011000
00011000
00011000
,
10000001
01000010
10000001
01000010
,
10000001
00000000
01000010
00000000
00100100
00000000
00011000
10000001
,
10000001
00100100
00011000
00100010
,
10011001
00000000
01100110
00000000
,
10001000
01000100
00100010
00010001
,
10010110
10010110
01101001
01101001
,
00010001
01000100
00100010
00010001
,
00100010
10001000
00100010
10001000
00100010
10001000
00100010
10001000
,
01000010
10000001
00100100
00011000
,
01100110
00011000
00100100
10000001
,
10011001
01000010
10011001
00100100
,
10000001
00000000
00000000
01000010
00000000
00000000
10000001
00000000
00000000
01000010
00000000
00000000
00100100
00000000
00011000
00000000
00100100
00000000
00011000
00000000
00100100
00000000
00011000
00000000
,
10000001
00100100
00011000
01100110
,
10000001
01000100
00011000
01100110
,
10000001
01000100
00011000
01000100
,
10000001
00100010
00011000
01000100
,
10001000
00100010
00010001
01100110
,
10001000
00100010
00010001
01100110
,
10001000
00000000
10001000
00000000
00010001
00010001
00010001
00000000
,
00100010
00010001
00100010
00000000
01000100
10001000
01000100
00000000
,
00100010
10001000
01000100
01010101
,
00100010
00010001
01000100
11001100
,
00100010
01000100
00010001
10011001
,
01000100
00100010
10001000
10011001
,
00100100
00011000
00011000
00000000
10000001
01000010
01000010
00000000
,
00011000
00100100
00100100
00000000
01000010
10000001
10000001
00000000
,
10011001
00100010
10011001
00100010
,
10011001
01100110
11001001
01011100
,
10000001
00000000
10000001
00000000
00100010
00011000
10000001
00000000
,
00011000
00000000
00011000
00000000
00100010
10000001
00011000
00000000
,
01000100
00000000
00011000
00000000
10000001
00011000
00100010
00000000
,
01000100
00000000
10000001
00000000
00011000
10000001
00100010
00000000
,
10000001
00100010
01000100
00000000
00011000
00100010
01000100
00000000
,
10001000
00100010
01000100
00000000
00010001
00100010
01000100
00000000
,
00100010
00010001
01000100
10001000
,
00100001
00010010
10010110
00000000
;

//---------------dance-couple - ----------------
#NOTES:
     dance-couple:
     :
     Medium:
     8:
     :
00000000
00000000
00000000
00000000
,
00000000
00000000
00000000
00000000
,
00000000
00000000
00000000
00000000
,
00000000
00000000
00000000
00000000
,
00000000
00000000
00000000
00000000
,
00100010
10000001
00011000
01000100
,
10100011
10011001
01011100
00000000
,
00100010
01000100
00100010
01000100
,
00010001
00100010
00010001
00000000
00100010
00100010
00010001
00000000
,
10001000
01000100
10001000
00000000
01000100
01000100
10001000
00000000
,
00011000
01000100
10000001
00100010
00011000
01000100
10000001
00000000
,
01011100
10100011
11000101
00111010
,
00010001
01000100
00010001
00000000
01000100
01000100
00010001
00000000
,
10001000
00100010
10001000
00000000
00100010
00100010
10001000
00000000
,
01000100
00011000
00100010
10000001
01000100
00011000
00100010
00000000
,
10100011
01011100
00111010
11000101
,
10001000
01000100
00010001
10101010
,
00010001
01000100
00100010
00000000
10001000
00100010
00010001
00000000
,
00110011
01000100
10101010
00010001
,
10011001
00100010
01100110
10001000
,
00100001
01001000
00100001
01001000
10010110
00000000
00000000
00000000
,
10000010
00010100
10000010
00010100
01000001
00101000
01000001
00101000
,
00010010
10000100
00010010
10000100
01101001
00000000
00000000
00000000
,
11001100
00000000
00110011
00000000
,
01100110
00010001
00000000
00010001
00000000
10001000
00000000
10001000
,
01000100
00100010
01000100
00100010
01000100
01000100
01000100
01000100
,
01000100
00010001
10001000
00100010
,
00010001
00000000
10001000
00000000
01000100
00000000
00100010
00010001
,
00010001
01000100
00100010
00011000
,
10100011
00100010
01000100
00000000
00111010
00100010
01000100
00000000
,
10101010
01000100
00010001
10001000
,
10011001
01100110
00110011
10101010
,
01100110
01100110
10011001
10011001
,
00100010
00010001
00100010
00010001
10001000
01000100
10011001
00000000
,
01100110
00000000
10011001
00000000
00010001
00100010
10001000
00000000
,
01100110
00000000
10011001
00000000
10001000
01000100
00010001
00000000
,
00110011
00110011
11001100
11001100
,
00010001
00000000
00000000
10001000
00000000
00000000
00010001
00100010
00010001
00100010
00010001
01000100
,
10001000
00100010
00010001
01000100
,
10001000
00100010
00010001
01000100
,
10000000
01000000
00010000
00000000
00000001
00000100
00001000
00000000
,
10000001
01000100
00011000
00000000
10000001
01000100
00011000
00000000
,
00010001
00100010
10001000
01000100
,
00010001
00100010
10001000
01000100
,
00010001
01000100
10001000
00000000
00010001
01000100
10001000
00000000
,
00010001
01000100
10001000
00000000
00010001
01000100
10001000
00000000
,
10001000
01010101
00010001
10101010
,
10001000
00110011
00010001
11001100
,
10000001
00100000
00010001
00000000
00010001
00000010
00011000
00000000
,
10001000
01000100
00010001
00000000
00010001
01000100
10001000
00000000
,
00111010
00000000
01000100
00000000
10000001
00011000
01000100
00000000
,
00111010
00000000
01000100
00000000
10000001
00011000
01000100
00000000
,
10011001
00000000
01100110
00000000
,
00110011
10101010
11001100
01010101
,
00100010
10000001
00100010
00000000
00011000
00100010
10000001
00000000
,
00011000
01000100
00011000
00000000
10000001
01000100
00011000
00000000
,
10000001
00100010
00011000
01000100
10000001
01000100
00011000
00000000
,
00011000
00100010
10000001
00100010
00011000
00100010
10000001
00000000
,
01000100
01000100
00010001
10001000
01000100
01000100
00010001
00000000
,
00100010
00100010
00010001
10001000
00100010
00100010
00010001
00000000
,
10000001
00000000
10000001
00000000
10000001
00000000
10000001
00011000
00000000
00011000
00000000
00000000
,
00100100
00000000
00100100
00000000
10001000
01000010
00010001
00000000
00000000
00000000
00000000
00000000
;

//---------------dance-couple - ----------------
#NOTES:
     dance-couple:
     :
     Hard:
     9:
     :
00000000
00000000
00000000
00000000
,
00000000
00000000
00000000
00000000
,
00000000
00000000
00000000
00000000
,
00000000
00000000
00000000
00000000
,
00000000
00000000
00000000
00000000
,
00100010
00000000
00000000
10000001
00000000
00000000
00011000
00000000
,
10100011
00111010
01100110
00000000
,
00001100
10100000
00000011
01010000
,
00100010
00000000
00000000
00100010
00000000
00000000
10001000
00000000
00010001
00000000
00010001
00000000
00010001
00000000
00000000
00000000
,
01000100
00000000
00000000
01000100
00000000
00010001
00000000
00000000
10001000
00000000
10001000
00000000
10001000
00000000
00000000
00000000
,
00010001
00100100
10001000
00100100
00010001
00100100
10001000
01000010
,
00010001
01000010
00100100
00000000
10001000
01000010
00100100
00000000
,
00100010
00000000
00000000
00100010
00000000
00000000
00010001
00000000
10001000
00000000
10001000
00000000
10001000
00000000
00000000
00000000
,
01000100
00000000
00000000
01000100
00000000
00000000
10001000
00000000
00010001
00000000
00010001
00000000
00010001
00000000
00000000
00000000
,
00100100
10001000
00100100
10001000
00010001
01000010
00010001
01000010
,
00100100
00010001
10001000
01000010
00010001
00100100
10001000
00000000
,
00100010
00000000
00000000
00100010
00000000
00000000
00100010
00000000
00010001
00000000
00010001
00000000
00010001
00000000
00000000
00000000
,
10001000
00000000
00000000
10001000
00000000
00000000
10001000
00000000
01000100
00000000
01000100
00000000
01000100
00000000
00000000
00000000
,
00100010
10000001
01000100
00000000
00100010
00011000
01000100
00000000
,
00100010
10000001
01000100
10000001
00100010
00011000
01000100
00000000
,
00100010
10000000
01000100
00010000
10011001
00000000
00000000
00000000
,
00100010
10001000
00100010
10001000
00010001
01000100
00010001
00100010
,
01000100
00000001
00100010
00001000
10011001
00000000
00000000
00000000
,
11001100
10011001
00110011
10011001
,
00100010
10101010
00000000
00110011
00000000
10101010
00000000
00100010
,
00010001
10001000
01000100
00100010
00010001
00010001
01000100
01000100
,
00100010
00000000
00000000
00100010
00000000
00000000
00100010
00000000
10001000
00000000
10001000
00000000
10001000
00000000
00000000
00000000
,
00100010
00000000
00000000
00100010
00000000
00000000
00100010
00000000
00010001
00000000
00010001
00000000
00010001
00000000
01000010
00000000
,
01000010
00000000
00000000
01000010
00000000
00000000
00100100
00000000
10000001
00000000
10000001
00000000
10000001
00000000
00000000
00000000
,
00011000
01000100
10000001
01000100
00011000
00100010
10000001
00000000
,
01000100
00000000
00000000
01000100
00000000
00000000
10000001
00000000
00011000
00000000
00011000
00000000
00011000
00000000
00000000
00000000
,
10000010
10000010
00010100
00010100
10000010
10000010
00010100
00010100
,
10001000
00000000
00000000
10001000
00000000
00000000
00010001
00000000
01000100
00000000
01000100
00000000
01000100
00000000
00000000
00000000
,
00100001
00100001
01001000
01001000
00100001
00100001
01001000
01001000
,
10010110
00010001
01000100
10001000
,
10011001
00100010
00010001
01000100
,
00010001
00100010
10001000
01000100
00010001
01000100
10001000
00100010
,
01000100
00000000
00000000
01000100
00000000
00000000
00010001
01000100
00010001
10001000
01000100
10001000
,
00010001
00100010
01000100
10001000
,
01100110
00110011
01100110
11001100
,
00100010
00011000
00100010
00011000
00100010
01000100
00100010
10000001
,
01000100
10000001
01000100
10000001
01000100
10000001
01000100
00000000
,
10001000
01000100
00100010
00010001
,
10011001
11001100
10011001
00110011
,
01000010
00100100
10000001
00011000
10000001
00100100
01000010
00011000
,
00100100
01000010
10000001
00011000
00100100
01000010
00011000
00000000
,
10000001
00000000
00011000
00000000
11000101
11000101
11000101
00000000
,
00011000
00000000
10000001
00000000
01011100
01011100
01011100
00000000
,
00010001
10001000
00010001
01000100
00100010
01000100
10001000
00010001
,
10001000
00100010
01000100
00100010
00010001
10001000
10011001
00000000
,
10101010
11001100
01010101
00110011
,
10101010
01010101
00110011
11001100
,
10000001
01000010
00100100
00000000
10000001
01000010
00100100
00000000
,
01000010
10000001
00011000
00100100
01000010
10000001
00011000
00000000
,
10000001
01000010
00100100
00011000
10000001
00100100
01000010
00011000
,
10000001
01000010
00100100
00011000
10000001
00100100
01000010
10000001
,
00011000
00100100
01000010
10000001
00011000
01000010
00100100
10000001
,
00011000
00100100
01000010
10000001
00011000
01000010
00100100
00000000
,
00100010
10001000
01000100
10001000
00100010
10001000
00010001
01000100
,
00100010
00010001
01000100
00010001
00100010
00010001
10001000
00000000
,
01000010
00000000
01000010
00000000
01000010
00000000
00100100
01000010
00000000
01000010
00000000
00000000
,
00010001
00000000
00010001
00100100
10001000
01000010
10001000
00000000
00000000
00000000
00000000
00000000
;
