#TITLE:TORIDGE & LISBAH;
#ARTIST:DREAMS COME TRUE;
#BANNER:TORIDGE & LISBAH.png;
#BACKGROUND:TORIDGE & LISBAH-bg.png;
#CDTITLE:cdtitle.png;
#MUSIC:TORIDGE & LISBAH.ogg;
#SAMPLESTART:4.556;
#SAMPLELENGTH:15;
#DISPLAYBPM:120:158;
#BPMS:0=158.025,153=120.1,221=122.7,222=158.025;

//---------------dance-single - ----------------
#NOTES:
     dance-single:
     :
     Easy:
     4:
     :
0000
0000
0000
0000
,
0000
0000
0000
0000
,
0000
0000
0000
0000
,
1000
0100
0000
0001
,
0100
0000
1000
0100
,
0000
0001
0010
0010
,
1000
0100
0000
0001
,
0100
0000
1000
0010
,
0010
0100
1001
0000
,
0001
0010
0010
1000
,
0010
0010
0001
0100
,
0100
1000
0100
0100
,
0001
0010
1000
1000
,
0010
0001
0001
0100
,
0100
0010
0010
0000
,
1000
0010
0000
0001
,
0010
0000
1000
0010
,
0000
0001
0010
0010
,
1000
0100
0000
0001
,
0100
0000
1000
0100
,
0100
0001
0110
0000
,
1000
0010
0010
0001
,
0010
0010
1000
0100
,
0100
0001
0100
0100
,
0010
1000
1000
0100
,
0001
0001
0010
0000
,
0000
0001
1000
0100
,
0010
0001
0000
1000
,
0001
0100
0010
1000
,
0000
0001
0100
0000
,
1000
0100
0000
0001
,
0100
0100
0010
1001
,
0000
1000
0100
0100
,
0001
0100
0100
1000
,
0010
0010
0001
0100
,
0010
1000
0000
0000
,
0001
0000
0100
1000
,
0010
0001
1000
0001
,
0000
0000
0000
0000
,
0000
0000
0000
0000
0000
0000
0000
0000
0000
0000
0000
0000
0000
0000
0000
0010
,
0001
0000
0000
0000
,
0000
0000
0000
0000
0000
0000
0000
0000
0000
0000
0000
0000
0000
0000
0000
1000
,
0100
0010
0010
0010
,
0010
0010
0100
0000
0100
0000
0100
0000
,
0100
0100
0001
0000
0001
0000
1000
0000
,
1000
1000
0001
0000
1000
0000
0001
1000
,
0001
0010
1000
0100
,
0001
0010
1000
0100
,
0001
0001
0100
1000
,
0010
0001
0100
1000
,
0010
0000
1000
0100
1000
0100
1000
0100
,
1000
0000
0001
0100
0001
0100
0001
0100
,
0001
0010
1000
0001
,
0100
0000
0000
0000
0010
0000
0000
0000
0001
0000
0000
0000
1000
0000
0000
0001
,
0100
0000
0000
0000
;

//---------------dance-single - ----------------
#NOTES:
     dance-single:
     :
     Medium:
     6:
     :
0000
0000
0000
0000
,
0000
0000
0000
0000
,
0000
0000
0000
0000
,
0001
0010
0001
1000
,
0010
0000
0010
1000
0001
0000
0100
0000
,
0001
0000
1000
0000
0100
0000
0100
1000
,
0001
0100
0010
1000
,
0100
0010
0001
1001
,
1010
0011
0110
0000
,
1000
0100
1000
0001
,
0100
0000
0100
0001
1000
0000
0100
0000
,
1000
0000
0001
0000
0100
0000
0100
0001
,
1000
0100
0001
0001
,
0100
0000
1000
0000
0010
0001
0010
0100
,
1000
0100
0010
0000
0101
0000
0000
0000
,
1000
0100
0010
0001
,
0100
0000
1000
0100
,
0010
0000
0001
0000
0100
0000
0100
1000
,
0001
0100
0010
1000
,
0100
0000
0001
0100
,
0010
0000
1000
0000
1001
0000
0001
1000
,
0001
0010
0100
1000
,
0010
0000
0001
0010
,
0100
0000
1000
0000
0010
0000
0010
0001
,
1000
0010
0100
0001
,
0010
0100
1000
0000
,
0000
0001
0010
1000
,
0100
0001
0100
0001
0010
0000
1000
0000
,
0010
0000
0001
0000
0100
1000
0100
1000
,
0010
0001
0001
0001
,
1000
1000
1000
0001
,
1000
0000
0001
0010
1000
0000
1100
0000
,
0000
0001
0010
0001
,
1000
0000
0010
0000
0010
1000
0001
0000
,
0100
0001
1000
0010
,
0010
1000
0100
0000
0001
0000
0000
0000
,
1000
0010
0000
0100
,
1001
0110
1100
0011
,
0000
0000
0000
0000
,
0000
0000
0000
0000
0010
0000
0000
0000
0010
0000
0000
0000
0010
0000
0000
0001
,
1000
0010
1000
0100
,
0001
0000
0000
0000
0100
0000
0000
0000
0100
0000
0000
0000
0100
0000
0000
1000
,
0001
1000
1000
1000
,
0010
1000
0001
0000
0001
0000
0001
0000
,
0010
0001
1000
0000
0100
1000
0001
0000
,
0100
0001
1000
0000
0010
0000
0001
0000
,
0100
0000
1000
0000
1000
0010
0001
0000
,
0001
0010
1000
0000
0001
0000
0001
0100
,
1000
0000
0001
0000
0001
0010
1000
0000
,
1000
0010
0001
0000
1000
0000
1000
0100
,
0001
0000
1000
0100
1000
0100
0010
0001
,
0010
0001
1000
0100
0001
0010
0001
0100
,
1000
0000
0001
0010
0001
0010
0100
1000
,
0100
1000
0001
0010
1000
0100
1000
0100
,
0010
0000
0000
0000
;

//---------------dance-single - ----------------
#NOTES:
     dance-single:
     :
     Hard:
     8:
     :
0000
0000
0000
0000
,
0000
0000
0000
0000
,
0000
0000
0000
0010
,
1000
0101
0001
0010
,
1100
0010
1000
0101
,
0010
0000
0001
1000
0001
1000
0100
0000
,
1000
0011
0001
0100
,
1010
0100
1000
0011
,
0001
0100
1001
0000
,
1000
0000
0101
0000
0010
0000
0100
1000
,
0100
1000
0100
0000
1000
0000
0011
0000
,
0100
0000
0010
0001
0010
0001
0010
0000
,
1000
0100
1000
0000
1010
0000
0001
0100
,
0001
0011
1001
1100
,
0101
0110
1001
0000
,
1000
0100
0010
0000
1000
0000
0001
0100
,
0010
0000
1001
0000
1000
0100
0010
0000
,
1000
0000
0001
0010
0001
0010
1000
0000
,
1000
0100
0010
0000
1000
0000
0001
0100
,
0010
0000
1001
0000
1000
0100
0010
0000
,
1000
0000
0001
0010
0011
0000
0000
0000
,
1000
0010
0001
0000
0001
0000
0001
0100
,
1000
0000
1000
0000
1000
0010
0001
0010
,
1000
0000
0001
0100
1000
0100
0001
0000
,
0010
1100
1000
0010
,
0101
0001
0010
0100
,
0000
0110
0011
1000
,
0001
0100
0001
0100
1000
0000
1001
0000
,
1100
0000
0001
0000
1000
0010
1000
0010
,
0001
0000
0010
1000
0100
0000
0101
0000
,
0010
0001
0100
0000
1100
0000
0010
0100
,
0010
1010
0011
1001
,
0000
0000
1000
0010
0001
0000
1100
0000
,
0001
0010
1000
0000
0101
0000
1000
0100
,
0001
0000
0001
0010
0001
0100
1000
0000
,
0001
0010
1000
0000
0000
0000
0000
0000
,
0010
0000
0000
0000
1000
0000
0001
0100
,
0001
1000
0010
1000
1001
0000
0110
0000
,
0000
0001
0001
0001
,
0001
0000
0000
0000
0010
0000
0000
0000
0010
0000
0000
0000
0010
0000
0000
0100
,
0010
1000
1000
1000
,
1000
0000
0000
0000
0100
0000
0000
0000
0100
0000
0000
0000
0100
0000
0000
0010
,
0100
0000
1000
1000
1000
0000
0001
0001
,
0001
0000
1000
1000
0100
0100
0010
0001
,
0010
0000
0010
0010
0101
1100
0010
0001
,
1000
0000
0100
0100
1000
0010
0001
0010
,
1001
0000
0000
1000
0000
1000
0100
0000
0000
0010
0000
0010
,
0001
0000
0000
1000
0000
0001
0010
0000
0100
0010
0000
0001
,
1000
0000
0000
0001
0000
0001
0100
0000
0000
0010
0000
0010
,
1000
0000
0000
0001
0000
1000
0010
0000
0100
0010
0000
1000
,
0001
0000
0000
0100
0000
0010
0001
1000
0001
1000
0000
0001
,
0100
0010
0100
1000
0000
0001
0100
0000
0010
0001
0000
1000
,
0100
0000
0000
0010
0000
0100
1000
0001
1000
0001
0000
1000
,
0010
0100
0010
0001
0000
0010
0100
0010
1000
0001
0000
0100
,
0010
0000
0000
0000
;

//---------------dance-double - ----------------
#NOTES:
     dance-double:
     :
     Easy:
     4:
     :
00000000
00000000
00000000
00000000
,
00000000
00000000
00000000
00000000
,
00000000
00000000
00000000
00000000
,
10000000
01000000
00000000
00010000
,
01000000
00000000
10000000
01000000
,
00000000
00010000
00001000
00000000
,
00000001
00000010
00000000
00001000
,
00000010
00000000
00000001
00000010
,
00000100
00001000
00000010
00000000
,
00000001
00000010
00000000
00001000
,
00000010
00000000
00000001
00000100
,
00000000
00001000
00010000
00000000
,
10000000
01000000
00000000
00010000
,
00100000
00000000
00010000
01000000
,
10000000
00100000
10010000
00000000
,
10000000
00100000
00100000
01000000
,
00010000
00010000
00001000
00000010
,
00000010
00000100
00000001
00000001
,
00001000
00000100
00000100
00000001
,
00000010
00000010
00001000
00000100
,
00000001
00000010
00001001
00000000
,
00000001
00000010
00000010
00000100
,
00001000
00001000
00010000
00100000
,
00100000
01000000
10000000
10000000
,
00010000
00100000
00100000
10000000
,
01000000
01000000
00010000
00000000
,
00000000
00001000
00000010
00000010
,
00000001
00000100
00000000
00001000
,
00000010
00000010
00000001
00000100
,
00000000
00000001
00000010
00000000
,
00000100
00001000
00000000
00010000
,
00100000
10000000
00010000
01000000
,
00000000
10000000
01000000
00100000
,
00010000
01000000
00100000
10000000
,
01000000
00100000
00010000
00001000
,
00000100
00000010
00000000
00000000
,
00001000
00000000
00000000
00000001
,
00000010
00000100
00001000
00000001
,
00000000
00000000
00000000
00000000
,
00000000
00000000
00000000
00000000
00000000
00000000
00000000
00000000
00000000
00000000
00000000
00000000
00000000
00000000
00000000
00001000
,
00010000
00100000
00000000
00000010
,
00000000
00000000
00000000
00000000
00100000
00000000
00000000
00000000
00001000
00000000
00000000
00000000
00010000
00000000
00000000
00001000
,
00010000
00000010
00000010
00100000
,
00100000
00000010
00100000
00000010
,
00100000
00001000
00010000
00100000
,
00100000
00010000
00001000
00000010
,
00000010
00000001
00000100
00001000
,
00000010
00000001
00000100
00001000
,
00000010
00000001
00001000
00010000
,
11000000
10000000
00010000
00001000
,
00000011
00000001
00000101
00001000
,
00001010
00000001
00001000
00010000
,
10000000
00010000
00110000
10000000
,
11000000
00000000
00000000
00010000
00000000
00000000
00001000
00000000
00000000
00000001
00000000
00000010
,
00001000
00000000
00000000
00000000
;

//---------------dance-double - ----------------
#NOTES:
     dance-double:
     :
     Medium:
     7:
     :
00000000
00000000
00000000
00000000
,
00000000
00000000
00000000
00000000
,
00000000
00000000
00000000
00000000
,
00100000
01000000
00010000
00000010
,
00000100
00001000
00100000
01000000
,
00010000
00000010
00000100
00010000
,
00100000
01000000
00001000
00000010
,
00000100
00010000
00100000
01000000
,
00001000
00010000
00011000
00000000
,
10000000
00000000
00100000
00000000
00010000
00000000
10000000
01000000
,
00010000
00001000
00000001
00000010
,
00001000
00000000
00000001
00000100
00001000
00000000
00010000
00000000
,
10000000
00100000
00010000
00000000
00000000
00000000
00001000
00000100
,
00000001
00000000
00001000
00001010
,
00000011
00000000
00000010
00000100
00000001
00000000
00000000
00000000
,
00001000
00000010
00001000
00000100
,
00000001
00000000
00000010
00001000
00010000
00000000
00100000
00000000
,
00010000
00000000
01000000
00000000
10000000
00000000
00100000
00010000
,
00001000
00010000
10000000
10000000
,
01000000
00010000
00001000
00000100
,
00000001
00000000
00000001
00000010
00000100
00000000
00000000
00000000
,
00000001
00000000
00000010
00000000
00000100
00001000
00000001
00000000
,
00000100
00000000
00000010
00001000
00010000
00000000
01000000
00000000
,
00100000
10000000
00010000
00000000
00100000
00000000
01000000
10000000
,
00100000
01000000
00010000
00000000
00000000
00000000
00100000
01000000
,
10000000
00010000
00011000
00000010
,
00000000
00000100
00000001
00001000
,
00000010
00001000
00010000
01000000
00100000
00000000
01000000
00000000
,
10000000
00000000
00010000
00000000
00100000
00010000
00001000
00000100
,
00000010
00000000
00000100
00000000
00000001
00000000
00001000
00000100
,
00000010
00000000
00000001
00000000
00001000
00000010
00000001
00000000
,
00000101
00000110
00001100
00011000
,
00000000
00000000
00010000
00000000
10000000
00000000
01000000
00010000
,
00001000
00000000
00000001
00000000
00000010
00001000
00010000
00000000
,
10000000
00010000
00001000
00000001
,
00001000
00100000
00010000
00000000
,
00000010
00001000
00000000
00000100
,
00000011
00001100
00010000
00100000
,
00000000
10000000
10000000
10000000
,
10000000
00000000
00000000
00000000
00010000
00000000
00000000
00000000
00010000
00000000
00000000
00000000
00010000
00000000
00000000
00010000
,
00001000
00000001
00000001
00000001
,
00000001
00000000
00000000
00000000
00001000
00000000
00000000
00000000
00001000
00000000
00000000
00000000
00001000
00000000
00000000
00001000
,
00010000
00000000
00100000
10000000
00100000
10000000
00010000
01000000
,
00010000
00000000
00000010
00001000
00000010
00001000
00000001
00000100
,
00000001
00000000
00000010
00001000
00000001
00000100
00001000
00000001
,
00000100
00000010
00000001
00001000
00000100
00001000
00000001
00000010
,
00000100
00000010
00001000
00010000
,
00100000
00000000
00000000
10000000
00000000
00000000
00010000
00000000
00000000
00001000
00000000
00000010
,
00000001
00000100
00001000
00010000
,
01000000
00000000
00000000
10000000
00000000
00000000
00010000
00000000
00000000
00001000
00000000
00000100
,
00000001
00000000
00000000
00000001
00000000
00000010
00001000
00000000
00000000
00010000
00000000
01000000
,
10000000
00000000
00000000
10000000
00000000
00100000
00010000
00000000
00001000
00000100
00000000
00000001
,
00000010
00000000
00000000
00000001
00000000
00000010
00000100
00000000
00001000
00010000
00000000
01000000
,
00100000
00000000
00000000
10000000
00000000
01000000
00100000
00000000
00001000
00000010
00000000
00000100
,
00001000
00000000
00000000
00000000
;
