#TITLE:SNOW DANCE;
#ARTIST:DREAMS COME TRUE;
#BANNER:SNOW DANCE.png;
#BACKGROUND:SNOW DANCE-bg.png;
#CDTITLE:cdtitle.png;
#MUSIC:SNOW DANCE.ogg;
#SAMPLESTART:17.89;
#SAMPLELENGTH:15;
#BPMS:0=93.92,4=93.92;

//---------------dance-single - ----------------
#NOTES:
     dance-single:
     :
     Easy:
     2:
     :
0000
0000
0000
0000
,
0000
0000
0000
0000
,
0000
0000
0000
0000
,
0000
0000
0000
0000
,
0000
0000
0000
0000
,
0010
0010
0100
0100
,
1000
1000
1001
0000
,
0001
0001
1000
1000
,
0001
0001
1000
1000
,
0010
0010
0100
0100
,
0010
1000
0100
0001
,
1000
1000
0001
0001
,
1000
1000
0001
0001
,
0100
0100
0010
0010
,
0100
0001
0010
1000
,
0001
1000
1001
0000
,
0001
0000
0100
0000
,
1000
0000
0010
0000
,
0010
0010
0001
0001
,
0010
0010
1000
1000
,
0010
0001
1000
0010
,
0001
0001
1000
1000
,
0010
0010
0001
0001
,
0010
0010
1000
1000
,
0010
0001
1000
0010
,
0100
0000
0100
0000
,
1001
0000
0010
0000
,
0010
0100
0010
0010
,
1000
1000
0100
0100
,
0001
0001
1001
0000
,
0010
0010
0100
0100
,
0010
0010
0100
0100
,
0001
0001
1000
1000
,
0100
0001
1000
0010
,
0100
0100
0010
0010
,
0100
0100
0010
0010
,
1000
1000
0001
0001
,
0010
1000
0001
0100
,
0010
0100
0010
0000
;

//---------------dance-single - ----------------
#NOTES:
     dance-single:
     :
     Medium:
     6:
     :
0000
0000
0000
0000
,
0000
0000
0000
0000
,
0000
0000
0000
0000
,
0000
0000
0000
0000
,
0000
0000
0000
0000
,
0100
0001
0100
0001
0010
1000
0010
1000
,
0001
0100
1000
0010
0100
0100
0100
0100
,
0010
0001
0010
0001
0100
1000
0100
1000
,
0001
0100
0001
0100
1000
0100
1000
0100
,
0001
0100
0010
0100
0001
0010
0100
0010
,
0001
0000
0001
0000
0110
1000
0001
0010
,
0100
1000
0100
1000
0100
0001
0100
0001
,
1000
0010
1000
0010
0001
0010
0001
0010
,
1000
0010
0100
0010
1000
0100
0010
0100
,
1000
0000
1000
0000
0001
0010
1000
0100
,
0001
0000
0001
0000
1000
0100
0010
0001
,
0100
0000
0100
0000
0100
1000
0001
1001
,
0010
0000
0010
0000
0110
0001
1000
0000
,
0100
0000
0010
0000
0010
1000
0001
0000
,
0100
0000
0010
0000
0010
1000
0001
0100
,
1000
0010
0001
0010
0100
0001
0010
0001
,
0100
1000
0100
1000
0001
0010
1010
0000
,
0100
0000
0010
0000
0010
0001
1000
0000
,
0100
0000
0010
0000
0010
0001
1000
0100
,
0001
0010
1000
0010
0100
1000
0010
1000
,
0100
0101
0101
0000
1000
0000
1000
0010
,
0001
0000
0000
0010
0001
0000
0000
0010
,
0001
0000
1000
0000
0010
0100
0001
0100
,
0010
0100
0001
0010
0001
0100
1000
0100
,
0010
0001
0001
0100
1000
1000
0000
0000
,
0010
0001
0010
0001
0100
1000
0100
1000
,
0010
1000
0010
0001
0100
0001
0100
1000
,
0100
0010
0001
1000
0100
0010
0001
0000
,
0010
1000
0001
0100
0010
1000
0001
0100
,
0010
1000
0010
1000
0100
0001
0100
0001
,
0010
1000
0010
0001
0100
0001
0100
1000
,
0010
0100
0001
1000
0010
0100
0001
1000
,
0010
0001
1000
0100
0010
0001
1000
0100
,
0001
0000
0001
0000
1000
1000
1001
0001
,
0010
0000
0000
0000
;

//---------------dance-single - ----------------
#NOTES:
     dance-single:
     :
     Hard:
     7:
     :
0000
0000
0000
0000
,
0000
0000
0000
0000
,
0000
0000
0000
0000
,
0010
0000
0000
0000
0010
0000
0000
0000
0010
0000
0000
0000
1000
0000
1000
0100
,
1000
0000
0000
0000
1000
0000
0000
0000
1000
0000
0000
0000
0001
0000
0001
0010
,
0001
0001
1000
1000
,
0010
0000
0010
0000
1010
0100
0101
1000
,
0010
0000
0010
0000
1100
0101
1100
0010
,
1000
0000
1000
0000
0011
0101
0011
1000
,
0010
0010
0100
0100
1000
0110
0010
1000
,
0010
0010
0010
1001
0100
0010
1000
0100
,
0010
0000
0010
0000
0101
1100
0101
0010
,
0001
0000
0001
0000
1010
1100
1010
0001
,
0010
0010
0100
0100
0001
0110
0010
0001
,
0100
0100
0100
1001
0010
0100
0001
1000
,
0010
0000
0000
0000
0000
0010
1000
0100
0000
0000
0100
0000
0100
0000
0110
0000
,
0001
0010
0001
0001
1000
0010
1000
1000
,
0100
0001
0100
1000
1000
0100
0001
0000
,
1000
0000
0010
0100
0001
1010
0100
0011
,
1000
0000
0100
0010
0001
1100
0010
0101
,
1000
0000
0000
0000
1000
0000
0000
0000
0100
0000
0100
0000
0100
0000
0100
1000
,
0001
0000
0000
0000
0001
0000
0000
0000
1000
0000
1000
0000
1000
0000
1000
0001
,
0010
0000
1000
0001
0010
0110
1000
1010
,
0100
0000
0001
1000
0100
0110
0001
0101
,
1000
0010
1000
0100
0001
0100
0001
0010
,
1000
0000
0110
0000
1001
0000
0000
0000
0000
0000
0100
0000
0100
0000
0100
1000
,
0010
0000
0010
0000
1100
1001
0011
0110
,
0101
0110
1010
1001
,
0100
0010
0001
1000
0100
0001
0010
0100
,
0011
0100
0100
1100
0001
0001
0000
0000
,
0010
0100
0010
0100
1010
0011
1100
0101
,
1000
0001
1000
0001
0101
1010
0110
1001
,
0010
1000
0100
0001
0010
1000
0001
0110
,
0100
1000
0010
0001
0100
1000
0001
0110
,
1000
0001
1000
0001
0110
1010
0101
1001
,
0010
0100
0010
0100
1010
1100
0101
0011
,
1000
0100
0001
0010
0001
0100
1000
0010
,
0001
0100
0011
0100
0010
1100
0010
1000
,
0001
0000
0000
0000
0000
0010
1000
0100
0000
0000
0000
0000
0000
0000
0000
0000
;

//---------------dance-single - ----------------
#NOTES:
     dance-single:
     :
     Challenge:
     8:
     :
0000
0000
0000
0000
,
0000
0000
0000
0000
,
0000
0000
0000
0000
0000
0000
0000
0000
0010
0010
0000
0001
1000
0000
0100
0000
,
0010
0000
1000
0100
1000
0000
0001
0100
0001
0000
1000
0010
1000
0000
0000
0000
,
0100
0000
0001
0010
0001
0000
1000
0100
1000
0000
0001
0100
0001
0000
0000
0000
,
1000
0000
0010
0001
0010
0000
0100
1000
0100
0000
0010
0100
0010
0000
1000
0001
,
1000
0100
0001
0100
1010
0011
0101
1010
,
0001
0000
0001
0000
0010
1000
0010
1000
0100
0000
0100
0000
0010
0001
0010
0001
,
0100
0000
0010
1000
0010
0000
0100
0001
0100
0000
1000
0100
1000
0000
0000
0000
,
0001
0000
0010
0100
0010
0000
0000
0001
1000
0000
0010
0100
0010
0000
0000
1000
,
0100
0000
0001
0000
0010
0000
1000
0000
0100
1000
0000
0001
0010
0000
1001
0000
,
0100
0000
0100
0000
0001
1000
0001
1000
0010
0000
0010
0000
1000
0100
1000
0100
,
0001
0000
1000
0100
0001
0000
1000
0100
0001
0000
0010
0100
0010
0000
1001
0000
,
1000
0000
0001
0100
1000
0000
0001
0100
1000
0000
0010
0100
0010
0000
1001
0000
,
0010
1000
0001
0100
1000
0001
0010
0100
,
0000
0110
0000
1000
0010
0000
0001
0000
0000
0110
0000
1000
0100
0000
0000
0000
,
0000
0010
0010
0000
1000
0001
0000
0001
0000
0000
0100
0100
0000
0001
0000
1000
,
0010
0000
0000
0010
0000
0000
0000
0000
0000
0001
0000
0000
0000
0000
0000
0100
0000
0000
0000
0000
0000
1000
0000
0000
0001
0000
0000
0000
0010
0000
0000
0000
1000
0000
0000
0000
0100
0000
0000
0000
0001
0000
0000
0000
0010
0000
0000
0000
,
1000
0100
0001
0100
1000
1010
0001
0011
,
1000
0100
0001
0010
0001
1100
0010
0101
,
1000
0000
0010
0100
0010
0000
0100
0001
0100
0000
0010
1000
0010
0000
0100
0001
,
0100
0000
1000
0000
0010
0000
0100
0000
0001
0000
0010
0100
0000
1000
0100
0000
,
0001
0010
1000
0010
0001
0101
1000
1100
,
0001
0010
1000
0100
1000
0011
0100
1010
,
0001
0000
0010
0100
0010
0000
1000
0100
1000
0000
0001
0010
0001
0000
0100
0010
,
1000
0001
1001
0110
0011
1010
1100
0101
,
0010
0000
0100
0000
0010
0000
0100
0000
1000
0000
0001
0000
1000
0100
1000
0100
,
1001
0000
0110
0000
1001
0000
0011
1100
,
0001
0100
1000
0100
0001
0010
1000
0110
,
0011
0000
1100
0000
1001
0000
1010
0000
0000
0001
0000
0100
0010
0000
1100
0000
,
0001
0000
0001
1000
0100
1000
0010
0000
1000
0000
1000
0000
0001
0100
0001
0010
,
0001
0000
0010
1000
0100
0000
0010
1000
0100
0000
0010
0001
0100
0000
1001
0000
,
0010
0000
0001
1000
0001
0000
0000
0100
0010
0000
1000
0001
1000
0000
0000
0100
,
0001
0000
0010
0000
0100
0000
1000
0000
0000
0001
0000
0010
0100
0000
1001
0000
,
0100
0000
0100
0000
1000
0010
0001
0100
0010
0000
0010
0000
0001
0100
1000
0010
,
0001
0000
1000
0001
0100
0000
1000
0001
0100
0000
0001
1000
0010
0000
1001
0000
,
0100
0000
1000
0100
0010
0000
1001
0000
0010
0000
0001
0010
0100
0000
1001
0000
,
0010
0000
1000
0100
0010
0000
1000
0100
0010
0000
0001
0100
1000
0100
1000
0000
,
0000
0010
1000
0100
0001
0000
0101
0000
0000
0010
1000
0100
1000
0100
0001
0000
;

//---------------dance-double - ----------------
#NOTES:
     dance-double:
     :
     Easy:
     2:
     :
00000000
00000000
00000000
00000000
,
00000000
00000000
00000000
00000000
,
00000000
00000000
00000000
00000000
,
00000000
00000000
00000000
00000000
,
00000000
00000000
00000000
00000000
,
00000010
00001000
00000010
00000001
,
00000010
00001000
00010000
00000000
,
00001000
00001000
00010000
00010000
,
00001000
00001000
00000010
00000010
,
00000100
00001000
00000010
00000001
,
00000100
00001000
00010000
00001000
,
00010000
00010000
00001000
00001000
,
00010000
00010000
01000000
01000000
,
00100000
00010000
01000000
00010000
,
10000000
01000000
00100000
00010000
,
00001000
00000100
00000010
00000000
,
00000001
00000001
00001000
00001000
,
00010000
00010000
01000000
00000000
,
00010000
00010000
10000000
01000000
,
00010000
00010000
10000000
00100000
,
00010000
00010000
00001000
00001000
,
00000100
00000010
00000001
00000000
,
00001000
00001000
00000001
00000010
,
00001000
00001000
00000001
00000100
,
00001000
00001000
00010000
00010000
,
00100000
01000000
10000000
00100000
,
01000000
00000000
00010000
00000000
,
10000000
00100000
01000000
00010000
,
00001000
00001000
00000010
00000010
,
00000001
00000100
00001000
00000000
,
00010000
00010000
00001000
00001000
,
00010000
00010000
00100000
00100000
,
01000000
00010000
00100000
10000000
,
01000000
00010000
00001000
00010000
,
00001000
00001000
00010000
00010000
,
00001000
00001000
00000100
00000100
,
00000010
00001000
00000100
00001000
,
00000001
00000010
00000100
00001000
,
00010000
00100000
00010000
00001000
;

//---------------dance-double - ----------------
#NOTES:
     dance-double:
     :
     Medium:
     6:
     :
00000000
00000000
00000000
00000000
,
00000000
00000000
00000000
00000000
,
00000000
00000000
00000000
00000000
,
00000000
00000000
00000000
00000000
,
00000000
00000000
00000000
00000000
00000000
00000000
00000010
00000100
,
00000001
00001000
00000001
00001000
00010000
00001000
00010000
00001000
,
00000001
00001000
00010000
00100000
01000000
01000000
01000000
01000000
,
00100000
00010000
00100000
00010000
00000010
00001000
00000010
00001000
,
00000100
00000001
00000100
00000001
00000010
00001000
00010000
00001000
,
00000100
00001000
00000100
00001000
01000000
00010000
01000000
00010000
,
00100000
10000000
00010000
01000000
00010000
10000000
01000000
00000000
,
00100000
10000000
00100000
10000000
01000000
00010000
01000000
00010000
,
00001000
00000100
00001000
00000100
00000001
00000010
00000001
00000010
,
00001000
00010000
00001000
00000100
00010000
00001000
00010000
00100000
,
01000000
00010000
00001000
00000010
00000100
00001000
00010000
00100000
,
01000000
00010000
00100000
10000000
00100000
10000000
00010000
00000000
,
11000000
00000000
01100000
00000000
00011000
00100000
01000000
00010000
,
00001010
00000000
00000110
00000000
00000101
00001000
00000010
00000000
,
00001000
00000010
00000100
00000001
00000010
00000100
00000001
00001000
,
00010000
00100000
01000000
10000000
00100000
01000000
10000000
00010000
,
00001000
00000100
00001000
00000100
00000001
00000010
00000100
00001000
,
00010000
01000000
00010000
01000000
10000000
00100000
01000000
00000000
,
10000000
00100000
00010000
01000000
00010000
10000000
00100000
00010000
,
00001000
00000010
00000001
00000100
00000001
00001000
00000010
00001000
,
00010000
00100000
10000000
01000000
,
00100000
01010000
11000000
00000000
00000000
10100000
00110000
00000000
,
10000000
01000000
00010000
01000000
,
10000000
00000000
00010000
00000000
00011000
01000000
00011000
00000010
,
00000100
00000001
00000010
00001000
00000100
00000001
00000010
00001000
,
00000010
00000001
00001001
00000100
00001000
00001001
00000000
00000000
,
00000010
00001000
00000010
00001000
00100000
00010000
00100000
00010000
,
01000000
10000000
01000000
10000000
00100000
00010000
00001000
00010000
,
01000000
00010000
01000000
00010000
00000100
00001000
00000100
00001000
,
00000010
00000001
00001000
00000100
00001000
00000001
00000100
00000000
,
00000010
00000001
00000100
00010000
00001000
00100000
10000000
01000000
,
00100000
10000000
01000000
00001000
00010000
00000100
00000001
00000010
,
00000100
00000010
00000100
00000001
00001000
00010000
00001000
00100000
,
10000000
00010000
10000000
01000000
00010000
00100000
10000000
00100000
,
00010000
01000000
00010000
00001000
00010000
00100000
00001000
00000000
;

//---------------dance-double - ----------------
#NOTES:
     dance-double:
     :
     Hard:
     8:
     :
00000000
00000000
00000000
00000000
,
00000000
00000000
00000000
00000000
,
00000000
00000000
00000000
00000000
00000000
00000000
00000000
00000000
00100000
00100000
00000000
00010000
00001000
00000000
00000100
00000000
,
00000010
00000000
00000001
00000010
00000001
00000000
00001000
00000010
00001000
00000000
00000001
00000100
00000001
00000000
00001000
00000000
,
00000100
00000000
00000001
00000100
00000001
00000000
00001000
00000100
00001000
00000000
00010000
01000000
00010000
00000000
00100000
00000000
,
10000000
00000000
00100000
00010000
00100000
00000000
01000000
10000000
01000000
00000000
00100000
01000000
00100000
00000000
10000000
00010000
,
10000000
01000000
00010000
00001000
00000110
00001000
00010000
01100000
,
00010000
00000000
00010000
00000000
10000000
00000000
10000000
00000000
00100000
10000000
00100000
10000000
00010000
01000000
00010000
00000000
,
00001000
00000000
00001000
00000000
00000001
00000000
00000001
00000000
00000010
00000001
00000010
00000001
00001000
00000100
00001000
00000000
,
00010000
00100000
01000000
00100000
00010000
00000000
01100000
00000000
10000000
00100000
01000000
00100000
10000000
00000000
10010000
00000000
,
10000000
01000000
00100000
00010000
00100000
00010000
00001000
00000000
00000001
00000100
00000000
00001000
00000010
00000000
00001001
00000000
,
00000010
00000000
00000010
00000000
00000100
00000000
00000100
00000000
00000010
00000001
00000010
00000001
00001000
00000100
00001000
00000000
,
00100000
00000000
00100000
00000000
01000000
00000000
01000000
00000000
00100000
10000000
00100000
10000000
00010000
01000000
00010000
00000000
,
00001000
00000000
00010000
00100000
01000000
00000000
00010000
00001000
00010000
00000000
00001000
00000010
00000100
00000000
00001000
00010000
,
00100000
10000000
00010000
01000000
01000000
00010000
00001000
00000100
,
00000010
00000000
00000001
00000000
00001000
00000000
00000100
00000000
00000000
00000010
00000000
00000001
00001000
00000000
00000110
00000000
,
00000001
00001000
00000100
00000000
00000001
00001000
00000100
00000000
,
00010000
00000000
00000000
00001000
00000000
00000000
00100000
00000000
00000000
10000000
00000000
00000000
00010000
00000000
01000000
00000000
10000000
00000000
00100000
00000000
00010000
00000000
01000000
00000000
,
10010000
00000000
10100000
01010000
00001000
00100000
00010000
00001000
,
00000110
00000000
00000011
00001100
00010000
00000100
00001000
00010000
,
10000000
00000000
00100000
01000000
00100000
00000000
01000000
00010000
01000000
00000000
00100000
10000000
00100000
00000000
00010000
00001000
,
00010000
00000000
00000100
00000010
00000100
00000000
00000001
00001000
00000001
00000000
00000100
00000010
00000000
00001000
00000100
00000000
,
00000011
00000000
00001010
00011000
00100000
01000000
00010000
00001000
,
00000110
00000000
00000101
00001100
00011000
01000000
00100000
00010000
,
10000000
00000000
00100000
01000000
00100000
00000000
10000000
01000000
10000000
00000000
00010000
00100000
00010000
00000000
01000000
00100000
,
00010000
00000000
00001000
00000000
00001000
00000000
00000000
00000000
00010000
00000000
10000000
01000000
00000000
00100000
00010000
01000000
,
00100000
00000000
00001000
00010000
00001000
00000000
00010000
01000000
00010000
00000000
00001000
00010000
00001000
00000000
00000010
00000100
,
00000010
00001100
00000011
00000110
,
00000001
00000100
00001000
00000010
00010000
00100000
10000000
01000000
,
00110000
00000000
11000000
00000000
10010000
00000000
10100000
00000000
00000000
00010000
00000000
00100000
01000000
00000000
00011000
00000000
,
00000010
00000000
00000010
00000000
00000100
00000000
00000100
00000000
00000001
00000010
00000001
00000010
00000100
00001000
00000100
00000000
,
00100000
00000000
00100000
00000000
01000000
00000000
01000000
00000000
00010000
00100000
00010000
00100000
01000000
10000000
01000000
00000000
,
10010000
00000000
00100000
00010000
10000000
01000000
00010000
00000000
01100000
00000000
00100000
10000000
00010000
01000000
10000000
00000000
,
00100000
00000000
00010000
00000000
00001000
00000000
00000100
00000000
00000000
00000010
00000000
00000001
00001000
00000000
00000101
00000000
,
00001000
00000000
00001000
00000000
00000001
00000000
00000001
00000000
00000100
00000001
00000100
00000001
00001000
00000010
00001000
00000000
,
00010000
00000000
00010000
00000000
10000000
00000000
10000000
00000000
01000000
10000000
01000000
10000000
00100000
00010000
00100000
00000000
,
00011000
00000100
00011000
01000000
00010000
00001000
00000010
00001000
,
00000010
00000000
00000001
00000100
00000010
00000000
00001000
00000100
00000010
00000000
00000001
00000100
00000010
00000000
00001000
00000100
,
00000001
00000010
00000100
00001000
00010000
00001000
00100000
01000000
00000000
10000000
00000000
01000000
00100000
00000000
11000000
00000000
;

//---------------dance-couple - ----------------
#NOTES:
     dance-couple:
     :
     Easy:
     2:
     :
00000000
00000000
00000000
00000000
,
00000000
00000000
00000000
00000000
,
00000000
00000000
00000000
00000000
,
00000000
00000000
00000000
00000000
,
00000000
00000000
00000000
00000000
,
00100010
00100010
01000100
01000100
,
00011000
00011000
10011001
00000000
,
00010001
00010001
10001000
10001000
,
00010001
00010001
10001000
10001000
,
00100000
00100000
00000100
00000100
,
00100010
10000001
01000100
00011000
,
10001000
10001000
00010001
00010001
,
10001000
10001000
00010001
00010001
,
00000010
00000010
01000000
01000000
,
00100100
10000001
01000010
00011000
,
10000001
00011000
10011001
00000000
,
00011000
00000000
01000010
00000000
,
10000001
00000000
00100100
00000000
,
00100010
00100010
00010001
00010001
,
00100010
00100010
10001000
10001000
,
00100100
00011000
10000001
00100100
,
00011000
00011000
10000001
10000001
,
00100010
00100010
00010001
00010001
,
00100010
00100010
10001000
10001000
,
01000010
10000001
00011000
01000010
,
00100100
00000000
00100100
00000000
,
00000000
00000000
10011001
00000000
,
00100010
01000100
00100010
00100010
,
10000001
10000001
01000100
01000100
,
00011000
00011000
10011001
00000000
,
00100010
00100010
01000100
01000100
,
00100010
00100010
01000100
01000100
,
00011000
00011000
10000001
10000001
,
01000010
00011000
10000001
00100100
,
01000100
01000100
00100010
00100010
,
01000100
01000100
00100010
00100010
,
10000001
10000001
00011000
00011000
,
00100100
10000001
00011000
01000010
,
00100100
01000010
00100100
00000000
;

//---------------dance-couple - ----------------
#NOTES:
     dance-couple:
     :
     Medium:
     6:
     :
00000000
00000000
00000000
00000000
,
00000000
00000000
00000000
00000000
,
00000000
00000000
00000000
00000000
,
00000000
00000000
00000000
00000000
,
00000000
00000000
00000000
00000000
,
01000100
00010001
01000100
00010001
00100010
10001000
00100010
10001000
,
00010001
01000100
10001000
00100010
00011000
00011000
00011000
00011000
,
00100010
00010001
00100010
00010001
01000100
10001000
01000100
10001000
,
00010001
01000100
00010001
01000100
10001000
01000100
10001000
01000100
,
00010001
01000100
00100010
01000100
00010001
00100010
01000100
00100010
,
00000110
00001000
00000001
00000010
01100000
10000000
00010000
00100000
,
01000100
10001000
01000100
10001000
01000100
00010001
01000100
00010001
,
10001000
00100010
10001000
00100010
00010001
00100010
00010001
00100010
,
10001000
00100010
01000100
00100010
10001000
01000100
00100010
01000100
,
00010000
00100000
10000000
01000000
00000001
00000010
00001000
00000100
,
10000000
01000000
00100000
00010000
00001000
00000100
00000010
00000001
,
00100100
00000000
00100100
00000000
00100100
10001000
00010001
10011001
,
01000010
00000000
01000010
00000000
01100110
00010001
10001000
00000000
,
01000100
00000000
00100010
00000000
00100010
10001000
00010001
00000000
,
01000100
00000000
00100010
00000000
00100010
10001000
00010001
01000100
,
10001000
00100000
00011000
00100000
01000001
00010000
01100001
00000000
,
10000100
00001000
10000100
00001000
00010001
00000010
00011010
00000000
,
01000100
00000000
00100010
00000000
00100010
00010001
10001000
00000000
,
01000100
00000000
00100010
00000000
00100010
00010001
10001000
01000100
,
00010001
00100010
10001000
00100010
01000100
10001000
00100010
10000001
,
01000010
01011100
01011100
00000000
10000001
00000000
10000001
00100010
,
00011000
00000000
00000000
00100010
00011000
00000000
00000000
00100010
,
00011000
00000000
10000001
00000000
00100010
01000100
00011000
01000100
,
00100010
01000100
00010001
00100010
00010001
01000100
10001000
01000100
,
00100010
00010001
00010001
01000100
10001000
10001000
00000000
00000000
,
00100010
00010001
00100010
00010001
01000100
10001000
01000100
10001000
,
00100010
10001000
00100010
00010001
01000100
00010001
01000100
10001000
,
01000001
00100000
00010001
10000000
01001000
00100000
00011000
00100000
,
10000010
00001000
10000001
00000100
00010010
00001000
00010001
00000100
,
00100010
10001000
00100010
10001000
01000100
00010001
01000100
00010001
,
00100010
10001000
00100010
00010001
01000100
00010001
01000100
10001000
,
00100010
01000100
00010001
10001000
00100010
01000100
00010001
10001000
,
00100010
00010001
10001000
01000100
00100010
00010001
10001000
01000100
,
00010001
00000000
00011000
00000000
10000001
10000001
10011001
00011000
,
00100100
00000000
00000000
00000000
;

//---------------dance-couple - ----------------
#NOTES:
     dance-couple:
     :
     Hard:
     7:
     :
00000000
00000000
00000000
00000000
,
00000000
00000000
00000000
00000000
,
00000000
00000000
00000000
00000000
,
00011000
00000000
00000000
00000000
00011000
00000000
00000000
00000000
00011000
00000000
00000000
00000000
10000001
00000000
10000001
01000100
,
10000001
00000000
00000000
00000000
10000001
00000000
00000000
00000000
10000001
00000000
00000000
00000000
00011000
00000000
00011000
00100010
,
00010001
00010001
10001000
10001000
,
00100010
00000000
00100010
00000000
00011000
00011000
00011000
00011000
,
11000001
01010000
11000001
00100000
00011100
00000101
00011100
00000010
,
00111000
01010000
00111000
10000000
00010011
00000101
00010011
00001000
,
00100010
00100010
01000100
01000100
00011000
01100110
00100010
00011000
,
00100010
00100010
00100010
10011001
01000100
00100010
10001000
00000000
,
00100101
00001100
00100101
00000010
01010100
11000000
01010100
00100000
,
00011010
00001100
00011010
00000001
10101000
11000000
10101000
00010000
,
00100010
00100010
01000100
01000100
10000001
01100110
00100010
10000001
,
01000100
01000100
01000100
10011001
00100010
01000100
00010001
10001000
,
00100010
00000000
00000000
00000000
00000000
00100010
10000001
01000100
00000000
00000000
01000100
00000000
01000100
00000000
10010110
00000000
,
00010001
00100010
00010001
00010001
10001000
00100010
10001000
10001000
,
01000100
00010001
01000100
10001000
10001000
01000100
00010001
00000000
,
00011000
00000000
01000010
00100100
10010001
01011010
00100100
11000011
,
00011000
00000000
00100100
01000010
10000001
00111100
01000010
10100101
,
00011000
00000000
00000000
00000000
00011000
00000000
00000000
00000000
00100100
00000000
00100100
00000000
00100100
00000000
00100100
00011000
,
10000001
00000000
00000000
00000000
10000001
00000000
00000000
00000000
00011000
00000000
00011000
00000000
00011000
00000000
00011000
10000001
,
01000010
00000000
00011000
10000001
01000010
01100110
00011000
01011010
,
00100100
00000000
10000001
00011000
00100100
01100110
10000001
10100101
,
00011000
01000010
00011000
00100100
10000001
00100100
10000001
01000010
,
10001000
00000000
01101001
00000000
10010110
00000000
00000000
00000000
00000000
00000000
01000100
00000000
01000100
00000000
01000100
10001000
,
00100010
00000000
00100010
00000000
11001100
10011001
00110011
01100110
,
01010101
01100110
10101010
10011001
,
01000100
00100010
00010001
10001000
01000100
00010001
00100010
01000100
,
00110011
11001100
11001100
10101010
01010101
01010101
00000000
00000000
,
00101010
01000011
00101100
01000101
10100010
00110100
11000010
01010100
,
10000001
00010101
10001010
00010100
01011000
10100001
01101000
10010001
,
00100010
10001000
01000100
00010001
00100010
10001000
00010001
01100110
,
01000100
10001000
00100010
00010001
01000100
10001000
00010001
10010110
,
01101000
10100001
01011000
10010001
10000110
00011010
10000101
00011001
,
10100010
11000100
01010010
00110100
00101010
01001100
00100101
01000011
,
10001000
01000100
00010001
00100010
00010001
01000100
10001000
00100010
,
00010001
01000100
00110011
01000100
00100010
11001100
00100010
10001000
,
00010001
00000000
00000000
00000000
00000000
01000010
00011000
00100100
00000000
00000000
00000000
00000000
00000000
00000000
00000000
00000000
;
