#TITLE:LOVETIDE;
#ARTIST:DREAMS COME TRUE;
#BANNER:LOVETIDE.png;
#BACKGROUND:LOVETIDE-bg.PNG;
#CDTITLE:cdtitle.png;
#MUSIC:LOVETIDE.ogg;
#SAMPLESTART:11.695;
#SAMPLELENGTH:15;
#BPMS:0=118,4=118;

//---------------dance-single - ----------------
#NOTES:
     dance-single:
     :
     Easy:
     4:
     :
0000
0000
0000
0000
,
0000
0000
0000
0000
,
0000
0000
0000
0000
,
0000
0000
0000
0000
,
0000
0000
0000
0000
,
0010
1001
0010
1001
,
0100
0000
1000
0000
0001
0010
0001
0000
,
0100
1001
0100
1001
,
0001
1000
1000
0001
,
1000
0110
1000
0110
,
0001
0000
0010
0000
1000
0100
1000
0000
,
0001
0110
0001
0110
,
1000
0001
0001
1000
,
0000
0001
0000
0001
,
0000
0000
0100
0000
0000
1000
0001
0000
,
0000
1000
0000
1000
,
0000
0001
1000
0000
0010
0100
0001
0000
,
0001
1000
0110
0001
,
0000
0000
0100
0000
0000
0001
1000
0000
,
0001
1000
1000
0001
,
0000
0000
0010
0000
1000
0001
0100
0000
,
1000
0010
1000
0110
,
0001
0000
0010
0000
0001
0100
0010
0000
,
1000
0001
0001
1000
,
1000
0000
0001
0000
1000
0001
1000
0000
,
0010
1000
0010
1001
,
0100
0000
0001
0000
0100
0001
1000
0000
,
0001
1000
1000
0001
,
0010
0000
0010
0000
0000
0100
0001
0000
,
0000
1000
1000
1000
,
0000
0000
0001
0000
0000
0010
0100
0000
,
0000
0001
0001
0001
,
0000
0000
1000
0000
0010
0001
1000
0000
,
0100
1000
0110
0001
,
0000
0000
1000
0000
0000
0010
0100
0000
,
0001
1000
1000
0001
,
0000
0000
0001
0000
1000
0100
0010
0000
,
0001
0000
0000
0000
0000
0010
0100
0000
,
1000
0000
0000
0000
0000
0010
0100
0000
,
0001
0000
0000
0000
0000
0010
0100
0010
,
0000
0001
1000
0001
,
0110
0000
1001
0000
0000
0010
0010
0000
,
0000
0001
0000
1000
,
0000
0001
0010
1000
,
0000
1000
0100
0001
,
0000
0001
0000
1000
,
0000
1000
0100
0001
,
0000
0000
0001
0000
0010
1000
0100
0010
,
0001
0000
0000
0000
0000
0000
0000
0000
0000
0000
0010
0000
0000
0010
0000
0000
,
0010
0000
0000
0000
;

//---------------dance-single - ----------------
#NOTES:
     dance-single:
     :
     Medium:
     7:
     :
0000
0000
0000
0000
,
0000
0000
0000
0000
,
0000
0000
0000
0000
,
0000
0000
0000
0000
,
0000
0000
0000
0000
,
0010
0000
1001
0100
0010
0000
1001
0000
,
0010
0000
1000
0000
0001
0100
1000
0000
,
0100
0000
1001
0010
0100
0000
1001
0000
,
0100
0000
0001
0000
1000
0010
0001
0100
,
1000
0000
0011
0001
0100
0000
1001
0000
,
0010
0000
0001
0000
1000
0100
1001
0000
,
0001
0000
1100
1000
0010
0000
1001
0000
,
0100
0000
1000
0000
0010
1000
0110
0000
,
0010
0000
0000
0000
1000
0001
1000
0010
,
0100
0000
0000
0000
0001
1000
0001
0100
,
1000
0010
0000
0000
0001
0010
0000
0000
,
0000
0001
0010
0100
1000
0000
0110
0000
,
1010
0000
0101
0000
1000
0001
0110
0000
,
1000
0001
0110
0000
1000
0000
0100
0000
,
1000
0001
0010
1000
0001
0000
1000
0000
,
0000
0000
1001
0000
0010
0100
0101
0000
,
1000
0000
1010
0100
0010
0000
0101
0000
,
1000
0000
0001
0000
1010
0100
0001
0000
,
0001
0000
0101
0010
0100
0000
1010
0000
,
0100
1000
0010
0001
0100
1000
0001
0010
,
1000
0000
1001
0010
0100
0000
0011
0000
,
1000
0000
0010
0000
0011
0100
1000
0000
,
0001
0000
0110
1000
0001
0000
1100
0000
,
0000
0000
0010
0000
0001
1000
0100
0000
,
0001
1000
0001
0000
0010
0100
0010
0000
,
1000
0001
1000
0000
0100
0010
0100
0000
,
1000
0100
0001
0100
,
0000
0010
1000
0010
0001
0010
1000
0000
,
0101
0000
1010
0000
0100
0010
1001
0000
,
0100
0010
1001
0000
0001
0000
0010
0000
,
1000
0100
0001
1000
0010
0000
1001
0000
,
0000
0000
0110
0000
0100
1010
0011
0000
,
0100
0000
0000
1000
0000
0000
1000
0000
0000
0000
0010
0000
0101
0000
0000
0000
,
0010
0000
0000
0001
0000
0000
0001
0000
0000
0000
0100
0000
1010
0000
0000
0000
,
1000
0100
0001
0010
,
0000
1000
0100
0001
0010
1000
0100
0000
,
1010
0000
0000
0000
0101
0000
0000
0000
0000
0000
1000
0100
1000
0100
0000
0000
,
0000
0000
1010
0000
0001
0100
0010
0000
,
0000
0000
0101
0000
1000
0100
0010
0001
,
1000
0010
0001
0100
1000
0010
0001
0000
,
0000
0000
0010
0000
1000
0001
0010
0100
,
0000
0000
0100
0000
0001
1000
0100
0010
,
1000
0001
0100
1000
0001
0000
1100
0101
,
0010
0000
0000
0000
0000
0000
0000
0000
0000
0000
1000
0100
0000
0010
0000
0001
,
1000
0000
0000
0000
;

//---------------dance-single - ----------------
#NOTES:
     dance-single:
     :
     Hard:
     8:
     :
0000
0000
0000
0000
,
0000
0000
0000
0000
,
0000
0000
0000
0000
,
0000
0000
0000
0000
,
0000
0000
0000
0110
,
1000
0000
0000
0000
1010
0000
0001
0000
0001
0000
0000
0000
0011
0000
0000
1000
,
0000
1000
0000
1000
0001
0000
0100
0000
0100
0000
0000
0000
1001
0000
0000
0000
,
0001
0000
0011
1000
1000
0000
1010
0000
,
0001
0100
1000
0100
0001
0100
1000
0000
,
0001
0000
0000
0000
0011
0000
1000
0000
1000
0000
0000
0000
1100
0000
0000
0001
,
0000
0001
0000
0001
1000
0000
0100
0000
0100
0000
0000
0000
1001
0000
0000
0000
,
1000
0000
1100
0001
0001
0000
0101
0000
,
1010
0000
0110
0000
0001
1000
0101
0000
,
0001
0010
1000
0000
1000
0100
0001
0000
,
0001
1000
0001
0100
0010
0000
0011
0000
,
0100
1000
0010
0000
0010
0001
0100
0000
,
0000
0010
0100
0001
1000
0001
0100
0000
,
0011
0101
1100
1001
,
0010
0100
0101
0000
0010
0100
1100
0000
,
0001
0010
1010
0001
0100
1000
0100
0101
,
0000
0000
1001
0000
1100
0101
0110
0000
,
0001
0000
0000
0000
0101
0000
1000
0000
1000
0000
0000
0000
1100
0000
0000
0010
,
0000
0010
0000
0010
0100
0001
0000
0000
1000
0000
0000
0000
0110
0000
0000
0000
,
1000
0000
1010
0001
0001
0000
0011
0000
,
1000
0010
0001
0010
1000
0100
0001
0000
,
1000
0000
0000
0000
1010
0000
0001
0000
0001
0000
0000
0000
0011
0000
0000
0100
,
0000
0100
0000
0100
0010
0000
1000
0000
0001
0000
0000
0000
0110
0000
0000
0000
,
0001
0000
0101
1000
1000
0000
1100
0000
,
1001
0000
0011
0000
0100
0001
1100
0000
,
0001
0010
1001
0000
1000
0010
1001
0000
,
1010
0010
0011
0100
1100
0100
0101
0000
,
0010
1000
0110
0000
0010
0001
0110
0000
,
0000
0010
1010
0011
1010
0011
0100
0000
,
1010
1100
0101
1001
,
0010
1000
0100
0001
0010
1000
0001
0000
,
1000
0010
1100
0000
0001
0010
0101
0000
,
0000
0000
1000
0000
0001
0100
0110
0000
,
0001
0000
0000
0010
0000
0100
1000
0000
0000
0000
0001
0000
0110
0000
0000
0000
,
1000
0000
0000
0100
0000
0010
0001
0000
0000
0000
1000
0000
0110
0000
0000
0000
,
0001
0000
0010
0001
0000
1000
0100
0000
0001
0000
0010
0000
1000
0000
0000
0000
,
0000
0000
0010
0001
0010
1000
0001
0010
,
1000
0100
0000
0000
0010
0001
0000
0000
0000
0000
1000
0001
1000
0001
0000
0000
,
0000
0000
1000
0100
0001
0100
1000
0100
,
0000
0000
0001
0010
1000
0010
0001
0010
,
1100
0011
0100
1000
1100
0011
0010
0100
,
0010
0001
1000
0011
1010
0100
1100
0101
,
0000
0000
1000
0100
0001
0100
1000
0100
,
0000
0000
0001
0010
1000
1010
0110
0011
,
1001
0000
0000
0000
0000
0000
0000
0000
0000
0000
0001
0010
0000
0010
0000
0010
,
1000
0000
0000
0000
;

//---------------dance-single - ----------------
#NOTES:
     dance-single:
     :
     Challenge:
     8:
     :
0000
0000
0000
0000
,
0000
0000
0000
0000
,
0000
0000
0000
0000
,
0000
0000
0000
0000
,
0000
0000
0000
0000
0000
0000
0000
0000
0000
0000
0010
0001
1001
0000
0000
0000
,
0110
0000
0000
0000
0000
0000
0101
0000
1010
0000
0000
0000
1001
0000
0000
0010
,
0000
0001
0000
0100
1000
0000
0100
0000
0001
0000
0000
0000
1010
0000
0000
0000
,
0110
0000
0000
1100
0011
1000
1000
1000
,
0101
0000
0101
0000
1000
0010
0001
0010
,
0110
0000
0000
0000
0000
0000
1010
0000
0101
0000
0000
0000
1001
0000
0000
0100
,
0000
1000
0000
0010
0001
0000
0010
0000
1000
0000
0000
0000
0101
0000
0000
0000
,
0010
0000
0000
1000
0001
0010
1001
0100
,
1000
0000
1000
0000
0000
0010
0001
0100
,
1010
0100
0001
0000
1010
0100
0001
0010
,
0001
1000
0001
0010
0001
0100
0001
0000
,
0011
0100
1000
0000
0011
0100
1000
0001
,
0000
0100
1001
0010
1000
0001
0100
1000
,
0011
1000
0101
0001
1100
0000
0000
0000
,
0000
0100
0010
0001
1000
0100
0101
0000
,
0010
0100
1001
0000
0100
0010
1001
0100
,
0000
0000
0110
0000
1010
0000
0101
1000
,
0110
0000
0000
0000
0000
0000
1100
0000
0011
0000
0000
0000
1001
0000
0000
0010
,
0000
1000
0000
0100
0001
0000
0100
0000
1000
0000
0000
0000
0011
0000
0000
0000
,
0110
0000
0000
0101
1010
0001
0001
0001
,
1010
0000
1010
0000
0001
0010
1000
0010
,
1001
0000
0000
0000
0000
0000
0110
0000
1001
0000
0000
0000
1001
0000
0000
0010
,
0000
1000
0000
0100
0001
0000
0010
0000
1000
0000
0000
0000
0110
0000
0000
0000
,
1001
0000
0000
0110
1001
0001
0100
1000
,
0010
0010
0000
1100
,
0010
0001
0100
0001
0010
1000
0001
0100
,
0010
1000
0100
1000
0010
0001
1000
0100
,
0010
1001
0100
0011
1100
0010
0001
0000
,
0000
0010
1100
0010
0101
0010
1100
0000
,
0011
1000
1100
0001
0101
0000
0000
0000
,
0000
0010
0100
1000
0001
0010
1010
0000
,
0100
0010
1100
0000
0100
0010
0101
0000
,
0000
0000
1000
0001
0101
0010
1010
0100
,
0011
0000
0000
1000
0000
0100
1000
0000
0000
0000
0001
0000
1000
0000
0010
0100
,
0010
0000
0000
1001
0000
0001
1000
0000
0000
0000
0100
0000
0010
0000
1000
0001
,
0010
0001
0000
0010
0000
0100
1000
0000
0000
0000
0110
0000
1001
0000
0101
0000
,
0000
0000
1000
0100
0001
1000
0011
1010
,
0010
0100
0000
0000
0001
1000
0000
0000
0000
0000
0010
1000
0001
0100
0000
0000
,
0000
0000
0010
0100
0001
0010
1000
0110
,
0000
0000
0010
0100
1000
0010
1000
0001
,
1000
0001
1100
0011
0001
1000
0101
1010
,
0100
0001
0010
1000
0000
0011
0110
1100
,
0000
0000
0010
0001
1000
0100
0001
1010
,
0101
0010
0100
0010
1001
0110
1100
0011
,
1001
0000
0000
0000
0000
0000
0000
0000
0000
0000
0001
0010
0000
0100
0000
0001
,
1000
0000
0000
0000
;

//---------------dance-double - ----------------
#NOTES:
     dance-double:
     :
     Easy:
     5:
     :
00000000
00000000
00000000
00000000
,
00000000
00000000
00000000
00000000
,
00000000
00000000
00000000
00000000
,
00000000
00000000
00000000
00000000
,
00000000
00000000
00000000
00000000
,
00000010
00001001
00000010
00001001
,
00000100
00000000
00010000
00000000
10000000
00010000
00100000
00000000
,
01000000
10010000
01000000
10010000
,
00100000
00000000
00001000
00000000
00000010
00000001
00001000
00000000
,
00000001
00000110
00000001
00000110
,
00001000
00000000
00100000
00000000
10000000
00010000
01000000
00000000
,
10000000
01100000
10000000
01100000
,
00010000
00000000
00000100
00000000
00000001
00001000
00000010
00000000
,
00001000
00000000
00000001
00000000
,
00001000
00000100
00000001
00000110
,
00000100
00000000
00010000
00000000
,
00000000
00000000
10000000
00000000
00010000
00100000
10000000
00000000
,
10010000
01100000
10010000
00000000
,
00100000
01010000
00100000
11000000
,
00100000
00010000
10000000
01000000
,
00000000
00000000
00100000
00000000
00010000
00001000
00000100
00000000
,
00000001
00000010
00001000
00000110
,
00001000
00000000
00000001
00000000
00000010
00001000
00000100
00000000
,
00001000
00000100
00000001
00000110
,
00001000
00010000
00001000
00000000
10000000
00010000
10000000
00000000
,
01000000
00010000
10000000
01100000
,
00100000
00000000
01000000
00000000
10000000
00010000
00100000
00000000
,
01000000
10000000
00010000
01100000
,
00010000
00001000
00010000
00000000
00000001
00001000
00000001
00000000
,
00000010
00000000
00000100
00000000
,
00000001
00000000
00001000
00000000
00000010
00000001
00000100
00000000
,
00001000
00000000
10000000
00000000
,
00000000
00000000
10010000
00000000
00100000
10000000
00010000
00000000
,
01100000
10010000
01100000
00000000
,
01000000
00110000
01000000
10100000
,
01000000
00010000
10000000
00100000
,
00000000
00000000
01000000
00000000
00010000
00001000
00000010
00000000
,
00000100
00001000
00010000
00001000
,
00000100
00001000
00010000
01000000
,
00100000
00010000
00001000
00010000
,
00100000
00010000
00001000
00000100
,
00000110
00000000
00000000
00000000
00001001
00000000
00000000
00000000
00000000
00000000
00000001
00000010
00000001
00000010
00000000
00000000
,
00000000
00001000
00000000
00000001
,
00000000
00001000
00000010
00000001
,
00000100
00001000
00000010
00000000
00000001
00000100
00001000
00000000
,
00000010
00000000
00001000
00000000
00000000
00010000
01000000
00100000
,
00000000
10000000
00000000
00010000
,
00000000
00000000
10000000
00000000
00010000
00100000
10010000
00000000
,
00100000
00000000
00000000
00000000
00000000
00000000
00000000
00000000
00000000
00000000
10000000
00000000
00000000
10000000
00000000
00000000
,
00010000
00000000
00000000
00000000
;

//---------------dance-double - ----------------
#NOTES:
     dance-double:
     :
     Medium:
     8:
     :
00000000
00000000
00000000
00000000
,
00000000
00000000
00000000
00000000
,
00000000
00000000
00000000
00000000
,
00000000
00000000
00000000
00000000
,
00000000
00000000
00000000
01000100
,
00001000
00000001
00010000
10000000
,
00001000
00000100
00010000
01000000
,
00000010
00000001
00100000
10000000
,
00001000
00000000
00001000
00000000
00100000
00011000
00000010
00000000
,
00010000
10000000
00001000
00000001
,
00010000
01000000
00001000
00000100
,
00100000
10000000
00000010
00000001
,
00000110
00000000
00010100
00000000
01010000
10000000
00010000
00000000
,
00100000
00000000
00000000
00000000
00000000
00000000
00000000
00000000
10000000
00000000
01000000
00000000
00010000
00000000
00100000
00010000
,
00000000
00010000
00000000
00000000
10010000
00000000
01000000
00000000
10000000
00000000
00010000
00000000
01100000
00000000
00000000
00000000
,
00010000
00000000
10000000
00100000
00010000
00000000
00000100
00000000
,
00000000
00000000
00000011
00000000
00001100
00000010
00000100
00000000
,
00000101
00000000
00000000
00000000
00001010
00000000
00000000
00000000
00001001
00000000
00000010
00000000
00001000
00000000
00000000
00010000
,
00000000
00010000
00000000
00000000
00100000
00000000
10000000
00000000
01000000
00000000
00000000
00000000
01100000
00000000
00000000
00000000
,
00010000
10000000
00110000
00000000
10000000
00010000
11000000
00000000
,
00000000
00000000
01100000
00000000
00010000
00000100
00001000
00000000
,
00000010
00000001
00100000
10000000
,
00001000
00000001
00010000
10000000
,
00000100
00000010
01000000
00100000
,
01000000
00010000
00001000
00000000
00100000
00011000
00000010
00000000
,
00000100
00000010
01000000
00100000
,
00001000
00000001
00010000
10000000
,
00000010
00000001
00100000
10000000
,
00010000
00001000
00000010
00000000
00000001
00000100
00010000
00000000
,
00000010
00000000
00000000
00000000
00000000
00000000
00000000
00000000
00000001
00000000
00000100
00000000
00001000
00000000
00000010
00001000
,
00000000
00001000
00000000
00000000
00100000
00000000
10000000
00000000
01000000
00000000
00000000
00000000
01010000
00000000
00000000
00000000
,
00010000
00000000
10000000
01000000
00010000
00000000
00000010
00000000
,
00000000
00000000
00001001
00000000
00001100
00000001
00000100
00000000
,
00000011
00000000
00000000
00000000
00001100
00000000
00000000
00000000
00001001
00000000
00000010
00000000
00000100
00000000
00000000
00001000
,
00000000
00001000
00000000
00000000
01000000
00000000
10000000
00000000
00100000
00000000
00000000
00000000
10010000
00000000
00000000
00000000
,
00100000
01000000
10010000
00000000
00100000
01000000
10010000
00000000
,
00000000
00000000
10000000
00000000
00100000
00010000
00001000
00000000
,
00000001
00000000
00000000
00000000
00000000
00001000
00000011
00000001
,
00001100
00000000
00000000
00000000
00000000
00000001
00001010
00001000
,
00011000
00000000
00000000
00000000
00000000
10000000
00110000
00010000
,
11000000
00100000
00001000
00000010
,
00001001
00000000
00000000
00000000
00000110
00000000
00000000
00000000
00000000
00000000
00000001
00001000
00000001
00001000
00000000
00000000
,
00000000
01000000
00001000
00000100
,
00010000
01000000
00001000
00000100
,
00000010
00001000
00010000
00000000
00100000
00010000
00001000
00000000
,
00000001
00001000
00010000
00000000
00000000
10000000
00010000
00001000
,
00000000
00000001
00100000
10000000
,
00000010
00000001
00100000
10010000
,
01100000
00000000
00000000
00000000
00000000
00000000
00000000
00000000
00000000
00000000
10000000
01000000
00000000
00010000
00000000
00001000
,
00010000
00000000
00000000
00000000
;

//---------------dance-double - ----------------
#NOTES:
     dance-double:
     :
     Hard:
     8:
     :
00000000
00000000
00000000
00000000
,
00000000
00000000
00000000
00000000
,
00000000
00000000
00000000
00000000
,
00000000
00000000
00000000
00000000
,
00000000
00000000
00000000
00010100
,
00001000
00000000
00000000
00000000
00100000
00000000
00010000
00000000
00000100
00000000
00000000
00000000
00011000
00000000
00000000
00010000
,
00000000
00100000
00000000
10000000
00010000
00000000
01000000
00000000
01000000
00000000
00000000
00000000
10010000
00000000
00000000
00000000
,
00010000
00000000
00000010
00001000
01000000
00000000
00011000
00000000
,
00000010
00000001
00000100
00001000
00000100
00000001
00000010
00000000
,
00010000
00000000
00000000
00000000
01000000
00000000
00010000
00000000
00000010
00000000
00000000
00000000
00011000
00000000
00000000
00001000
,
00000000
00000100
00000000
00000001
00001000
00000000
00000010
00000000
00000010
00000000
00000000
00000000
00001001
00000000
00000000
00000000
,
00000010
00010100
00010000
01001000
,
00100000
10000000
00010000
01000000
00100000
00010000
10000000
00000000
,
01100000
00010000
00001000
00000000
01100000
00010000
00001000
00000000
,
10000000
00010000
00001000
00000001
00000010
00000100
00001001
00000000
,
00000110
00001000
00010000
00000000
00000110
00001000
00010000
00000000
,
00000000
00000100
00010000
00001000
00100000
00000000
11000000
00000000
,
10010000
01100000
00011000
00000000
,
00001000
00000010
00001001
00000100
00000001
00000010
00001001
00000000
,
00000100
00000001
00000100
00000001
00001000
00000100
00001000
00000100
,
00010000
00000000
00100000
01010000
10100000
01000000
00110000
00000000
,
00010000
00000000
00000000
00000000
10000000
00000000
00100000
00000000
00001000
00000000
00000000
00000000
00000110
00000000
00000000
00000001
,
00000000
00000001
00000000
00000001
00001000
00000010
00000000
00000000
00000100
00000000
00000000
00000000
00010100
00000000
00000000
00000000
,
00001000
00000000
00000001
00000100
00010000
00000000
01100000
00000000
,
10000000
00100000
00010000
00100000
10000000
01000000
00010000
00000000
,
00100000
00000000
00000000
00000000
01100000
00000000
00010000
00000000
00010000
00000000
00000000
00000000
00011000
00000000
00000000
00000010
,
00000000
00000010
00000000
00000010
00000100
00000000
00001000
00000000
00000100
00000000
00000001
00000000
00000110
00000000
00000000
00000000
,
00000100
00000000
00000110
00000000
00001000
00001000
00011000
00000000
,
10010000
01000000
00001000
00000000
00001001
00000100
00010000
00000000
,
00100000
00001000
00000100
00000000
00000010
00010000
01000000
00000000
,
10000000
00100000
01000000
00010000
00001000
00000010
00001001
00000000
,
00000100
00010000
00100000
00000000
01000000
00001000
00000100
00000000
,
00000000
00000001
00001000
00010000
00001000
00100000
00010000
01000000
,
10100000
00011000
00000101
00000000
,
00001000
00010000
00100000
00001000
00010000
00001000
00000100
00000000
,
00000010
00001000
00001010
00000000
00000100
00000001
00000101
00000000
,
00000000
00000101
00011000
10100000
,
00010000
00000000
00000000
00100000
00000000
01000000
10000000
00000000
00000000
00000000
00010000
00000000
01100000
00000000
00010000
00000000
,
10000000
00000000
00000000
01000000
00000000
00100000
00010000
00000000
00000000
00000000
10000000
00000000
01100000
00000000
00010000
00000000
,
10000000
00010000
00100000
01000000
00001000
00010000
00000100
00000010
,
00000000
00000000
00000001
00001000
00000110
00001001
00000010
00001000
,
00000001
00000100
00000000
00000000
00000010
00001000
00000000
00000000
00000000
00000000
00010000
00001000
00010000
00001000
00000000
00000000
,
00000000
00000000
00000010
00001000
00010000
00001000
00000010
00000100
,
00000000
00000000
00000100
00001000
00010000
00001000
00000100
00000110
,
00000001
00000100
00000010
00001000
00010000
01000000
00100000
10000000
,
10010000
00100000
00010000
10000000
00000000
10000000
01100000
00010000
,
00000000
00000000
01000000
00100000
00010000
00001000
01010000
11000000
,
00000000
00100000
00001000
00000100
00000001
00000010
00010000
01000000
,
10000000
00000000
00000000
00000000
00000000
00000000
00000000
00000000
00000000
00000000
10000000
00100000
00000000
01000000
00000000
00010000
,
00001000
00000000
00000000
00000000
;

//---------------dance-couple - ----------------
#NOTES:
     dance-couple:
     :
     Easy:
     4:
     :
00000000
00000000
00000000
00000000
,
00000000
00000000
00000000
00000000
,
00000000
00000000
00000000
00000000
,
00000000
00000000
00000000
00000000
,
00000000
00000000
00000000
00000000
,
00100100
10011001
00100100
10011001
,
01000010
00000000
10000001
00000000
00011000
00100100
00011000
00000000
,
01000010
10011001
01000010
10011001
,
00011000
10000001
10000001
00011000
,
00011000
01100110
00011000
01100110
,
10000001
00000000
01000010
00000000
00011000
00100100
00011000
00000000
,
10000001
01100110
10000001
01100110
,
00011000
00010001
00010001
10001000
,
00000000
00010001
00000000
00010001
,
00000000
00000000
01000100
00000000
00000000
10001000
00010001
00000000
,
00000000
00100100
00000000
00100100
,
00000000
00011000
10000001
00000000
00100100
01000010
00011000
00000000
,
10011001
01100000
00000110
00000000
,
00000000
00010000
10000000
00000000
00000000
00000001
00001000
00000000
,
00010001
10001000
10001000
00010001
,
00000000
00000000
00100010
00000000
00011000
10000001
01000100
00000000
,
00011000
00100010
00011000
01100110
,
10000001
00000000
01000010
00000000
10000001
00100100
01000010
00000000
,
10001000
00010001
00010001
10001000
,
10000001
00000000
00011000
00000000
10000001
00011000
10000001
00000000
,
00100010
10001000
00100010
10011001
,
01000100
00000000
00010001
00000000
01000100
00010001
10001000
00000000
,
00010001
10001000
10001000
00010001
,
00001000
00000100
00000001
00000000
00010000
00100000
10000000
00000000
,
00000000
10001000
10001000
10001000
,
00000000
00000010
00000100
00000000
00000000
00100000
01000000
00000000
,
00000000
01000010
01000010
01000010
,
00000000
00000000
00011000
00000000
01000010
10000001
00011000
00000000
,
01100110
00001001
10010000
00000000
,
00000000
00000001
00000100
00000000
00000000
00010000
01000000
00000000
,
00010001
10001000
10001000
00010001
,
00000000
00000000
00011000
00000000
10000001
01000010
00100100
00000000
,
00011000
00000000
00000000
00000000
00000000
01000010
00100100
00000000
,
00011000
00000000
00000000
00000000
00000000
01000010
00100100
00000000
,
10000001
00000000
00000000
00000000
00000000
01000010
00100100
01000010
,
00000000
00010001
10001000
00010001
,
00000110
00000000
10010000
00000000
00000000
00100100
00100100
00000000
,
00000000
00000001
00000010
00001000
,
00000000
00010000
00100000
10000000
,
00000000
10001000
01000100
00010001
,
00000000
00010001
00000000
10001000
,
00000000
00011000
00100100
10000001
,
00000000
00000000
10000001
00000000
01000010
00011000
00100100
01000010
,
10000001
00000000
00000000
00000000
00000000
00000000
00000000
00000000
00000000
00000000
00100010
00000000
00000000
00100010
00000000
00000000
,
00100010
00000000
00000000
00000000
;

//---------------dance-couple - ----------------
#NOTES:
     dance-couple:
     :
     Medium:
     7:
     :
00000000
00000000
00000000
00000000
,
00000000
00000000
00000000
00000000
,
00000000
00000000
00000000
00000000
,
00000000
00000000
00000000
00000000
,
00000000
00000000
00000000
00000000
,
00100010
00000000
10011001
01000100
00100010
00000000
10011001
00000000
,
00100010
00000000
10000010
00000000
00010010
01000000
10000010
00000000
,
01000100
00000000
10011001
00100010
01000100
00000000
10011001
00000000
,
01000100
00000000
01000001
00000000
01001000
00000010
01000001
00000100
,
10001000
00000000
00110011
00010001
01000100
00000000
10011001
00000000
,
10000010
00000000
10000001
00000000
10001000
00000100
10001001
00000000
,
00010001
00000000
11001100
10001000
00100010
00000000
10011001
00000000
,
01000001
00000000
10000001
00000000
00100001
10000000
01100001
00000000
,
00100100
00000000
00000000
00000000
10000001
00011000
10000001
00100100
,
01000010
00000000
00000000
00000000
00011000
10000001
00011000
01000010
,
10000001
00100100
00000000
00000000
00011000
00100100
00000000
00000000
,
00000000
00010001
00100010
01000100
10001000
00000000
01100110
00000000
,
10101010
00000000
01010101
00000000
10000010
00010100
01101001
00000000
,
10000010
00010100
01101001
00000000
00011000
00000000
00100100
00000000
,
00011000
10000001
01000010
00011000
10000001
00000000
00011000
00000000
,
00000000
00000000
10011001
00000000
00100010
01000100
11000101
00000000
,
10000001
00000000
10100011
01000100
00100010
00000000
01011100
00000000
,
10000001
00000000
00011000
00000000
10100011
01000100
00011000
00000000
,
00011000
00000000
01011000
00100000
01001000
00000000
10101000
00000000
,
00010100
00000001
00010010
00001000
00010100
00000001
00011000
00000010
,
10000001
00000000
10011001
00100010
01000100
00000000
00111010
00000000
,
10000001
00000000
00100010
00000000
00111010
01000100
10000001
00000000
,
00011000
00000000
01101000
10000000
00011000
00000000
11001000
00000000
,
00011000
00000000
00010110
00000000
00010001
00001000
00010101
00000000
,
00010001
10001000
00010001
00000000
00100010
01000100
00100010
00000000
,
10001000
00010001
10001000
00000000
01000100
00100010
01000100
00000000
,
00011000
00100100
10000001
00100100
,
00000000
01000010
00011000
01000010
10000001
01000010
00011000
00000000
,
01010101
00000000
10101010
00000000
01000001
00101000
10010110
00000000
,
01000001
00101000
10010110
00000000
00010001
00000000
00100010
00000000
,
10001000
01000100
00010001
10001000
00100010
00000000
10011001
00000000
,
00000000
00000000
01100110
00000000
01000010
10100101
00111100
00000000
,
00100100
00000000
00000000
00011000
00000000
00000000
00011000
00000000
00000000
00000000
01000010
00000000
10100101
00000000
00000000
00000000
,
01000010
00000000
00000000
10000001
00000000
00000000
10000001
00000000
00000000
00000000
00100100
00000000
01011010
00000000
00000000
00000000
,
00011000
00100100
10000001
01000010
,
00000000
10001000
01000100
00010001
00100010
10001000
01000100
00000000
,
10101010
00000000
00000000
00000000
01010101
00000000
00000000
00000000
00000000
00000000
10000001
01000100
10000001
01000100
00000000
00000000
,
00000000
00000000
10100000
00000000
00010000
01000000
00100000
00000000
,
00000000
00000000
00000101
00000000
00001000
00000100
00000010
00000000
,
00011000
00100010
10000001
01000100
00011000
00100010
10000001
00000000
,
00000000
00000000
00100010
00000000
10001000
00010001
00100010
01000100
,
00000000
00000000
00000100
00000000
00000001
00001000
00000100
00000010
,
10000000
00010000
01000000
10000000
00010000
00000000
11001100
01010101
,
00100010
00000000
00000000
00000000
00000000
00000000
00000000
00000000
00000000
00000000
10000001
01000010
00000000
00100100
00000000
00011000
,
10000001
00000000
00000000
00000000
;

//---------------dance-couple - ----------------
#NOTES:
     dance-couple:
     :
     Hard:
     8:
     :
00000000
00000000
00000000
00000000
,
00000000
00000000
00000000
00000000
,
00000000
00000000
00000000
00000000
,
00000000
00000000
00000000
00000000
,
00000000
00000000
00000000
01101001
,
10000001
00000000
00000000
00000000
10100011
00000000
00011000
00000000
00011000
00000000
00000000
00000000
00111010
00000000
00000000
10000001
,
00000000
10000001
00000000
10000001
00011000
00000000
01000100
00000000
01000100
00000000
00000000
00000000
10010110
00000000
00000000
00000000
,
00011000
00000000
00111010
10000001
10000001
00000000
10100011
00000000
,
00010001
01000100
10001000
01000100
00010001
01000100
10001000
00000000
,
00011000
00000000
00000000
00000000
00111010
00000000
10000001
00000000
10000001
00000000
00000000
00000000
11000101
00000000
00000000
00011000
,
00000000
00011000
00000000
00011000
10000001
00000000
01000100
00000000
01000100
00000000
00000000
00000000
01101001
00000000
00000000
00000000
,
10000001
00000000
11000101
00011000
00011000
00000000
01011100
00000000
,
10100110
00000000
01101010
00000000
10000001
00011000
11000101
00000000
,
00010000
00100000
10000000
00000000
00001000
00000100
00000001
00000000
,
00010001
10001000
00010001
01000100
00100010
00000000
00110011
00000000
,
00000100
00001000
00000010
00000000
00100000
00010000
01000000
00000000
,
00000000
00100010
01000100
00010001
10001000
00010001
01000100
00000000
,
11000011
10100101
00111100
10011001
,
00100010
01000100
01010101
00000000
00100010
01000100
11001100
00000000
,
00010001
00100010
10101010
00010001
01000100
10001000
01000100
01010101
,
00000000
00000000
10010110
00000000
11000011
01011010
01101001
00000000
,
10000001
00000000
00000000
00000000
11000101
00000000
00011000
00000000
00011000
00000000
00000000
00000000
01011100
00000000
00000000
00100010
,
00000000
00100010
00000000
00100010
01000100
00000000
10000001
00000000
00011000
00000000
00000000
00000000
10010110
00000000
00000000
00000000
,
10001000
00000000
10101010
00010001
00010001
00000000
00110011
00000000
,
10001000
00100010
00010001
00100010
10001000
01000100
00010001
00000000
,
00011000
00000000
00000000
00000000
00111010
00000000
10000001
00000000
10000001
00000000
00000000
00000000
10100011
00000000
00000000
01000100
,
00000000
01000100
00000000
01000100
00100010
00000000
00011000
00000000
10000001
00000000
00000000
00000000
01101001
00000000
00000000
00000000
,
00010001
00000000
01010101
10001000
10001000
00000000
11001100
00000000
,
10011001
00000000
00110011
00000000
01000100
00010001
11001100
00000000
,
00001001
00000110
00001001
00000000
10010000
01100000
10010000
00000000
,
10101010
00100010
00110011
01000100
11001100
01000100
01010101
00000000
,
01100000
10010000
01100000
00000000
00000110
00001001
00000110
00000000
,
00000000
00100010
10101010
00110011
10101010
00110011
01000100
00000000
,
10100101
11000011
01011010
10010110
,
00100100
10000001
01000010
00011000
00100100
10000001
00011000
00000000
,
10000001
00100010
11000101
00000000
00011000
00100010
01011100
00000000
,
00000000
00000000
10001000
00000000
00010001
01000100
01100110
00000000
,
00010000
00000000
00000000
00100000
00000000
01000000
10000000
00000000
00000000
00000000
00010001
00000000
01100110
00000000
00000000
00000000
,
00001000
00000000
00000000
00000100
00000000
00000010
00000001
00000000
00000000
00000000
10001000
00000000
01100110
00000000
00000000
00000000
,
00010001
00000000
00100010
00010001
00000000
10001000
01000100
00000000
00010001
00000000
00100010
00000000
10001000
00000000
00000000
00000000
,
00000000
00000000
00100100
00011000
00100100
10000001
00011000
00100100
,
10000001
01000010
00000000
00000000
00100100
00011000
00000000
00000000
00000000
00000000
10000001
00011000
10000001
00011000
00000000
00000000
,
00000000
00000000
10001000
01000100
00010001
01000100
10001000
01000100
,
00000000
00000000
00010001
00100010
10001000
00100010
00010001
00100010
,
00111100
11000011
00100100
00011000
00111100
11000011
01000010
00100100
,
01000010
10000001
00011000
11000011
01011010
00100100
00111100
10100101
,
00000000
00000000
10001000
01000100
00010001
01000100
10001000
01000100
,
00000000
00000000
10000001
01000010
00011000
01011010
10010110
11000011
,
01101001
00000000
00000000
00000000
00000000
00000000
00000000
00000000
00000000
00000000
00010001
00100010
00000000
00100010
00000000
00100010
,
10001000
00000000
00000000
00000000
;
