#TITLE:決戦は金曜日;
#ARTIST:DREAMS COME TRUE;
#TITLETRANSLIT:KESSEN WA KINYOUBI;
#BANNER:KESSEN WA KINYOUBI.png;
#BACKGROUND:KESSEN WA KINYOUBI-bg.png;
#CDTITLE:cdtitle.png;
#MUSIC:KESSEN WA KINYOUBI.ogg;
#SAMPLESTART:64.56;
#SAMPLELENGTH:15;
#BPMS:0=125;

//---------------dance-single - ----------------
#NOTES:
     dance-single:
     :
     Easy:
     2:
     :
0000
0000
0000
0000
,
0000
0000
0000
0000
,
0000
0000
0000
0000
,
0000
0000
0000
0000
,
0000
0000
0000
0000
,
0000
0000
0000
0000
,
0000
0000
0000
0000
,
0000
1000
0000
0001
,
0000
1000
0000
0001
,
0000
1000
0000
0001
,
0000
0010
0010
0010
,
0000
0001
0000
1000
,
0000
0001
0000
1000
,
0000
0001
0000
1000
,
0000
0100
0100
0000
,
1000
1000
0001
0001
,
1000
1000
0001
0001
,
0010
0010
0100
0100
,
1000
1000
0001
0000
,
0001
0010
1000
1000
,
0001
1000
0001
0000
,
0001
0001
0010
0010
,
1000
1000
1000
0000
,
0000
0010
0000
0010
,
0000
0100
0000
0100
,
0000
0010
0001
0010
,
0000
0100
1000
0100
,
0000
0010
0010
0010
,
0000
0100
0100
0100
,
0000
1000
0000
0001
,
0000
1000
0000
0001
,
0000
0010
0000
0010
,
0000
0010
0010
0010
,
0100
0100
0100
0100
0100
0000
0000
0000
,
0001
0010
1000
1000
,
0001
0010
1000
1000
,
0000
0010
0010
0010
,
0000
0100
0100
0100
,
1000
0010
0001
0001
,
1000
0010
0001
0001
,
0000
0010
0010
0010
,
0000
0100
0100
0100
,
0001
0100
1000
0100
,
0001
0100
1000
0100
,
0001
0001
0001
0000
0000
0000
0001
0000
,
1000
1000
1000
0000
0000
0000
1000
0000
,
0001
0100
1000
0100
,
0001
0100
1000
0100
,
0001
0001
0010
0010
,
1000
1000
0100
0100
,
0001
0000
0001
0000
,
1000
0000
1000
0000
;

//---------------dance-single - ----------------
#NOTES:
     dance-single:
     :
     Medium:
     5:
     :
0000
0000
0000
0000
,
0000
0000
0000
0000
,
0000
0000
0000
0000
,
0000
0000
0000
0000
,
0000
0000
0000
0000
,
0000
0000
0000
0000
,
0000
0000
0010
0000
0100
1000
0001
0000
,
0010
0000
1000
0000
0001
0010
1000
0000
,
0010
0000
1000
0000
0001
0010
1000
0000
,
0010
1000
0100
0001
,
0001
0000
0000
0000
0001
0100
1000
0000
,
0010
0000
0001
0000
1000
0010
0001
0000
,
0010
0000
0001
0000
1000
0010
0001
0000
,
0010
0001
0100
1000
,
0001
0000
0000
0000
1000
0010
0100
0000
,
0010
1000
0100
0001
,
0010
0000
1000
0000
1000
0100
0010
0000
,
0100
1000
0010
0001
,
0100
0000
1000
0000
0001
0100
0010
0000
,
0100
0000
0001
0000
0100
1000
0001
0000
,
0100
0000
1000
0000
0100
0001
1000
0000
,
1000
0100
0001
0000
0010
0100
1000
0000
,
0001
0010
1000
0100
0001
1000
0010
0000
,
0001
0100
1000
0100
,
0001
0100
1000
0100
,
0001
0010
0001
0000
1000
0010
1000
0000
,
0001
0100
0001
0000
1000
0100
1000
0000
,
0001
0010
1000
0010
,
0001
0010
1000
0010
,
0010
1000
0100
0000
0010
0001
0100
0000
,
1000
0100
0010
0000
0001
0100
0010
0000
,
0100
1000
0100
0000
0001
0100
0001
0000
,
0010
1000
0010
0000
0001
0010
0001
0000
,
0010
1000
0001
1000
0100
0000
1001
0000
,
0010
0001
0100
1000
,
0010
0001
0100
1000
,
0001
0010
0010
0000
1000
0010
0001
0000
,
1000
0000
1000
0000
0010
0100
0001
0000
,
0010
1000
0100
0001
,
0010
1000
0100
0001
,
0010
0100
0010
0000
0001
0100
1000
0000
,
0010
0001
0100
1000
0001
0100
0001
0000
,
0010
0001
0100
0000
0010
1000
0100
0000
,
0001
1000
0100
0000
0001
1000
0010
0000
,
0001
0010
1000
0000
1000
0000
1000
0100
,
1000
0010
0001
0000
0001
0000
0001
0000
,
0100
1000
0010
0000
0100
0001
0010
0000
,
1000
0100
0001
0000
1000
0010
0001
0000
,
0010
1000
0001
0100
,
0010
1000
0001
1000
0100
0001
1000
0000
;

//---------------dance-single - ----------------
#NOTES:
     dance-single:
     :
     Hard:
     6:
     :
0000
0000
0000
0000
,
0000
0000
0000
0000
,
0000
0000
0000
0000
,
0000
0000
0000
0000
,
0000
0000
0000
0000
,
0000
0000
0000
0000
,
0000
0000
0000
0000
0000
0100
0010
0001
,
1000
0100
1001
0000
0001
0100
1100
0000
,
1000
0100
1001
0000
0001
0100
1100
0000
,
0010
0001
0010
1000
0001
0100
0010
0000
,
0100
1000
0100
0001
1000
0010
0010
0000
,
0001
0100
1001
0000
1000
0100
0101
0000
,
0001
0100
1001
0000
1000
0100
0101
0000
,
1000
0010
1000
0100
0010
0001
1000
0100
,
0001
0010
0001
0100
0010
1000
0001
0000
,
0010
0100
1001
0000
0001
0010
1100
0000
,
0010
0100
1001
0000
0010
0100
0101
0000
,
1010
1001
0101
0110
,
1000
0001
1000
0010
0001
1000
0001
0000
,
0010
1000
0100
0001
0010
1000
1001
0000
,
0010
0001
0100
1000
0010
0001
0110
0000
,
0001
0010
1000
0010
0001
0001
1000
1000
,
0001
0100
1000
0100
0001
1000
0010
0000
,
0001
0100
0010
0100
0001
0100
0010
0000
,
1000
0010
0100
0010
1000
0010
0100
0000
,
0001
0100
1000
0010
1000
0010
1000
0000
,
1000
0010
0001
0100
0001
0100
0001
0000
,
0001
0100
1000
0000
1000
0100
0001
0000
,
0001
0100
1000
0000
1000
0001
0100
0001
,
0010
1000
0100
0001
0010
1000
0100
0000
,
0010
0001
0100
1000
0010
0001
0100
0000
,
1000
0010
0010
0000
0100
0001
0001
0000
,
0010
1000
0010
0100
0010
0001
0010
1000
,
0100
0100
0001
0010
0010
1000
0001
0000
,
0010
0100
1100
0000
1000
0001
0100
0000
,
0010
0100
0101
0000
0001
1000
0100
0000
,
0001
0001
0100
0100
1000
0100
0001
0000
,
1000
1000
0010
0010
0001
0100
1000
0000
,
0010
0001
1100
0000
0001
0010
0001
0000
,
0010
1000
0101
0000
0001
0010
0001
0000
,
0001
0001
1000
0100
1000
0100
0001
0010
,
1000
1000
0001
0100
0001
0100
1000
0000
,
0010
0001
0100
0001
0010
1000
0100
1000
,
0010
0001
0100
0001
0010
1000
0010
1000
,
0001
0100
1000
0001
0010
1000
0001
0100
,
0001
0010
0001
0010
1000
0100
0001
0000
,
0100
1000
0010
1000
0100
0001
0010
0001
,
0100
1000
0010
1000
0100
0001
0010
0000
,
0100
0010
1001
0000
0001
1000
0110
0000
,
1000
0001
0010
1000
0001
0100
0110
0000
;

//---------------dance-single - ----------------
#NOTES:
     dance-single:
     :
     Challenge:
     8:
     :
0000
0000
0000
0000
,
0000
0000
0000
0000
,
0000
0000
0000
0000
,
0000
0000
0000
0000
,
0000
0000
0000
0000
,
0000
0000
0000
0000
,
0000
0010
0001
0100
1000
0100
1001
0000
,
0000
0001
0100
0010
0000
1000
0100
0010
,
0000
0001
0100
0010
0000
1000
0100
0010
,
0001
0100
1100
0000
1000
0010
0101
0000
,
0000
1000
0100
1000
1001
0010
0100
0001
,
0000
1000
0010
0100
0000
0001
0010
0100
,
0000
1000
0010
0100
0000
0001
0010
0100
,
1000
0100
0010
0001
1000
0100
1001
0000
,
0001
0100
0010
1000
0001
0010
1001
0000
,
0000
0010
0100
1000
0000
0011
0000
0110
,
0000
0100
0010
0001
0000
1100
0000
0110
,
0000
0001
1010
0000
0000
1000
0101
0000
,
0010
0100
1001
0100
0001
0100
1010
0000
,
0001
0100
0010
0100
1000
0100
1000
0001
,
0010
0001
0010
0100
1000
0100
0001
0000
,
0000
0000
0010
0100
1100
0010
0001
0110
,
1000
0100
0001
0100
1100
0101
0010
0000
,
0100
1000
1010
0100
0010
1000
0001
0000
,
0100
0001
0011
0100
0010
0001
1000
0000
,
0000
0001
1001
0100
0000
1000
1001
0100
,
0000
1000
0001
0100
0110
0001
1000
0000
,
0000
0001
0001
0001
0000
1000
1000
1000
,
0000
0010
1000
0100
0101
1000
1100
0001
,
0000
0010
0101
0010
1100
0010
0001
0100
,
0000
0010
1100
0010
0101
0010
1000
0100
,
0010
0001
0010
0001
0110
1000
0010
1000
,
0001
0100
0100
0001
1000
0100
0100
1000
,
0010
0100
0010
0100
0010
0100
0010
0100
0010
0000
0000
0000
1001
0000
0000
0000
,
0110
1000
0100
0001
0010
1000
0001
0100
,
0010
0001
0100
1000
0010
0001
1000
0100
,
0000
1000
0100
0001
0100
1000
0010
0001
,
0000
0001
0010
1000
0010
0001
1000
0000
,
0110
0001
1000
0010
0100
1000
0001
0010
,
0001
0000
0100
0000
1000
0000
0000
0000
0001
0010
0001
0000
0000
0000
0000
0000
,
0000
0000
0000
0000
0100
0000
0100
0000
0010
0000
0000
0011
0000
0000
1010
0000
,
0010
0000
1100
0101
0010
0100
1001
0000
,
0010
0001
0100
1000
0001
0010
1001
0000
,
0010
1000
0100
0001
1000
0010
1001
0100
,
0001
0100
0001
0100
1000
0100
0011
1100
,
0000
0000
1001
0110
0000
0001
0100
0001
,
0010
0100
0001
1000
0010
0100
1001
0000
,
0100
0010
1000
0001
0100
0010
1001
0000
,
0000
1001
0001
0100
0000
1001
1000
0010
,
0000
0110
0001
0010
1100
0010
0101
0000
;

//---------------dance-double - ----------------
#NOTES:
     dance-double:
     :
     Easy:
     3:
     :
00000000
00000000
00000000
00000000
,
00000000
00000000
00000000
00000000
,
00000000
00000000
00000000
00000000
,
00000000
00000000
00000000
00000000
,
00000000
00000000
00000000
00000000
,
00000000
00000000
00000000
00000000
,
00000000
00000000
00000000
00000000
,
00001000
00010000
01000000
10000000
,
00010000
00001000
00000100
00000001
,
00001000
00010000
01000000
10000000
,
00010000
00001000
01000000
10000000
,
00010000
00001000
00000100
00000001
,
00001000
00010000
01000000
10000000
,
00010000
00001000
00000010
00000001
,
00001000
00010000
00000010
00000001
,
00001000
00010000
10000000
00100000
,
00010000
00001000
00000001
00000010
,
00001000
00010000
10000000
00100000
,
10000000
01000000
00010000
00000000
00001000
00000100
00000001
00000000
,
00001000
00010000
10000000
01000000
,
00010000
00001000
00000001
00000100
,
00000001
00000010
00001000
00000000
00010000
00100000
10000000
00000000
,
01000000
00000000
00010000
00000000
00100000
00010000
10000000
00100000
,
00010000
01000000
10000000
01000000
,
00010000
01000000
10000000
00100000
,
00010000
00001000
00000001
00001000
,
00010000
00100000
10000000
00010000
,
00001000
00000100
00000001
00000100
,
00001000
00000010
00000001
00001000
,
00010000
00001000
00000010
00000001
,
00001000
00100000
10000000
00010000
,
00001000
00010000
00100000
10000000
,
01000000
00010000
00001000
00000100
,
00001000
00000010
00000100
00001000
00000001
00000010
00000100
00000000
,
00000010
00001000
00010000
00000100
,
00000010
00001000
00010000
00000100
,
00000010
00000001
00000100
00001000
,
00100000
00000000
10000000
00000000
00010000
01000000
10000000
00000000
,
00100000
00010000
00001000
01000000
,
00100000
00010000
00001000
01000000
,
00100000
10000000
01000000
00010000
,
00001000
00000100
00000001
00000010
00000001
00000100
00001000
00000000
,
00000001
00000010
00001000
00000100
,
00000001
00000000
00000010
00000000
00001000
00000000
00000100
00001000
,
00010000
01000000
00100000
00000000
00010000
01000000
00100000
00000000
,
10000000
01000000
00100000
00000000
00010000
00000000
00001000
00000000
,
00000001
00000010
00001000
00000100
,
00000001
00000010
00001000
00000100
,
00000001
00000010
00001000
00000000
00010000
01000000
10000000
00000000
,
00100000
00000000
00010000
00000000
10000000
01000000
00010000
00100000
,
10000000
00000000
00000000
00000000
;

//---------------dance-double - ----------------
#NOTES:
     dance-double:
     :
     Medium:
     5:
     :
00000000
00000000
00000000
00000000
,
00000000
00000000
00000000
00000000
,
00000000
00000000
00000000
00000000
,
00000000
00000000
00000000
00000000
,
00000000
00000000
00000000
00000000
,
00000000
00000000
00000000
00000000
,
00010000
00000000
00010000
00000000
00010000
00001000
00010000
00000000
,
00100000
00001000
00000010
00010000
,
01000000
00001000
00000100
00000001
,
00000010
00000000
00000010
00000000
00000010
00001000
00000001
00000000
,
00001000
00000010
00010000
00001000
00000100
00010000
00001000
00000000
,
00000010
00010000
00100000
00001000
,
00000100
00010000
01000000
10000000
,
00100000
00010000
00100000
00000000
00100000
10000000
00100000
00000000
,
00010000
01000000
10000000
01000000
00010000
01000000
00100000
00000000
,
00010000
00000000
00001000
00000000
00000010
00000010
00000010
00000000
,
00001000
00000000
00010000
00000000
00100000
00100000
00100000
00000000
,
00010000
01000000
00001000
00010000
00100000
00001000
00010000
00000000
,
10000000
00010000
00001000
00000001
,
00001000
00000000
00010000
00000000
10000000
00010000
01100000
00000000
,
00010000
00000000
00001000
00000000
00000001
00001000
00000110
00000000
,
00001000
00010000
00100000
00000000
00001000
00010000
00100000
00000000
,
00001000
01000000
00010000
00001000
00000100
00010000
00001000
00000000
,
00100000
10000000
00100000
00000000
00100000
01000000
00001000
00000000
,
00010000
00001000
00000100
00001000
00010000
00100000
00010000
00000000
,
10000000
01000000
10000000
00000000
01000000
00100000
00001000
00000000
,
00000100
00000001
00000010
00000001
00000100
00001000
00010000
00000000
,
00000010
00000001
00001000
00000100
00000001
00001000
00010000
00000000
,
00001000
00010000
01000000
00010000
00001000
00000100
00000001
00000000
,
00000001
00000010
00001000
00000000
00000001
00000100
00010000
00000000
,
10000000
00100000
00010000
00000000
10000000
01000000
00001000
00000000
,
00000010
00001000
00100000
00010000
,
00000010
00000000
00001000
00000000
00100000
00010000
00001000
00000100
,
00000001
00000010
00001000
00000000
00110000
00000000
00001010
00000000
,
00010000
00000000
01000000
00000000
00100000
00100000
00010000
00000000
,
00001000
00000000
00000100
00000000
00000010
00000010
00001000
00000000
,
00010000
00000000
10000000
00000000
01000000
00100000
00010000
00000000
,
00001000
00000000
00000001
00000010
00000100
00000000
00001000
00000000
,
00010000
00000000
10000000
00000000
01000000
01000000
00010000
00000000
,
00001000
00000000
00000001
00000000
00000100
00000100
00001000
00000000
,
00100000
00010000
00001000
00010000
00100000
00010000
00001000
00000000
,
00000010
00001000
00010000
00001000
00000010
00001000
00010000
00000000
,
00000001
00000000
00001000
00000000
00010000
01000000
10000000
00000000
,
10000000
00000000
00010000
00000000
00001000
00000010
00000001
00000000
,
00000010
00001000
00010000
00001000
00000100
00001000
00010000
00000000
,
00100000
00010000
00001000
00010000
01000000
00010000
00001000
00000000
,
00100000
10000000
00010000
00000000
00001000
00010000
00000010
00000000
,
00000100
00000001
00001000
00000000
00010000
00001000
00100000
00000000
,
01000000
00010000
00100000
00000000
00000010
00001000
00000100
00000000
,
00010000
00001000
00010000
00100000
00001000
00000100
00010000
00000000
;

//---------------dance-double - ----------------
#NOTES:
     dance-double:
     :
     Hard:
     8:
     :
00000000
00000000
00000000
00000000
,
00000000
00000000
00000000
00000000
,
00000000
00000000
00000000
00000000
,
00000000
00000000
00000000
00000000
,
00000000
00000000
00000000
00000000
,
00000000
00000000
00000000
00000000
,
00000000
00000000
01010000
00000000
00001100
00000000
00011000
00001000
,
00010000
00001000
00000100
00001000
00000010
00000100
00001000
00000000
,
00001000
00010000
01000000
00010000
00100000
01000000
00010000
00000000
,
01100000
00000000
10010000
00000000
00011000
00000000
00000110
00001000
,
00000001
00000100
00001000
00000010
00000001
00001000
00000100
00000000
,
00000010
00001000
00000100
00010000
00001000
00010000
00100000
00000000
,
01000000
00010000
00100000
00001000
00010000
00000010
00000100
00000000
,
00000000
00000000
00001001
00000100
00010000
00001000
00100000
01000000
,
00001000
00010000
00100000
01000000
10000000
01000000
00100000
00000000
,
00010000
00100000
01000000
10000000
00010000
00001000
00000100
00000000
,
00001000
00000010
00000100
00000001
00001000
00010000
01000000
00010000
,
00110000
11000000
10100000
00011000
,
00001010
00000000
00000101
00000000
00000011
00000100
00011000
00000000
,
00101000
00000000
01000000
00000000
10100000
00000000
00010000
00001000
,
00010010
00000000
00000100
00000000
00000011
00000000
00011000
00001000
,
00010000
00001000
00000010
00000100
00001000
00010000
00100000
01000000
,
00001000
00100000
00001000
00010000
00000010
00010000
00001000
00000000
,
00110000
00000000
00011000
00000000
00100000
00010000
00001000
00000100
,
00001010
00000000
00011000
00000000
00000010
00001000
00010000
01000000
,
00100000
01000000
00100000
00010000
00001000
00100000
00001000
00010000
,
00001000
00000100
00000010
00000001
00001000
00000001
00000110
00000000
,
00000101
00000000
00001010
00000000
00000001
00000100
00010000
00000000
,
11000000
00000000
00110000
00000000
10000000
00100000
00001000
00000000
,
00000011
00000000
00000000
00000100
00001000
00010000
00100000
01000000
,
10100000
00000000
00000000
00100000
00010000
00001000
00000100
00000010
,
00000100
00000001
00000100
00000000
00000010
00001000
00000010
00000000
,
00010000
01000000
00010000
00000000
10000000
00010000
10000000
00000000
,
00010000
01000000
00010000
01000000
00100000
10000000
00100000
10000000
00010000
00000000
00000000
00000000
01100000
00000000
00000000
00000000
,
10010000
00000000
10100000
00000000
01000000
00010000
00001000
00000100
,
00001001
00000000
00001010
00000000
00000100
00001000
00010000
00100000
,
00000000
00000000
01000000
00010000
01000000
10000000
00100000
00010000
,
00100000
10000000
01000000
00010000
00001000
00000000
00000010
00001000
,
00000110
00001100
00000101
00000000
00000000
00000010
00000000
00010000
,
01100000
00000000
00110000
00000000
10100000
00000000
00000000
00000000
00010000
00001000
00000100
00000000
00000000
00000000
00000000
00000000
,
00000010
00000000
00001000
00000000
00000001
00000000
00000001
00000000
00000110
00000000
00000000
00001010
00000000
00000000
00000101
00000000
,
00001001
00000000
00000010
00000100
00000010
00000100
00001001
00000010
,
00000001
00000100
00010000
00000000
00000000
01000000
10010000
00100000
,
10000000
01000000
00001000
00000000
00000000
00000100
00000001
00000010
,
00001000
00000100
00000001
00000010
00001000
00000100
00001000
00000010
,
00000001
00000010
00001100
00000010
00000100
00001000
00000101
00001000
,
00000010
00001000
00010000
00000000
00000000
00100000
00011000
00000010
,
00000100
00001000
00010000
00000000
00000000
01000000
00011000
00000100
,
00000001
00001000
00001001
00001000
00010000
00001000
00011000
10000000
,
10010000
00100000
00010000
00100000
11000000
00100000
01010000
00000000
;

//---------------dance-couple - ----------------
#NOTES:
     dance-couple:
     :
     Easy:
     2:
     :
00000000
00000000
00000000
00000000
,
00000000
00000000
00000000
00000000
,
00000000
00000000
00000000
00000000
,
00000000
00000000
00000000
00000000
,
00000000
00000000
00000000
00000000
,
00000000
00000000
00000000
00000000
,
00000000
00000000
00000000
00000000
,
00000000
10001000
00000000
00010001
,
00000000
10001000
00000000
00010001
,
00000000
00100000
00100000
00100000
,
00000000
00000010
00000010
00000010
,
00000000
00010001
00000000
10001000
,
00000000
00010001
00000000
10001000
,
00000000
00010001
00000000
10001000
,
00000000
01000100
01000100
00000000
,
00011000
00011000
10000001
10000001
,
00011000
00011000
10000001
10000001
,
00100010
00100010
01000100
01000100
,
00011000
00011000
10000001
00000000
,
00010001
00100010
10001000
10001000
,
00010001
10001000
00010001
00000000
,
00010001
00010001
00100010
00100010
,
10001000
10001000
10001000
00000000
,
00000000
00000010
00000000
00000010
,
00000000
01000000
00000000
01000000
,
00000000
00100000
00010000
00100000
,
00000000
00000100
00001000
00000100
,
00000000
00100010
00100010
00100010
,
00000000
01000100
01000100
01000100
,
00000000
10000001
00000000
00011000
,
00000000
10000001
00000000
00011000
,
00000000
10000001
00000000
10000001
,
00000000
00100010
00100010
00100010
,
01000100
01000100
01000100
01000100
01000100
00000000
00000000
00000000
,
00010001
00100010
10001000
10001000
,
00010001
00100010
10001000
10001000
,
00000000
00100000
00100000
00100000
,
00000000
00000100
00000100
00000100
,
10001000
00100010
00010001
00010001
,
10001000
00100010
00010001
00010001
,
00000000
00000010
00000010
00000010
,
00000000
01000000
01000000
01000000
,
00010001
01000100
10001000
01000100
,
00010001
01000100
10001000
01000100
,
00010001
00010001
00010001
00000000
00000000
00000000
00010001
00000000
,
10001000
10001000
10001000
00000000
00000000
00000000
00011000
00000000
,
10000001
01000100
00011000
01000100
,
10000001
01000100
00011000
01000100
,
10000001
10000001
00100010
00100010
,
00011000
00011000
01000100
01000100
,
10000001
00000000
10000001
00000000
,
00011000
00000000
00011000
00000000
;

//---------------dance-couple - ----------------
#NOTES:
     dance-couple:
     :
     Medium:
     5:
     :
00000000
00000000
00000000
00000000
,
00000000
00000000
00000000
00000000
,
00000000
00000000
00000000
00000000
,
00000000
00000000
00000000
00000000
,
00000000
00000000
00000000
00000000
,
00000000
00000000
00000000
00000000
,
00000000
00000000
00100010
00000000
01000100
10001000
00010001
00000000
,
00010000
01000000
10000000
00000000
00001000
00000010
00000001
00000000
,
00010000
01000000
10000000
00000000
00001000
00000010
00000001
00000000
,
00100010
00011000
01000100
10000001
,
00010001
00000000
00000000
00000000
00010001
01000100
10001000
00000000
,
00000001
00000100
00001000
00000000
00010000
00100000
10000000
00000000
,
00000001
00000100
00001000
00000000
00010000
00100000
10000000
00000000
,
00100010
00011000
01000100
10000001
,
10001000
00000000
00000000
00000000
10001000
00100010
01000100
00000000
,
00100010
10001000
01000100
00010001
,
00100000
01000000
10001000
00000000
10000000
01000000
00100001
00000000
,
01000100
10001000
00100010
00010001
,
00000010
00000100
01001000
00000000
00001000
00000100
10000010
00000000
,
01000100
00000000
00010001
00000000
01000100
10001000
00010001
00000000
,
01000100
00000000
10001000
00000000
01000100
00010001
10001000
00000000
,
10000000
01000000
00010000
00000000
00000010
00000100
00001000
00000000
,
00010001
00100010
10001000
01000100
00010001
10001000
00100010
00000000
,
00011000
01000100
10000001
01000100
,
00011000
01000100
10000001
01000100
,
00011000
00100010
00011000
00000000
10000001
00100010
10000001
00000000
,
00011000
01000100
00011000
00000000
10000001
01000100
10000001
00000000
,
00011000
00100010
10000001
00100010
,
00011000
00100010
10000001
00100010
,
00101000
10000000
01000100
00000000
00100001
00010000
01000100
00000000
,
10001000
00000100
00100010
00000000
00010001
00000100
00100010
00000000
,
01000100
10001000
01000100
00000000
00010001
01000100
00010001
00000000
,
00100010
10001000
00100010
00000000
00010001
00100010
00010001
00000000
,
00100010
10001000
00010001
10001000
01000100
00000000
01101001
00000000
,
01000010
10000001
00100100
00011000
,
01000010
10000001
00100100
00011000
,
10000001
01000010
01000010
00000000
00011000
01000010
10000001
00000000
,
00011000
00000000
00011000
00000000
01000010
00100100
10000001
00000000
,
01000010
00011000
00100100
10000001
,
01000010
00011000
00100100
10000001
,
00100100
01000010
00100100
00000000
00011000
01000010
10000001
00000000
,
00100100
00011000
01000010
10000001
00011000
01000010
00011000
00000000
,
00100010
00010001
01000100
00000000
00100010
10001000
01000100
00000000
,
00010001
10001000
01000100
00000000
00010001
10001000
00100010
00000000
,
00010000
00100000
10000000
00000000
10000000
00000000
10001000
01000100
,
10001000
00100010
00010001
00000000
00000001
00000000
00100001
00000010
,
01000100
10001000
00100010
00000000
01000100
00010001
00100010
00000000
,
10001000
01000100
00010001
00000000
10001000
00100010
00010001
00000000
,
00100010
10001000
00010001
01000100
,
00100010
10001000
00010001
10001000
01000100
00010001
10001000
00000000
;

//---------------dance-couple - ----------------
#NOTES:
     dance-couple:
     :
     Hard:
     6:
     :
00000000
00000000
00000000
00000000
,
00000000
00000000
00000000
00000000
,
00000000
00000000
00000000
00000000
,
00000000
00000000
00000000
00000000
,
00000000
00000000
00000000
00000000
,
00000000
00000000
00000000
00000000
,
00000000
00000000
00000000
00000000
00000000
00100100
01000010
10000001
,
00011000
00100100
10011001
00000000
10000001
00100100
00111100
00000000
,
00011000
00100100
10011001
00000000
10000001
00100100
00111100
00000000
,
01000010
00000001
10000010
00001000
00100001
00000100
00010100
00000000
,
01001000
10000000
01000010
00010000
10000001
00100000
00101001
00000000
,
00011000
01000010
10011001
00000000
10000001
01000010
01011010
00000000
,
00011000
01000010
10011001
00000000
10000001
01000010
01011010
00000000
,
10000001
00100010
10001000
01000100
00100010
00010001
10001000
01000100
,
00010001
00100010
00010001
01000100
00100010
10001000
00010001
00000000
,
00100010
01000100
10011001
00000000
00010001
00100010
11001100
00000000
,
00100010
01000100
10011001
00000000
00100010
01000100
01010101
00000000
,
10100000
01010000
00001010
00000101
,
10001000
00010001
10001000
00100010
00010001
10001000
00010001
00000000
,
00100010
00011000
01000100
10000001
00100010
00011000
10011001
00000000
,
00100010
10000001
01000100
00011000
00100010
10000001
01100110
00000000
,
10000001
00100010
00011000
00100010
10000001
10000001
00011000
00011000
,
10000001
01000100
00011000
01000100
10000001
00011000
00100010
00000000
,
10000001
01000100
00100010
01000100
10000001
01000100
00100010
00000000
,
00011000
00100010
01000100
00100010
00011000
00100010
01000100
00000000
,
00010001
01000100
10001000
00100010
10001000
00100010
10001000
00000000
,
10001000
00100010
00010001
01000100
00010001
01000100
00010001
00000000
,
00011000
01000100
10000001
00000000
10000001
01000100
00011000
00000000
,
00011000
01000100
10000001
00000000
10000001
00011000
01000100
00010001
,
00000010
00001000
00000100
00000001
00000010
00001000
00000100
00000000
,
00100000
00010000
01000000
10000000
00100000
00010000
01000000
00000000
,
00001000
00000010
00000010
00000000
01000000
00010000
00010000
00000000
,
00100010
10001000
00100010
01000100
00100010
00010001
00100010
10001000
,
01000100
01000100
00010001
00100010
01100110
00000000
10011001
00000000
,
00100010
01000100
11000101
00000000
10000001
00011000
01000100
00000000
,
00100010
01000100
01011100
00000000
00011000
10000001
01000100
00000000
,
00011000
00011000
01000100
01000100
10000001
01000100
00011000
00000000
,
10000001
10000001
00100010
00100010
00011000
01000100
10000001
00000000
,
00100010
00011000
11000101
00000000
00011000
00100010
00011000
00000000
,
00100010
10000001
01011100
00000000
00011000
00100010
00011000
00000000
,
00010000
00010000
10000000
10000000
00000001
00000001
00001000
00001000
,
10000001
10000001
00011000
01000100
00010001
01000100
10001000
00000000
,
00100010
00010001
01000100
00010001
00100010
10001000
01000100
10001000
,
00100010
00010001
01000100
00010001
00100010
10001000
00100010
10001000
,
00010001
01000100
10001000
00010001
00100010
10001000
00010001
01000100
,
00010001
00100010
00010001
00100010
10001000
01000100
00010001
00000000
,
01000100
00011000
00100010
00011000
01000100
10000001
00100010
10000001
,
01000100
00011000
00100010
00011000
01000100
10000001
00100010
00000000
,
00000100
00000010
00001001
00000000
01000000
00100000
10010000
00000000
,
10001000
00010001
00100010
10001000
00010001
01000100
01100110
00000000
;
