#TITLE:晴れたらいいね;
#ARTIST:DREAMS COME TRUE;
#TITLETRANSLIT:HARETARA IINE;
#BANNER:HARETARA IINE.png;
#BACKGROUND:HARETARA IINE-bg.png;
#CDTITLE:cdtitle.png;
#MUSIC:HARETARA IINE.ogg;
#SAMPLESTART:56.613;
#SAMPLELENGTH:15;
#BPMS:0=124;

//---------------dance-single - ----------------
#NOTES:
     dance-single:
     :
     Easy:
     1:
     :
0000
0000
0000
0000
,
0000
0000
0000
0000
,
0000
0000
0000
0000
,
0000
0000
0000
0000
,
0000
0000
0000
0000
,
0001
0000
1000
0000
,
0001
1000
0001
0000
,
0001
1000
0001
1000
,
0001
0001
0001
0000
,
1000
0000
0001
0000
,
1000
0001
1000
0000
,
1000
0001
1000
0001
,
1000
1000
1000
0000
,
1000
0000
0001
0000
,
1000
0001
1000
0000
,
1000
0001
1000
0001
,
1000
1000
1000
0000
,
0001
1000
0001
1000
,
0001
1000
0001
0000
,
0001
1000
0001
1000
,
0001
1000
0001
0000
,
1001
0000
0000
0000
,
0001
0001
0001
0000
,
1001
0000
0000
0000
,
1000
1000
1000
0000
,
0110
0000
0000
0000
,
1000
1000
1000
0000
,
0001
0001
1000
1000
,
0001
0001
1000
1000
,
0000
1001
0000
0000
,
0001
1000
0001
1000
,
0001
1000
0001
1000
,
0001
0000
0001
0000
,
1000
1000
0001
0001
,
1000
0001
1000
0001
,
1000
0001
1000
0001
,
1000
0000
1000
0000
,
0001
0001
1000
1000
,
0001
1000
0001
1000
,
0001
1000
0001
1000
,
1000
0001
1000
0001
,
1000
0001
1000
0000
,
0001
0001
1000
1000
,
0001
0001
1000
1000
,
0001
1000
0001
1000
,
0001
0001
0000
0000
,
1000
1000
0000
0000
,
0001
0001
1000
1000
,
0000
1001
0000
0000
;

//---------------dance-single - ----------------
#NOTES:
     dance-single:
     :
     Medium:
     3:
     :
0000
0000
0000
0000
,
0000
0000
0000
0000
,
0000
0000
0000
0000
,
0000
0000
0000
0000
,
0000
0000
0000
0000
,
0100
0001
0100
0001
,
0100
0001
0100
1001
,
1000
0100
1000
0100
,
1000
0100
1000
0110
,
0001
0010
1000
0010
,
0001
0010
1000
1000
,
0001
0100
1000
0010
,
1001
0000
0000
0110
,
0010
1000
0010
1000
,
0010
1000
0010
1001
,
0001
0010
0001
0010
,
0001
0010
0001
0110
,
1000
0100
0001
0100
,
1000
0100
0001
0001
,
1000
0010
0001
0100
,
1000
0010
1001
0100
,
1000
0000
0000
0000
0000
0000
1000
0000
0001
0010
0000
0000
,
0001
0100
1001
0100
,
0001
0000
0000
0000
0000
0000
0001
0000
1000
0010
0000
0000
,
1000
0010
1001
0100
,
0010
0000
0000
0000
0000
0000
0100
0000
1000
0001
0000
0000
,
0010
1000
0100
0001
,
0010
1010
0100
0101
,
0010
0010
0100
0100
,
1001
0000
1001
0100
,
0001
0000
0000
0001
0000
0000
0001
0000
0001
0010
0000
0000
,
1000
0000
0000
1000
0000
0000
1000
0000
1000
0010
0000
0000
,
0100
1001
0100
0101
,
0010
1000
0100
0001
,
1000
0000
0000
1000
0000
0000
1000
0000
1000
0100
0000
0000
,
0001
0000
0000
0001
0000
0000
0001
0000
0001
0100
0000
0000
,
0010
1001
0010
1010
,
0100
0001
0010
1000
,
1000
0100
0001
0100
,
1000
0100
0001
0100
,
1000
0100
0010
1001
,
0001
0100
0010
1001
,
1000
1100
0001
0101
,
1000
1100
0001
0101
,
1000
1010
0001
0011
,
1000
0000
0000
0010
0000
0000
0001
0000
1000
0100
0000
0000
,
0001
0000
0000
0010
0000
0000
1000
0000
0001
0100
0000
0000
,
1000
0010
0001
0100
,
0010
0000
0000
1000
0000
0001
0000
0000
0000
0000
0000
0000
;

//---------------dance-single - ----------------
#NOTES:
     dance-single:
     :
     Hard:
     5:
     :
0000
0000
0000
0000
,
0000
0000
0000
0000
,
0000
0000
0000
0000
,
0000
0000
0000
0000
,
0000
0000
0000
0000
,
1000
0000
0100
1000
0000
0000
0001
0000
0100
0001
0000
0000
,
1000
0000
0100
1000
0000
0000
0001
0000
0100
0001
0000
0000
,
0100
1000
0010
0001
,
0100
1010
0100
0101
,
1000
0000
0001
1000
0000
0000
0001
0000
1000
0001
0000
0000
,
0010
0000
0100
0010
0000
0000
0100
0000
0010
0100
0000
0000
,
0010
0001
0100
1000
,
0011
0000
0000
1010
0000
0000
0001
0000
1000
0100
0000
0000
,
0001
0000
0010
0001
0000
0000
1000
0000
0010
1000
0000
0000
,
0001
0000
0010
0001
0000
0000
1000
0000
0010
1000
0000
0000
,
0100
0001
0010
1000
,
0100
0011
0100
1100
,
0001
0000
0010
0001
0000
0000
1000
0000
0100
1000
0000
0000
,
0010
0000
1000
0010
0000
0000
0100
0000
0001
0100
0000
0000
,
1000
0101
0001
1100
,
0010
0000
0000
0001
0000
0000
1000
0000
0100
1000
0000
0000
,
1001
0000
0000
0000
,
1000
0000
1000
0100
0000
0100
0010
0000
0010
0001
0000
0001
,
1001
0000
0000
0000
,
0001
0000
0001
0100
0000
0100
0010
0000
0010
1000
0000
1000
,
1001
0000
0000
0000
,
0010
1000
0100
0001
,
1001
0000
0110
0000
,
1010
0101
0011
1010
,
0100
0000
0011
1010
,
0001
0000
1000
0100
0000
0000
0001
0000
1000
0100
0000
0000
,
0001
0000
0001
0010
0000
0010
0001
0000
0001
0010
0000
0010
,
0100
1000
0010
1001
,
0100
0000
0000
0010
0000
0000
0100
0000
0000
0001
0000
0100
,
0001
0000
1000
0010
0000
0000
0001
0000
1000
0010
0000
0000
,
1000
0000
1000
0100
0000
0100
1000
0000
1000
0100
0000
0100
,
0010
0001
0100
1001
,
0010
0000
0000
0010
0000
0000
0010
0000
0000
1000
0001
1000
,
0001
1010
0001
1100
,
1000
0011
1001
0101
,
0010
1000
0100
0001
,
0010
0000
0000
0100
0000
0000
0010
0000
0001
0100
0000
0000
,
1000
0000
0100
1000
0000
0000
1000
0000
0100
1000
0000
0000
,
0001
0000
0100
0001
0000
0000
0001
0000
0100
0001
0000
0000
,
1000
0000
0100
1000
0000
0000
0001
0000
0010
0001
0000
0000
,
0100
0000
0000
0011
0000
0000
1000
0000
0100
0001
0000
0000
,
0100
0000
0000
1010
0000
0000
0001
0000
0100
1000
0000
0000
,
0010
0000
0010
0001
0000
0001
1000
0000
1000
0100
0000
0100
,
0010
0000
0000
1000
0000
0001
0000
0000
0000
0000
0000
0000
;

//---------------dance-single - ----------------
#NOTES:
     dance-single:
     :
     Challenge:
     7:
     :
0000
0000
0000
0000
,
0000
0000
0000
0000
,
0000
0000
0000
0000
,
0000
0000
0000
0000
,
0000
0000
0000
0000
,
0001
0010
0001
0010
0000
0100
1000
0000
0001
0100
0000
0000
,
1000
0010
1000
0010
0000
0100
0001
0000
1000
0100
0000
0000
,
0001
0000
0010
0001
0000
0000
1000
0000
0010
1000
0000
0000
,
0010
0000
0000
0101
0000
0000
0010
0000
1000
0100
0000
0000
,
0001
1000
0001
1000
0000
0000
0100
1000
0100
1000
0000
0000
,
1000
0001
1000
0001
0000
0000
0010
0001
0010
0001
0000
0000
,
1000
0011
0001
1100
,
0010
0000
0000
0100
0000
0000
0001
0000
0000
1000
0100
1000
,
0001
0010
0001
0010
0000
0100
1000
0000
0001
0100
0000
0000
,
1000
0010
1000
0010
0000
0100
0001
0000
1000
0100
0000
0000
,
0001
0000
0100
0001
0000
0000
1000
0000
0100
1000
0000
0000
,
0010
0000
0000
0011
0000
0000
0100
0000
1000
0010
0000
0000
,
0100
1000
0100
1000
0000
0000
1000
0000
0001
0010
0000
0000
,
0001
0100
0001
0100
0000
0000
0100
0000
0001
1000
0000
0000
,
1000
0101
0001
1100
,
0010
0000
0000
0010
0000
0000
0010
0000
0100
0001
0000
0000
,
0010
1000
0001
0100
0000
0000
1010
0000
0001
0100
0000
0000
,
0010
0001
1000
0100
0000
0000
0011
0000
1000
0100
0000
0000
,
0010
0000
0000
0010
0000
0000
0010
0100
0010
1000
0000
0000
,
0010
0001
1000
0100
0000
0000
0010
0000
0001
1000
0100
1000
,
0100
0000
0000
0100
0000
0000
0100
0010
0100
0001
0000
0000
,
0010
1000
0100
0001
,
0100
0010
0000
1000
0001
0000
0010
0100
0000
0001
1000
0000
,
0100
1000
0100
0010
0001
0010
0100
0010
0100
1000
0001
1000
,
0010
0000
0000
1001
0000
0000
0100
1000
0100
0010
0001
0010
,
0001
0100
1000
0100
,
0001
0010
0001
0010
0000
0000
1000
0100
1000
0100
0000
0000
,
0110
0011
1010
0100
,
1000
0000
0001
0010
0000
0000
0100
0000
1000
0001
0000
0010
,
0100
1100
0011
1001
,
0100
1000
0100
1000
0000
0010
0001
0010
0001
0000
0000
0000
,
1100
0000
0000
1010
0000
0000
0101
0000
0000
0001
0010
0001
,
1000
0000
0000
1000
0000
0000
1000
0000
0000
0010
0100
0010
,
0001
0000
0000
0110
0000
0000
1000
0000
0001
0010
0000
0000
,
1000
0000
0000
0110
0000
0000
0001
0000
1000
0100
0000
0000
,
0010
0000
0001
1000
0000
0000
0100
0000
1000
0001
0000
0000
,
0100
0000
0001
1000
0000
0010
1000
0000
0001
0100
0010
0100
,
0001
1000
0001
1000
0000
0010
0100
0000
1000
0001
0000
0000
,
0100
0010
0100
0010
0000
0001
1000
0000
0010
0100
0000
0000
,
1000
0100
1000
0010
0000
0000
0001
0100
0001
0010
0000
0000
,
0100
0000
0000
1010
0000
0011
0000
0000
0001
1000
0000
0010
,
0100
0000
0000
1010
0000
0101
0000
0000
0010
0100
0000
1000
,
0001
0000
0000
0110
0000
1001
0000
0000
1000
0100
0001
0010
,
0100
0000
0000
0011
0000
1100
0000
0000
0000
0000
0000
0000
;

//---------------dance-double - ----------------
#NOTES:
     dance-double:
     :
     Easy:
     2:
     :
00000000
00000000
00000000
00000000
,
00000000
00000000
00000000
00000000
,
00000000
00000000
00000000
00000000
,
00000000
00000000
00000000
00000000
,
00000000
00000000
00000000
00000000
,
00010000
10000000
00010000
10000000
,
00010000
00001000
00000001
00001000
,
00000001
00001000
00000001
00001000
,
00010000
10000000
00010000
10000000
,
10000000
01000000
00010000
01000000
,
10000000
00010000
00001000
00000001
,
00000001
00000100
00001000
00000100
,
00000001
00001000
00010000
10000000
,
00010000
10000000
00010000
10000000
,
00010000
00001000
00000001
00001000
,
00000001
00001000
00000001
00001000
,
00010000
10000000
00010000
10000000
,
10000000
01000000
00010000
01000000
,
10000000
00010000
00001000
00000001
,
00000001
00000100
00001000
00000100
,
00000001
00000100
00001000
00000100
,
00000001
00000000
00000001
00000001
,
00000001
00001000
00010000
10000000
,
00010000
00000000
10000000
10000000
,
10000000
00010000
00001000
00000001
,
00001000
00000000
00000001
00000001
,
00000001
00000010
00001000
00000100
,
00000001
00000000
00001000
00000000
,
00010000
00000000
10000000
00000000
,
00000000
00000000
01000100
00000000
,
01000000
00010000
00000100
00001000
,
01000000
00010000
00000100
00001000
,
01000000
00010000
00000100
00001000
,
01000000
00000000
01000000
00000000
,
01000000
00010000
00000100
00001000
,
01000000
00010000
00000100
00001000
,
01000000
00010000
00000100
00001000
,
00010000
00001000
00001000
00000010
,
00000001
00000100
00001000
00000100
,
00000001
00000100
00001000
00000100
,
00000001
00001000
00010000
00100000
,
00100000
00010000
00001000
00000010
,
00000010
00001000
00100000
00010000
,
00000010
00001000
00100000
00010000
,
00000010
00001000
00100000
00010000
,
00000010
00001000
00010000
00100000
,
00100000
10000000
00010000
01000000
,
01000000
00010000
00001000
00000100
,
00000010
00000000
00000000
00000001
00000000
00001000
00000000
00000000
00000000
00000000
00000000
00000000
;

//---------------dance-double - ----------------
#NOTES:
     dance-double:
     :
     Medium:
     4:
     :
00000000
00000000
00000000
00000000
,
00000000
00000000
00000000
00000000
,
00000000
00000000
00000000
00000000
,
00000000
00000000
00000000
00000000
,
00000000
00000000
00000000
00000000
,
01000000
10000000
00001000
00000100
,
01000000
10000000
00001000
00011000
,
00000010
00000001
00010000
00100000
,
00000010
00000001
00010000
00011000
,
10000000
01000000
00100000
00010000
,
10000000
01000000
00010000
00001000
,
00000001
00000010
00000100
00001000
,
00000001
00000010
00001000
00011000
,
00100000
00010000
00000010
00001000
,
00010000
01000000
00001000
00000100
,
00010000
00100000
01000000
00001000
,
00000100
00000010
00001000
00011000
,
00010000
01000000
00001000
00000100
,
00100000
00010000
00000010
00001000
,
00100000
01000000
00001000
00000100
,
00000010
00010000
00100000
00011000
,
00000010
00000000
00000000
00000000
,
00000001
00000000
00000001
00000010
00000000
00000010
00001000
00000000
00001000
00010000
00000000
00010000
,
01000000
00000000
00000000
00000000
,
10000000
00000000
10000000
01000000
00000000
01000000
00010000
00000000
00010000
00001000
00000000
00001000
,
00000010
00000001
00001000
00010000
,
00000100
00001000
00010000
01000000
,
00001000
00000010
00010000
00100000
,
00000000
00010100
01001000
00011000
,
00100010
00000000
00001000
00010000
,
00000010
00000000
00001000
00000010
00000000
00000000
00100000
00000000
00010000
00100000
00000000
00000000
,
00000010
00000000
00001000
00000010
00000000
00000000
00100000
00000000
00010000
00100000
00000000
00000000
,
01000000
00010000
00001000
00000100
,
01000000
10000000
00001000
00000100
,
01000000
00000000
00010000
01000000
00000000
00000000
00000100
00000000
00001000
00000100
00000000
00000000
,
01000000
00000000
00010000
01000000
00000000
00000000
00000100
00000000
00001000
00000100
00000000
00000000
,
00000010
00001000
00010000
00100000
,
00100000
00010000
00001000
00000010
,
00000001
00000000
00000100
00000001
00000000
00000000
00001000
00000000
00000010
00001000
00000000
00000000
,
00010000
00000000
00100000
00010000
00000000
00000000
10000000
00000000
01000000
10000000
00000000
00000000
,
10000000
00000000
00000000
00010000
00000000
00000000
00001000
00000000
00000010
00000001
00000000
00000000
,
00000001
00000000
00000000
00001000
00000000
00000000
00010000
00000000
01000000
10000000
00000000
00000000
,
00010000
01000000
10000000
01000000
,
00010000
00000000
01000000
00010000
00000000
00000000
00001000
00000000
00000010
00001000
00000000
00000000
,
00000001
00000100
00001000
00010000
,
10000000
00000000
01000000
10000000
00000000
00000000
00010000
00000000
01000000
00010000
00000000
00000000
,
10000000
00000000
00100000
10000000
00000000
00000000
00010000
00000000
00100000
00010000
00000000
00000000
,
00001000
00000000
00000100
00000001
00000000
00000000
00000001
00000000
00000010
00001000
00000000
00000000
,
00001000
00000000
00000000
00010000
00000000
00100000
00000000
00000000
00000000
00000000
00000000
00000000
;

//---------------dance-double - ----------------
#NOTES:
     dance-double:
     :
     Hard:
     4:
     :
00000000
00000000
00000000
00000000
,
00000000
00000000
00000000
00000000
,
00000000
00000000
00000000
00000000
,
00000000
00000000
00000000
00000000
,
00000000
00000000
00000000
00000000
,
01000000
00000000
00000000
00001000
00000000
00000000
00100000
00000000
00000010
00001000
00000000
00000000
,
00000100
00000000
00000000
00010000
00000000
00000000
00000010
00000000
00100000
00010000
00000000
00000000
,
10000000
00001000
00010000
00000001
,
00000010
00001000
00010000
01000000
,
00100000
00000000
10000000
01000000
00000000
00000000
00001000
00000000
00010000
00100000
00000000
00000000
,
01000000
00000000
00010000
00100000
00000000
00000000
00001000
00000000
00010000
01000000
00000000
00000000
,
00100000
10100000
01000000
01010000
,
00100000
00001000
00000100
00001001
,
00000010
00000000
00000000
00010000
00000000
00000000
00000100
00000000
01000000
00010000
00000000
00000000
,
00100000
00000000
00000000
00001000
00000000
00000000
01000000
00000000
00000100
00001000
00000000
00000000
,
00000010
00001000
00010000
01000000
,
10000000
00001000
00010000
00000001
,
00000100
00000000
00000001
00000010
00000000
00000000
00010000
00000000
00001000
00000100
00000000
00000000
,
00000110
00000000
00000000
00000001
00000000
00000000
00001000
00000000
00010000
00100000
00000000
00000000
,
01000000
00000000
10000000
00100000
00000000
00000000
00001000
00000000
00010000
01000000
00000000
00000000
,
01100000
00000000
00000000
10000000
00000000
00000000
00100000
00000000
00000000
00010000
00000000
01000000
,
00000100
00000000
00000001
00010000
,
00000010
00000000
00000010
00001000
00000000
00000000
00010000
00000000
00000000
00001000
00000000
00000010
,
00100000
00000000
10000000
00001000
,
00100000
00000000
00100000
00010000
00000000
00000000
00001000
00000000
00001000
00000100
00000000
00000000
,
00000011
00000000
00001000
00010000
,
00100000
00001000
00000010
00010000
,
10000000
00001000
00000001
00010000
,
00000000
10010000
00101000
00000110
,
01000100
00000000
00000000
00000000
00000000
00000000
00000010
00000000
00001000
00000100
00000000
00000000
,
00100000
00000000
00001000
00010000
00000000
00000000
00000010
00000000
00001000
00000010
00000000
00000000
,
00000100
00000000
00010000
00001000
00000000
00000000
01000000
00000000
00010000
01000000
00000000
00000000
,
00100000
00001000
00000100
00011000
,
01000000
00001000
00000010
00011000
,
00100000
00000000
00010000
00100000
00000000
00000000
00010000
00000000
01000000
00000100
00000000
00000000
,
00000010
00000000
00000001
00000010
00000000
00000000
00001000
00000000
00000100
01000000
00000000
00000000
,
10000000
00001000
00010000
00000001
,
00000001
00010000
00001000
10000000
,
10000000
00000000
00100000
10000000
00000000
00000000
01000000
00000000
00010000
01000000
00000000
00000000
,
00001000
00000000
00010000
00001000
00000000
00000000
00000010
00000000
00001000
00000010
00000000
00000000
,
00000001
00000000
00001000
00010000
00000000
00000000
10000000
00000000
00010000
00001000
00000000
00000000
,
00000010
00001000
00100000
00010000
,
00000010
00000000
00010000
00001000
00000000
00000000
00000010
00001000
00010000
00000000
00000000
00000000
,
00100000
00000000
00000000
00001000
00010000
00000000
00100000
00000000
00010000
00001000
00000000
00000000
,
00000100
00000000
00010000
00001000
00000000
00000000
01000000
00000000
00010000
00001000
00000000
00000000
,
00010000
00000000
00100000
01000000
00000000
00000000
00100000
00000000
00010000
00001000
00000000
00000000
,
00000010
00000000
00000100
00001000
00000000
00000000
00010000
00000000
00001000
00000010
00000000
00000000
,
00000001
00000000
00000010
00000100
00000000
00010000
00001000
00000000
00010000
00000100
00000000
00000000
,
00011000
00000000
00000000
00000100
00000000
01000000
00000000
00000000
00000000
00000000
00000000
00000000
;

//---------------dance-couple - ----------------
#NOTES:
     dance-couple:
     :
     Easy:
     1:
     :
00000000
00000000
00000000
00000000
,
00000000
00000000
00000000
00000000
,
00000000
00000000
00000000
00000000
,
00000000
00000000
00000000
00000000
,
00000000
00000000
00000000
00000000
,
00010001
00000000
10001000
00000000
,
00010001
10001000
00010001
00000000
,
00010001
10001000
00010001
10001000
,
00010001
00010001
00010001
00000000
,
00001000
00000001
00001000
00000000
,
10000000
00010000
10000000
00000000
,
10001000
00010001
10001000
00010001
,
10001000
10001000
10001000
00000000
,
10001000
00000000
00010001
00000000
,
10001000
00010001
10001000
00000000
,
10001000
00010001
10001000
00010001
,
10001000
10001000
10001000
00000000
,
00010000
10000000
00010000
00000000
,
00000001
00001000
00000001
00000000
,
00010001
10001000
00010001
10001000
,
00010001
10001000
00010001
00000000
,
10011001
00000000
00000000
00000000
,
00011000
00011000
00011000
00000000
,
10011001
00000000
00000000
00000000
,
10000001
10000001
10000001
00000000
,
01100110
00000000
00000000
00000000
,
10001000
10001000
10001000
00000000
,
00010001
00010001
10001000
10001000
,
00010001
00010001
10001000
10001000
,
00000000
10011001
00000000
00000000
,
00010001
10001000
00010001
10001000
,
00010001
10001000
00010001
10001000
,
00010001
00000000
00010001
00000000
,
10001000
10001000
00010001
00010001
,
10001000
00010001
10001000
00010001
,
10001000
00010001
10001000
00010001
,
10001000
00000000
10001000
00000000
,
10000001
10000001
00011000
00011000
,
10000001
00011000
10000001
00011000
,
10000001
00011000
10000001
00011000
,
00011000
10000001
00011000
10000001
,
00011000
10000001
00011000
00000000
,
00011000
00011000
10000001
10000001
,
00011000
00011000
10000001
10000001
,
00011000
10000001
00011000
10000001
,
00011000
00011000
00000000
00000000
,
10000001
10000001
00000000
00000000
,
00011000
00011000
10000001
10000001
,
00000000
10011001
00000000
00000000
;

//---------------dance-couple - ----------------
#NOTES:
     dance-couple:
     :
     Medium:
     3:
     :
00000000
00000000
00000000
00000000
,
00000000
00000000
00000000
00000000
,
00000000
00000000
00000000
00000000
,
00000000
00000000
00000000
00000000
,
00000000
00000000
00000000
00000000
,
01000100
10000001
01000100
10000001
,
01000100
10000001
01000100
10011001
,
00011000
00100010
00011000
00100010
,
00011000
00100010
00011000
01100110
,
10000001
01000010
00011000
01000010
,
10000001
01000010
00011000
00011000
,
10000001
00100100
00011000
01000001
,
10010110
00000000
00000000
01101001
,
00100010
10001000
00100010
10001000
,
00100010
10001000
00100010
10011001
,
00010001
00100010
00010001
00100010
,
00010001
00100010
00010001
01100110
,
10001000
01000100
10001000
01000100
,
10001000
01000100
00010001
00010001
,
10001000
00100010
00010001
01000100
,
10001000
00100010
10011001
01000100
,
10000001
00000000
00000000
00000000
00000000
00000000
10000001
00000000
00011000
00100010
00000000
00000000
,
00011000
01000100
10011001
01000100
,
00011000
00000000
00000000
00000000
00000000
00000000
00011000
00000000
10000001
00100010
00000000
00000000
,
10000001
00100010
10011001
01000100
,
00100010
00000000
00000000
00000000
00000000
00000000
01000100
00000000
10001000
00010001
00000000
00000000
,
00100100
10000001
01000010
00011000
,
00100100
10100101
01000010
01011010
,
00100100
00100100
01000010
01000010
,
10011001
00000000
10011001
01000010
,
00011000
00000000
00000000
00011000
00000000
00000000
00011000
00000000
00011000
00100100
00000000
00000000
,
10000001
00000000
00000000
10000001
00000000
00000000
10000001
00000000
10000001
00100100
00000000
00000000
,
01000010
10011001
01000010
01011010
,
00000001
00000000
00000100
00000001
00000000
00000000
00001000
00000000
00000100
00001000
00000000
00000000
,
00011000
00000000
00000000
00011000
00000000
00000000
00011000
00000000
00011000
00100100
00000000
00000000
,
10000001
00000000
00000000
10000001
00000000
00000000
10000001
00000000
10000001
00100100
00000000
00000000
,
01000010
10011001
01000010
01011010
,
10000000
00000000
01000000
10000000
00000000
00000000
00010000
00000000
01000000
00010000
00000000
00000000
,
10001000
01000100
00010001
01000100
,
10001000
01000100
00010001
01000100
,
10001000
01000000
00101000
10010000
,
00010001
00000100
00010010
00001001
,
10001000
11001100
00010001
01010101
,
10001000
11001100
00010001
01010101
,
10001000
10101010
00010001
00110011
,
00011000
00000000
00000000
00100010
00000000
00000000
10000001
00000000
00011000
01000100
00000000
00000000
,
10000001
00000000
00000000
00100010
00000000
00000000
00011000
00000000
10000001
01000100
00000000
00000000
,
00011000
00100010
10000001
01000100
,
00100010
00000000
00000000
00011000
00000000
10000001
00000000
00000000
00000000
00000000
00000000
00000000
;

//---------------dance-couple - ----------------
#NOTES:
     dance-couple:
     :
     Hard:
     5:
     :
00000000
00000000
00000000
00000000
,
00000000
00000000
00000000
00000000
,
00000000
00000000
00000000
00000000
,
00000000
00000000
00000000
00000000
,
00000000
00000000
00000000
00000000
,
10001000
00000000
01000100
10001000
00000000
00000000
00010001
00000000
01000100
00010001
00000000
00000000
,
10001000
00000000
01000100
10001000
00000000
00000000
00010001
00000000
01000100
00010001
00000000
00000000
,
01000100
10001010
00100100
00010101
,
01000100
10101000
01000010
01010001
,
10001000
00000000
00010001
10001000
00000000
00000000
00010001
00000000
10001000
00010001
00000000
00000000
,
00100010
00000000
01000100
00100010
00000000
00000000
01000100
00000000
00100010
01000100
00000000
00000000
,
00100011
00000000
00000000
00011010
00000000
00000000
01000001
00000000
00001000
10000100
00000000
00000000
,
00110010
00000000
00000000
10100001
00000000
00000000
00010100
00000000
10000000
01001000
00000000
00000000
,
00010001
00000000
00100010
00010001
00000000
00000000
10001000
00000000
00100010
10001000
00000000
00000000
,
00010001
00000000
00100010
00010001
00000000
00000000
10001000
00000000
00100010
10001000
00000000
00000000
,
01000100
00110001
01000010
11001000
,
01000100
00010011
00100100
10001100
,
00010001
00000000
00100010
00010001
00000000
00000000
10001000
00000000
01000100
10001000
00000000
00000000
,
00100010
00000000
10001000
00100010
00000000
00000000
01000100
00000000
00010001
01000100
00000000
00000000
,
10000010
00000000
00000000
01010001
00000000
00000000
00011000
00000000
00000010
11001000
00000000
00000000
,
00100010
00000000
00000000
00010101
00000000
00000000
10000001
00000000
01000000
10001100
00000000
00000000
,
10011001
00000000
00000000
00000000
,
10000001
00000000
10000001
01000010
00000000
01000010
00100100
00000000
00100100
00011000
00000000
00011000
,
10011001
00000000
00000000
00000000
,
00011000
00000000
00011000
01000010
00000000
01000010
00100100
00000000
00100100
10000001
00000000
10000001
,
10011001
00000000
00000000
00000000
,
00100010
10001000
01000100
00010001
,
10011001
00000000
01100110
00000000
,
10101010
01010101
00110011
10101010
,
01000100
00000000
10100011
00111010
,
10000001
00000000
00011000
00100100
00000000
00000000
10000001
00000000
00011000
00100100
00000000
00000000
,
10000001
00000000
10000001
01000010
00000000
01000010
10000001
00000000
10000001
01000010
00000000
01000010
,
00100100
00011000
01000010
10011001
,
00100100
00000000
00000000
01000010
00000000
00000000
00100100
00000000
00000000
10000001
00000000
00100100
,
10000001
00000000
00011000
01000010
00000000
00000000
10000001
00000000
00011000
01000010
00000000
00000000
,
00011000
00000000
00011000
00100100
00000000
00100100
00011000
00000000
00011000
00100100
00000000
00100100
,
01000010
10000001
00100100
01100110
,
00100100
00000000
00000000
00100100
00000000
00000000
00100100
00000000
00000000
10000001
00011000
10000001
,
00011000
10100011
00011000
11000101
,
10000001
00111010
10011001
01011100
,
00100100
10000001
01000010
00011000
,
00100100
00000000
00000000
01000010
00000000
00000000
00100100
00000000
10000001
01000010
00000000
00000000
,
00011000
00000000
01000100
00011000
00000000
00000000
10000001
00000000
01000100
10000001
00000000
00000000
,
00011000
00000000
01000100
00011000
00000000
00000000
00011000
00000000
01000100
00011000
00000000
00000000
,
10001000
00000000
01000100
10001000
00000000
00000000
00010001
00000000
00100010
00010001
00000000
00000000
,
01000100
00000000
00000000
00110011
00000000
00000000
10001000
00000000
01000100
00010001
00000000
00000000
,
00010000
00000000
01000000
10000000
00000000
00000000
00000001
00000000
00000100
00001000
00000000
00000000
,
01000010
00000000
01000010
10000001
00000000
10000001
00011000
00000000
00011000
00100100
00000000
00100100
,
00100010
00000000
00000000
10001000
00000000
00010001
00000000
00000000
00000000
00000000
00000000
00000000
;
