
//----- song ID: eyestome -----//
#TITLE:Eyes to me;
#ARTIST:DREAMS COME TRUE;
#BANNER:Eyes to me.png;
#BACKGROUND:Eyes to me-bg.png;
#CDTITLE:./CDTITLES/Million Kisses.png;
#MUSIC:Eyes to me.ogg;
#SAMPLESTART:8.947;
#SAMPLELENGTH:15;
#BPMS:0=114;

//---------------dance-single - ----------------
#NOTES:
     dance-single:
     :
     Easy:
     3:
     :
0000
0000
0000
0000
,
0000
0000
0000
0000
,
0000
0000
0000
0000
,
0000
0000
0000
0000
,
0000
0000
0000
0000
,
0010
1000
0010
1000
,
0001
0100
0001
0100
,
0010
0000
0000
0010
0000
0000
0010
0000
0000
0000
0000
0000
0000
0000
0000
0000
,
0100
0000
0010
0000
,
1000
0100
1000
0100
,
0010
0001
0010
0001
,
0100
0000
0000
0100
0000
0000
0100
0000
0000
0000
0000
0000
0000
0000
0000
0000
,
0010
0000
0100
0000
,
0001
0010
1000
0010
,
0001
0010
1000
0010
,
0001
0000
0000
0001
0000
0000
0001
0000
0000
0000
0000
0000
0000
0000
0000
0000
,
1000
0000
0001
0000
,
1000
0100
0001
0100
,
1000
0100
0001
0100
,
1000
0000
0000
1000
0000
0000
1000
0000
0000
0000
0000
0000
0000
0000
0000
0000
,
0001
0010
1000
0100
,
0000
1000
1000
0001
,
0010
0100
0010
0100
,
1000
1000
0001
0001
,
0010
0000
0010
0100
,
0000
1000
1000
0001
,
0010
0100
0010
0100
,
0001
1000
0001
0000
,
0001
0010
1000
0010
,
0001
1000
0001
1000
,
1001
0000
0000
0000
,
1100
0000
0000
0000
,
0011
0000
0000
0000
,
0100
0100
0100
0100
0100
0100
0100
0000
,
0001
0010
0001
0010
,
1000
0100
1000
0100
,
0010
0000
0000
0010
0000
0000
0010
0000
0000
0000
0000
0000
0000
0000
0000
0000
,
0001
0000
1000
0000
,
0001
0010
1000
0010
,
0001
0010
1000
0010
,
0001
0000
0000
0001
0000
0000
0001
0000
0000
0000
0000
0000
0000
0000
0000
0000
,
0010
1000
0001
0100
;

//---------------dance-single - ----------------
#NOTES:
     dance-single:
     :
     Medium:
     4:
     :
0000
0000
0000
0000
,
0000
0000
0000
0000
,
0000
0000
0000
0000
,
0000
0000
0000
0000
,
0000
0010
0010
0010
,
0001
1000
0100
0000
1000
0001
0100
0000
,
0001
1000
0100
0000
1000
0001
0100
0000
,
0010
0000
0000
0010
0000
0000
0010
0000
0000
0000
0000
0000
0000
0000
0000
0000
,
0100
0001
1000
0100
,
0001
1000
0010
0000
1000
0001
0010
0000
,
0001
1000
0010
0000
1000
0001
0010
0000
,
0100
0000
0000
0100
0000
0000
0100
0000
0000
0000
0000
0000
0000
0000
0000
0000
,
0000
0001
0010
0100
,
1000
0001
0100
0000
0001
1000
0100
0000
,
0010
0001
0100
0000
0010
1000
0100
0000
,
0001
0000
0000
0001
0000
0000
0001
0000
0000
0000
0000
0000
0000
0000
0000
0000
,
0100
0001
1000
0100
,
0001
1000
0010
0000
1000
0001
0010
0000
,
0100
1000
0010
0000
0100
0001
0010
0000
,
1000
0000
0000
1000
0000
0000
1000
0000
0000
0000
0000
0000
0000
0000
0000
0000
,
0010
0001
0100
1000
,
0001
0011
1000
1010
,
0100
0101
1000
1100
,
0001
0010
0001
0000
1000
0010
1000
0000
,
0001
0000
0010
0000
0100
1000
0001
0000
,
0001
0101
1000
1100
,
0001
0010
0001
0000
1000
0010
1000
0000
,
0001
0010
1000
0110
,
0001
1001
0010
1100
,
0001
0010
1000
0100
,
0000
0001
0010
1000
0000
0000
0000
0000
,
0000
1000
0100
0001
0000
0000
0000
0000
,
0000
0010
0100
1001
0000
0000
0000
0000
,
0000
0001
1000
0001
1000
0010
0100
0000
,
0001
1000
0010
0000
1000
0001
0010
0000
,
0001
1000
0010
0000
1000
0001
0010
0000
,
0100
0000
0000
0100
0000
0000
0100
0000
0000
0000
0000
0000
0000
0000
0000
0000
,
0010
1000
0001
0010
,
1000
0001
0100
0000
0001
1000
0100
0000
,
1000
0001
0100
0000
1000
0001
0100
0000
,
0010
0000
0000
0010
0000
0000
0010
0000
0000
0000
0000
0000
0000
0000
0000
0000
,
0100
0000
0100
0000
0001
0010
1000
0010
;

//---------------dance-single - ----------------
#NOTES:
     dance-single:
     :
     Hard:
     7:
     :
0000
0000
0000
0000
,
0000
0000
0000
0000
,
0000
0000
0000
0000
,
0000
0000
0000
0000
,
0100
0001
1000
0001
1000
0001
0010
0000
,
1000
0000
0000
0010
0000
0000
1000
0000
0001
0000
0000
0100
0000
0000
0001
0000
,
1000
0000
0000
0100
0000
0000
1000
0000
0001
0000
0000
0010
0000
0000
0001
0000
,
1000
0100
0110
0000
0001
0010
0110
0000
,
1000
0100
0001
0100
1000
0001
0110
0000
,
0001
0000
0000
0100
0000
0000
0001
0000
1000
0000
0000
0010
0000
0000
1000
0000
,
0001
0000
0000
0010
0000
0000
0001
0000
1000
0000
0000
0100
0000
0000
1000
0000
,
0010
0001
1001
0000
0100
1000
1001
0000
,
0010
1000
0010
0001
1100
0101
0010
0000
,
0100
0000
0000
0001
0000
0000
0100
0000
0010
0000
0000
1000
0000
0000
0010
0000
,
0100
0000
0000
1000
0000
0000
0100
0000
0010
0000
0000
0001
0000
0000
0010
0000
,
0100
0000
0000
1010
0000
0000
0011
0000
0000
0000
0000
0000
0000
0000
0000
0000
,
0000
0000
0010
0010
,
0100
0000
0000
1000
0000
0000
0100
0000
0010
0000
1000
0000
0000
0000
0010
0000
,
0100
0000
0000
0001
0000
0000
0100
0000
0010
0000
0000
0001
0000
0000
0010
0000
,
0100
0000
0000
1100
0000
0000
0101
0000
0000
0000
0000
0000
0000
0000
0000
0000
,
0010
0001
0100
1000
0001
0010
1000
0000
,
1001
0100
0010
0000
1001
0100
0010
0000
,
0001
0000
1000
0000
0010
1000
0001
0100
,
1000
0010
1000
0001
1000
0010
0001
0100
,
0010
0000
0000
0000
0000
1100
0011
0000
,
1100
0001
0100
0000
0101
1000
0100
0000
,
0010
0011
0010
1010
,
0100
0000
0000
0000
0000
0101
1010
0000
,
0010
0000
0010
0000
0010
1000
0010
0001
,
0100
0001
1000
0010
,
0100
0000
0000
0000
0010
0101
0010
1100
,
0010
0000
0000
0000
1000
0101
0001
1100
,
0010
0000
0000
0000
0010
0001
0100
1000
,
0010
0001
0100
1000
0010
0001
1001
0000
,
1000
0000
0000
0010
0000
0000
1000
0000
0001
0000
0000
0100
0000
0000
0001
0000
,
1000
0000
0000
0100
0000
0000
1000
0000
0001
0000
0000
0010
0000
0000
0001
0000
,
1000
1000
1000
0000
0100
0100
0100
0000
,
0010
0001
0100
0010
1000
0100
0001
0000
,
0010
0000
0000
1000
0000
0000
0010
0000
0100
0000
0000
0001
0000
0000
0100
0000
,
0010
0000
0000
0001
0000
0000
0010
0000
0100
0000
0000
1000
0000
0000
0100
0000
,
0011
0000
0000
1010
0000
0000
1001
0000
0000
0000
0000
0000
0110
0000
0000
0000
,
0010
1000
0001
0100
0010
1000
0001
0100
;

//---------------dance-double - ----------------
#NOTES:
     dance-double:
     :
     Easy:
     4:
     :
00000000
00000000
00000000
00000000
,
00000000
00000000
00000000
00000000
,
00000000
00000000
00000000
00000000
,
00000000
00000000
00000000
00000000
,
00000000
00001000
00010000
00001000
,
00010000
01000000
00001000
00000100
,
00010000
01000000
00001000
00000100
,
00000010
00000000
00000000
00000010
00000000
00000000
00000010
00000000
00000000
00000000
00000000
00000000
00000000
00000000
00000000
00000000
,
00000000
00000000
00001000
00010000
,
00001000
00000100
00010000
01000000
,
00001000
00000100
00010000
01000000
,
00100000
00000000
00000000
00100000
00000000
00000000
00100000
00000000
00000000
00000000
00000000
00000000
00000000
00000000
00000000
00000000
,
00000000
00010000
00001000
00000001
,
00000010
00001000
00000100
00010000
,
00100000
10000000
01000000
00010000
,
00001000
00000000
00000000
00001000
00000000
00000000
00001000
00000000
00000000
00000000
00000000
00000000
00000000
00000000
00000000
00000000
,
00000000
00000000
00010000
10000000
,
00100000
00010000
01000000
00001000
,
00000010
00000001
00000100
00001000
,
00010000
00000000
00000000
00010000
00000000
00000000
00010000
00000000
00000000
00000000
00000000
00000000
00000000
00000000
00000000
00000000
,
00100000
00010000
00000010
00001000
,
00000000
01000000
00000000
00000100
,
00000000
00100000
00000000
00000010
,
00001000
00000100
00000001
00000010
,
00001000
00000000
00000000
00000000
00000000
00000001
00000100
00000000
,
00000000
00000010
00000000
00100000
,
00000000
00000100
00000000
01000000
,
00010000
00001000
00010000
00000000
,
00100000
00000000
00000010
00000000
,
00001000
00010000
00001000
00010000
,
00100000
10000000
01000000
00010000
,
00100000
10000000
01000000
00010000
,
00001000
00000100
00000001
00000010
,
00000000
00001000
00010000
00001000
,
00010000
01000000
00001000
00000100
,
00010000
01000000
00001000
00000100
,
00000001
00000000
00000000
00000001
00000000
00000000
00000001
00000000
00000000
00000000
00000000
00000000
00000000
00000000
00000000
00000000
,
00000000
00000000
00001000
00010000
,
00001000
00000100
00010000
01000000
,
00001000
00000100
00010000
01000000
,
10000000
00000000
00000000
10000000
00000000
00000000
10000000
00000000
00000000
00000000
00000000
00000000
00000000
00000000
00000000
00000000
,
10000000
00010000
00001000
00000001
;

//---------------dance-double - ----------------
#NOTES:
     dance-double:
     :
     Medium:
     7:
     :
00000000
00000000
00000000
00000000
,
00000000
00000000
00000000
00000000
,
00000000
00000000
00000000
00000000
,
00000000
00000000
00000000
00000000
,
00000000
00000000
00000000
00000000
00001000
00000001
00000010
00000100
,
00001000
00010000
01000000
00000000
00010000
00001000
00000100
00000000
,
00001000
00010000
01000000
00000000
00010000
00001000
00000100
00000000
,
00110000
00001010
00110000
00001010
,
00011000
00000000
00010000
00000000
00000010
00000100
00001000
00010000
,
00100000
00010000
00001000
00000000
00000010
00001000
00010000
00000000
,
00100000
00010000
00001000
00000000
00000010
00001000
00010000
00000000
,
00001100
01010000
00001100
01010000
,
00011000
00000000
00001010
00000000
00001000
00010000
00100000
01000000
,
10000000
01000000
00100000
00000000
00010000
01000000
00100000
00000000
,
10000000
01000000
00010000
00000000
10000000
00100000
00010000
00000000
,
00001000
00000100
00001000
00000010
00000001
00001000
00000100
00000000
,
00010000
00100000
00010000
01000000
10000000
00010000
00100000
00000000
,
01000000
00010000
00001000
00000000
00001000
00010000
01000000
00000000
,
00100000
00010000
00001000
00000000
00001000
00010000
00100000
00000000
,
11000000
00110000
00011000
00001100
,
00000011
00000000
00000100
00001000
00010000
00001000
00100000
00000000
,
00001000
00000010
00010000
01000000
,
00001000
00000010
00010000
01000000
,
10000000
00000000
00000000
10000000
00000000
00000000
10000000
00000000
00010000
00000000
00000000
00010000
00000000
00000000
00010000
00000000
,
00100000
00000000
11000000
00110000
,
00001000
00000100
00010000
00100000
,
00001000
00000100
00010000
00100000
,
10000000
00000000
00010000
00000000
00000000
10100000
00110000
00000000
,
00000000
00000000
00001000
00000001
,
00001010
00001100
00000101
00000011
,
00001000
00000000
00000000
00000000
00001000
00000010
00000100
00000001
,
00001000
00000000
00000000
00000000
00000010
00000101
00001100
00000010
,
00000001
00001000
00010000
00100000
,
00000000
00001000
00010000
00001000
00010000
00010000
00001000
00000000
,
00000010
00010000
01000000
00000000
00100000
00001000
00000100
00000000
,
00000010
00010000
01000000
00000000
00100000
00001000
00000100
00000000
,
00011000
00010010
00011000
00101000
,
00001000
00000100
00001000
00010000
,
01000000
00001000
00000010
00000000
00000100
00010000
00100000
00000000
,
01000000
00001000
00000010
00000000
00000100
00010000
00100000
00000000
,
10000000
00000000
00000000
10000000
00000000
00000000
10000000
00000000
00000000
00000000
00000000
00000000
01100000
00000000
00000000
00000000
,
10000000
00010000
00000000
00000001
;
