#TITLE:Feels Just Like It Should;
#ARTIST:Jamiroquai;
#BANNER:Feels Just Like It Should.png;
#BACKGROUND:Feels Just Like It Should-bg.png;
#CDTITLE:./CDTITLES/DANCING STAGE UNLEASHED 3.png;
#MUSIC:Feels Just Like It Should.ogg;
#SAMPLESTART:30.855;
#SAMPLELENGTH:15;
#DISPLAYBPM:87;
#BPMS:0=87.106,52=87.055,84=86.868,104=86.832,120=87.067,136=87.145;
#BGCHANGES:4=Feels Just Like It Should.avi=1=0=0=0,151=Feels Just Like It Should-bg.png=1=0=0=1;

//---------------dance-single - ----------------
#NOTES:
     dance-single:
     :
     Beginner:
     1:
     :
0000
0000
0000
0000
,
0000
0000
0000
0000
,
0000
0000
0000
0000
,
0000
0000
0000
0000
,
0000
0000
0000
0000
,
1000
0000
0000
0000
,
0001
0000
0000
0000
,
0100
0000
0000
0000
,
0010
0000
0000
0000
,
1000
0000
1000
0000
,
1000
0000
0000
0000
,
0001
0000
0001
0000
,
0001
0000
0000
0000
,
0100
0000
0010
0010
,
0010
0000
1000
0000
,
0001
0000
0100
0100
,
0100
0000
0010
0000
,
1000
0000
0100
0100
,
0100
0000
0000
0000
,
0001
0000
0100
0100
,
0100
0000
0010
0000
,
1001
0000
0000
0000
,
1000
0000
0000
0000
,
0100
0000
0000
0000
,
0010
0000
0000
0000
,
2002
0000
0000
3003
,
1000
0000
0001
0000
,
0200
0000
0000
0300
,
0100
0000
0010
0000
,
2000
0000
0000
3000
,
1000
0000
0001
0000
,
0020
0000
0000
0030
,
0010
0000
0100
0000
,
2000
0000
0000
3000
,
1000
0000
0001
0000
,
1000
0000
0010
0000
,
0100
0000
0000
0000
;

//---------------dance-single - ----------------
#NOTES:
     dance-single:
     :
     Easy:
     3:
     :
0000
0000
0000
0000
,
0000
0000
0000
0000
,
0000
0000
0000
0000
,
0000
0000
0000
0000
,
0000
0000
0000
0000
,
1000
1000
1000
0000
,
0001
1000
0001
0001
,
0100
0100
0100
0000
,
0010
0100
0010
0010
,
1000
1000
1000
0000
,
0100
1000
0100
0100
,
0010
0010
0010
0000
,
0001
1000
0001
1000
,
1001
0000
0010
0100
,
0010
0000
0100
0010
,
0110
0000
1000
0001
,
1000
0000
0001
1000
,
1001
0000
0100
0001
,
0010
0000
0001
1000
,
1001
0000
0100
1000
,
0010
0000
1000
0001
,
2002
0000
0000
3003
,
0001
0000
0100
0000
,
0001
0000
1000
0000
,
0100
0000
1000
0000
,
0010
0200
0000
0300
,
0110
0010
0100
0010
,
1000
0000
0001
0000
,
0010
0100
0010
0100
,
1000
0000
0001
0000
,
2000
0000
0000
3000
,
0200
0000
0000
0300
,
0002
0000
0000
0003
,
0100
1000
0001
1000
,
1001
0000
0100
0000
,
1001
0000
0010
0000
,
1001
0000
0000
0000
;

//---------------dance-single - ----------------
#NOTES:
     dance-single:
     :
     Medium:
     5:
     :
0000
0000
0000
0000
,
0000
0000
0000
0000
,
0000
0000
0000
0000
,
0000
0000
0000
0000
,
0000
0000
0000
0000
,
1000
0100
0001
0000
0100
0010
0001
0000
,
1000
0001
0100
0000
0010
0010
0010
0000
,
0100
0010
1000
0010
0001
0100
0000
0000
,
0001
0001
1000
1000
0010
1000
0010
0000
,
1000
0000
1000
0000
0001
0100
0001
0000
,
1000
0000
1000
0000
0010
1000
0010
0000
,
0100
0100
0100
0000
0001
0000
1000
0000
,
0001
0001
0001
1000
0001
0100
0010
0000
,
2000
0000
3001
0100
,
0020
0000
0000
0000
1030
0000
0100
0100
,
2000
0000
3001
0100
,
0020
0000
0000
0000
1030
0001
0100
0000
,
0200
0000
0301
0010
,
0200
0000
0000
0000
1300
0000
0001
0001
,
0100
0000
0010
0000
1000
0001
1000
0000
,
0001
0001
0001
0000
1000
0010
1000
0000
,
0100
1000
0010
0010
0010
1000
0100
0100
,
0100
1000
0010
0000
0001
0010
0100
0000
,
1000
1000
0002
0000
2003
0000
3001
0100
,
0020
0000
0230
0000
0310
1000
0100
0000
,
1000
0100
0010
0000
0020
0000
0030
0000
,
0001
1000
0001
0000
0010
0100
1000
0000
,
0001
1000
0001
0000
0100
0001
0010
0000
,
0100
0100
0100
0000
0010
0010
0010
0000
,
1000
0001
0000
0001
0010
1000
0010
0000
,
0100
0000
0100
0000
0001
0100
0001
0000
,
0100
0000
0100
0000
0010
0100
0010
0000
,
1000
1000
1000
0001
0100
0010
1000
0000
,
0001
0001
0001
0000
1000
0010
1000
0000
,
0100
0100
1000
0000
0001
0001
0100
0000
,
0010
0010
1000
0000
0100
0010
0002
0000
,
1003
0000
0000
0000
;

//---------------dance-single - ----------------
#NOTES:
     dance-single:
     :
     Hard:
     7:
     :
0000
0000
0000
0000
,
0000
0000
0000
0000
,
0000
0000
0000
0000
,
0000
0000
0000
0000
,
0000
0000
0000
0000
,
0100
0000
0100
0000
0001
0000
0000
1000
0000
0100
0000
0100
0000
1000
0001
0000
,
0010
1001
0100
1001
,
0100
0000
0100
0000
1000
0000
0000
0001
0000
0100
0000
0100
0000
0001
1000
0000
,
0010
0000
0100
0000
0001
2000
0002
3003
,
1001
0000
0010
0001
1000
0100
0000
1000
,
0000
0000
0001
0000
0010
0000
0100
0000
1000
0000
0000
0001
0000
1000
0000
0010
,
0100
0000
0100
0000
0001
0000
0000
1000
0000
0100
0000
0100
0000
0010
0001
0000
,
0100
0100
0001
0001
0010
0010
0100
0100
,
1001
0000
1000
0000
0010
0000
0000
0110
0000
0101
0000
1001
0000
1010
0000
0010
,
0100
0001
0000
0001
1000
0000
1000
0100
0000
0001
0000
0100
0000
2000
0000
0000
,
3001
0000
0001
0000
0010
0000
0000
0110
0000
1100
0000
1001
0000
0011
0000
0010
,
0100
0000
1000
0000
0100
0010
0000
0100
1000
0000
0100
0000
0010
0002
0000
0000
,
1003
0000
1000
0000
0100
0000
0000
1001
0000
0011
0000
0110
0000
1100
0000
1001
,
0000
0000
0100
0000
0001
0000
0010
0000
0001
0000
1000
0000
0100
2000
0000
0000
,
3001
0000
0001
0000
0100
0000
0000
1001
0000
1010
0000
0110
0000
0101
0000
1001
,
0000
0000
0000
0010
0001
0010
0100
1000
0100
0000
1000
0010
0000
0100
0000
0001
,
1000
0001
1000
0001
0010
0100
1000
0001
,
1000
0000
0001
0100
0001
0000
0000
1000
0100
1000
0001
0000
0000
0000
1000
0010
,
0000
0100
0000
0010
0100
0001
0100
0010
1000
0000
0001
1000
0001
0000
1000
0000
,
0000
0100
0010
0000
0001
0000
0000
0010
0001
0100
0001
1000
0010
1000
0100
2000
,
0000
0002
0000
0000
0000
0000
0000
0000
0000
0000
0000
0000
0000
0000
3003
0000
,
1001
0000
1000
0000
0010
0000
0000
1010
0000
0110
0000
0101
0000
0001
0010
0000
,
0100
1000
0000
0010
0100
0000
0001
0010
0000
1000
0000
0010
0000
0002
0000
0000
,
1003
0000
1000
0000
0100
0000
0000
0110
0000
0011
0000
1001
0000
0001
0100
0000
,
0001
0000
0010
0000
0100
0010
0000
0001
0010
0000
0100
0000
1000
0002
0000
2000
,
0003
0000
0000
3200
0000
0000
0000
0302
0000
0000
0000
0103
0000
1000
0001
2000
,
0000
0000
0000
3020
0000
0000
0000
0032
0000
0000
0000
0013
0000
1000
0001
2000
,
0000
0000
0000
3002
0000
0000
0000
0203
0000
0000
0010
0300
0010
0000
1000
0000
,
0100
0000
0000
0100
1000
0010
0100
0001
0010
0100
1000
0000
1000
0001
0000
0001
,
0100
0000
0100
0000
0001
0000
0000
0010
0000
0010
0100
0000
1000
0000
0001
0000
,
0100
0000
0100
0000
0010
0000
0000
1000
0000
0000
0000
0010
0100
0000
0001
0000
,
1001
0000
0000
0000
;

//---------------dance-double - ----------------
#NOTES:
     dance-double:
     :
     Beginner:
     1:
     :
00000000
00000000
00000000
00000000
,
00000000
00000000
00000000
00000000
,
00000000
00000000
00000000
00000000
,
00000000
00000000
00000000
00000000
,
00000000
00000000
00000000
00000000
,
10000000
00000000
00000000
00000000
,
00100000
00000000
00000000
00000000
,
00010000
00000000
00000000
00000000
,
00001000
00000000
00000000
00000000
,
00010000
00000000
00010000
00000000
,
00010000
00000000
00000000
00000000
,
00001000
00000000
00001000
00000000
,
00001000
00000000
00000000
00000000
,
00000100
00000000
00000001
00000001
,
00000001
00000000
00000010
00000000
,
00001000
00000000
00010000
00010000
,
00010000
00000000
01000000
00000000
,
10000000
00000000
00010000
00010000
,
00010000
00000000
00100000
00000000
,
00001000
00000000
00010000
00010000
,
00010000
00000000
00001000
00000000
,
00011000
00000000
00000000
00000000
,
00000100
00000000
00000000
00000000
,
00000001
00000000
00000000
00000000
,
00001000
00000000
00000000
00000000
,
00002002
00000000
00000000
00003003
,
00001000
00000000
00000100
00000000
,
00020000
00000000
00000000
00030000
,
00010000
00000000
00001000
00000000
,
00200000
00000000
00000000
00300000
,
00100000
00000000
01000000
00000000
,
20000000
00000000
00000000
30000000
,
10000000
00000000
00100000
00000000
,
02000000
00000000
00000000
03000000
,
01000000
00000000
00100000
00000000
,
00010000
00000000
00001000
00000000
,
00000100
00000000
00000000
00000000
;

//---------------dance-double - ----------------
#NOTES:
     dance-double:
     :
     Easy:
     4:
     :
00000000
00000000
00000000
00000000
,
00000000
00000000
00000000
00000000
,
00000000
00000000
00000000
00000000
,
00000000
00000000
00000000
00000000
,
00000000
00000000
00000000
00000000
,
00010000
00010000
00010000
00000000
,
10000000
01000000
10000000
10000000
,
01000000
01000000
01000000
00000000
,
00010000
00001000
00010000
00010000
,
00001000
00001000
00001000
00000000
,
00000100
00000001
00000100
00000100
,
00000001
00000001
00000001
00000000
,
00000100
00001000
00010000
00001000
,
00011000
00000000
00010000
00100000
,
10000000
00000000
00010000
10000000
,
10010000
00000000
10000000
01000000
,
00010000
00000000
00010000
00001000
,
00011000
00000000
00001000
00000100
,
00000001
00000000
00001000
00000001
,
00001001
00000000
00000001
00000010
,
00001000
00000000
00010000
00001000
,
00022000
00000000
00000000
00033000
,
00010000
00000000
01000000
00000000
,
10000000
00000000
00100000
00000000
,
00010000
00000000
00001000
00000000
,
00000100
00000002
00000000
00000003
,
00001001
00000001
00000100
00000010
,
00000100
00000001
00000010
00001000
,
00010000
01000000
10000000
00100000
,
01000000
00100000
10000000
01000000
,
00020000
00000000
00000000
00030000
,
00002000
00000000
00000000
00003000
,
00000200
00000000
00000000
00000300
,
00000001
00001000
00000001
00001000
,
00001001
00000000
00001000
00000000
,
00011000
00000000
00010000
00000000
,
10010000
00000000
00000000
00000000
;

//---------------dance-double - ----------------
#NOTES:
     dance-double:
     :
     Medium:
     5:
     :
00000000
00000000
00000000
00000000
,
00000000
00000000
00000000
00000000
,
00000000
00000000
00000000
00000000
,
00000000
00000000
00000000
00000000
,
00000000
00000000
00000000
00000000
,
00010000
00001000
00010000
00000000
00001000
00000100
00000001
00000000
,
00001000
00000001
00001000
00000000
00000100
00000100
00000100
00000000
,
00001000
00000100
00010000
00001000
00010000
00000100
00001000
00000000
,
00010000
00010000
00001000
00001000
00100000
00010000
00100000
00000000
,
01000000
00000000
01000000
00000000
10000000
01000000
10000000
00000000
,
00010000
00000000
00010000
00000000
01000000
00100000
01000000
00000000
,
10000000
10000000
10000000
00000000
01000000
00000000
00010000
00000000
,
00100000
00100000
00100000
00001000
00010000
00001000
00100000
00000000
,
00002000
00000000
00013000
00000100
,
00002000
00000000
00000000
00000000
00003001
00000000
00000100
00000100
,
00000020
00000000
00001030
00000100
,
00000002
00000000
00000000
00000000
00000103
00001000
00000100
00000000
,
00020000
00000000
00031000
00100000
,
00020000
00000000
00000000
00000000
10030000
00000000
00010000
00010000
,
01000000
00000000
00100000
00000000
10000000
01000000
10000000
00000000
,
01000000
01000000
01000000
00000000
00010000
01000000
00010000
00000000
,
00001000
00010000
00000100
00000100
00000100
00001000
00000010
00000010
,
00000010
00001000
00000100
00000000
00000010
00000001
00000100
00000000
,
00000010
00000010
00000200
00000000
00002300
00000000
00013000
00001000
,
00020000
00000000
02030000
00000000
03100000
00010000
01000000
00000000
,
00100000
10000000
01000000
00000000
00200000
00000000
00300000
00000000
,
00010000
10000000
00010000
00000000
10000000
01000000
00010000
00000000
,
00001000
00010000
00001000
00000000
00010000
00001000
00000100
00000000
,
00000001
00000001
00000001
00000000
00001000
00001000
00001000
00000000
,
00000100
00000010
00000000
00000010
00000100
00000001
00000100
00000000
,
00000010
00000000
00000010
00000000
00001000
00010000
00001000
00000000
,
00010000
00000000
00010000
00000000
01000000
00100000
01000000
00000000
,
10000000
10000000
10000000
00010000
00100000
01000000
10000000
00000000
,
00100000
00100000
00100000
00000000
01000000
00010000
01000000
00000000
,
00001000
00001000
00010000
00000000
00000100
00000100
00001000
00000000
,
00000010
00000010
00000100
00000000
00000001
00001000
00000200
00000000
,
00000310
00000000
00000000
00000000
;

//---------------dance-double - ----------------
#NOTES:
     dance-double:
     :
     Hard:
     7:
     :
00000000
00000000
00000000
00000000
,
00000000
00000000
00000000
00000000
,
00000000
00000000
00000000
00000000
,
00000000
00000000
00000000
00000000
,
00000000
00000000
00000000
00000000
,
10000000
00000000
10000000
00000000
00100000
00000000
00000000
01000000
00000000
00100000
00000000
00100000
00000000
01000000
00010000
00000000
,
00100000
00011000
00000100
00000110
,
00000001
00000000
00000001
00000000
00000010
00000000
00000000
00000100
00000000
00000010
00000000
00000010
00000000
00000100
00001000
00000000
,
00000010
00000000
00000100
00000000
00001000
00020000
00002000
00033000
,
00001000
00000000
00010000
00000000
01000000
00000000
00000000
10000000
00000000
00010000
00000000
00010000
00000000
10000000
01000000
00000000
,
00100000
00000000
00000000
00000000
00010000
00000000
10000000
00000000
01000000
00000000
00000000
00010000
00000000
00000000
00001000
00000000
,
00010000
00000000
00001000
00000000
00000100
00000000
00000000
00000001
00000000
00001000
00000000
00001000
00000000
00000001
00000100
00000000
,
00000010
00000010
00000100
00000100
00001000
00001000
00010000
00010000
,
00011000
00000000
00000000
00000000
00000000
00000000
00000000
00100000
00000000
10000000
00000000
00100000
00000000
00010000
00000000
01000000
,
00100000
10000000
00000000
00100000
01000000
00000000
00100000
10000000
00000000
01000000
00000000
00010000
00000000
00002000
00000000
00000000
,
00003100
00000000
00000000
00000000
00000000
00000000
00000000
00000010
00000000
00000001
00000000
00000010
00000000
00001000
00000000
00000100
,
00000010
00000000
00000001
00000000
00000100
00000010
00000000
00000100
00000001
00000000
00001000
00000000
00000010
00000200
00000000
00000000
,
00001300
00000000
00000000
00000000
00000000
00000000
00000000
01000000
00000000
00010000
00000000
00100000
00000000
10000000
00000000
00100000
,
00000000
00000000
00010000
00000000
10000000
00000000
00010000
00000000
01000000
00000000
00100000
00000000
01000000
00200000
00000000
00000000
,
00310000
00000000
00000000
00000000
00000000
00000000
00000000
00000100
00000000
00001000
00000000
00000010
00000000
00000001
00000000
00000010
,
00000000
00001000
00000100
00000010
00000001
00000100
00001000
00010000
,
01000000
00010000
00001000
00000100
00001000
00010000
00100000
00010000
,
00001000
00000000
00010000
00001000
00010000
00000000
00000000
00000100
00001000
00000100
00000010
00000000
00000000
00000000
00000100
00001000
,
00000000
00000010
00000000
00000100
00000001
00000010
00000001
00000100
00001000
00000000
00010000
00001000
00010000
00000000
00001000
00000000
,
00000000
00010000
00100000
00000000
10000000
00000000
00000000
00100000
10000000
01000000
10000000
00010000
01000000
00010000
00100000
00002000
,
00000000
00020000
00000000
00000000
00000000
00000000
00000000
00000000
00000000
00000000
00000000
00000000
00000000
00000000
00033000
00000000
,
00011000
00000000
00001000
00000000
00000100
00000000
00000000
00000110
00000000
00000101
00000000
00001001
00000000
00000001
00000010
00000000
,
00000100
00001000
00000000
00000010
00000100
00000000
00000001
00000010
00000000
00001000
00000000
00010000
00000000
02000000
00000000
00000000
,
13000000
00000000
10000000
00000000
01000000
00000000
00000000
01100000
00000000
11000000
00000000
10010000
00000000
00010000
01000000
00000000
,
00100000
00000000
10000000
00000000
00100000
01000000
00000000
00100000
10000000
00000000
01000000
00000000
00010000
02000000
00000000
00020000
,
00000000
03000000
00000000
00032000
00000000
00000000
00000000
00003200
00000000
00000000
00000000
00000301
00000000
00001000
00000100
00000020
,
00000000
00000000
00000000
00002030
00000000
00000000
00000000
00023000
00000000
00000000
00000000
01030000
00000000
10000000
01000000
00020000
,
00000000
00000000
00000000
00032000
00000000
00000000
00000000
00003200
00000000
00000000
00000001
00000300
00000001
00000000
00001000
00000000
,
00000010
00000000
00000000
00000010
00001000
00000100
00000010
00000001
00000100
00000010
00000000
00001000
00000000
00000100
00000000
00010000
,
00001000
00000000
00100000
00000000
00010000
00000000
00000000
10000000
00000000
10000000
00010000
00000000
01000000
00000000
00100000
00000000
,
10000000
00000000
10000000
00000000
01000000
00000000
00000000
00010000
00000000
00001000
00000000
00010000
00001000
00000000
00010000
00000000
,
00011000
00000000
00000000
00000000
;
