#TITLE:Wonderful Night;
#ARTIST:Fatboy Slim;
#BANNER:Wonderful Night.png;
#BACKGROUND:Wonderful Night-bg.png;
#CDTITLE:./CDTITLES/DANCING STAGE UNLEASHED 2.png;
#MUSIC:Wonderful Night.ogg;
#SAMPLESTART:46.6;
#SAMPLELENGTH:15;
#DISPLAYBPM:160;
#BPMS:0=159.98;
#BGCHANGES:3=Wonderful Night.avi=1=0=0=0,270=Wonderful Night-bg.png=1=0=0=1;

//---------------dance-single - ----------------
#NOTES:
     dance-single:
     :
     Beginner:
     1:
     :
0000
0000
0000
0000
,
0000
0000
0000
0000
,
0000
0000
0000
0000
,
0000
0000
0000
0000
,
0000
0000
0000
0000
,
0000
0000
0000
0000
,
0000
0000
0000
0000
,
0010
0000
0100
0000
,
0100
0000
0010
0000
,
0001
0000
0001
0000
,
0100
0000
0001
0000
,
0100
0000
0100
0000
,
1000
0000
0100
0000
,
0010
0000
0001
0000
,
0100
0000
0010
0000
,
0100
0000
0100
0000
,
1000
0000
1000
0000
,
0010
0000
0010
0000
,
1000
0000
1000
0000
,
0100
0000
1000
0000
,
0100
0000
0001
0000
,
0100
0000
1000
0000
,
0100
0000
0010
0000
,
1000
0000
0100
0000
,
1000
0000
0010
0000
,
0010
0000
0001
0000
,
1000
0000
0001
0000
,
0001
0000
1000
0000
,
0100
0000
0001
0000
,
0100
0000
0100
0000
,
1000
0000
0010
0000
,
0001
0000
0100
0000
,
0100
0000
0001
0000
,
0001
0000
0010
0000
,
0001
0000
0100
0000
,
0100
0000
0001
0000
,
0001
0000
0100
0000
,
0010
0000
0001
0000
,
0100
0000
1000
0000
,
0100
0000
1000
0000
,
1001
0000
0100
0000
,
1001
0000
0100
0000
,
1001
0000
0100
0000
,
1001
0000
0010
0000
,
1001
0000
1000
0000
,
1001
0000
0001
0000
,
1001
0000
0000
0000
,
0100
0000
0001
0000
,
0100
0000
1000
0000
,
0100
0000
0001
0000
,
0100
0000
1000
0000
,
0010
0000
0001
0000
,
0010
0000
1000
0000
,
0100
0000
0001
0000
,
0010
0000
1000
0000
,
0100
0000
0100
0000
,
1000
0000
0100
0000
,
1000
0000
0001
0000
,
0100
0000
0001
0000
,
0010
0000
1000
0000
,
0010
0000
0001
0000
,
1000
0000
0100
0000
,
0010
0000
0001
0000
,
0100
0000
0001
0000
,
0010
0000
0100
0000
,
0001
0000
0010
0000
,
1001
0000
1000
0000
,
1001
0000
0000
0000
;

//---------------dance-single - ----------------
#NOTES:
     dance-single:
     :
     Easy:
     6:
     :
0000
0000
0000
0000
,
0000
0000
0000
0000
,
0000
0000
0000
0000
,
0000
0000
0000
0000
,
0000
0000
0000
0000
,
0000
0000
0000
0000
,
0000
0000
0000
0000
,
0010
1000
0100
0001
,
0100
1000
0010
0100
,
0001
1000
0001
1000
,
0100
0010
0001
0001
,
0100
1000
0100
0010
,
1000
1000
0100
1000
,
0010
0100
0001
1000
,
0100
0010
0010
0001
,
0100
0001
0100
0001
,
1000
0100
1000
0100
,
0010
0001
0010
0001
,
1000
0010
1000
0010
,
0100
0001
1000
0100
,
0100
1000
0001
0010
,
0100
0010
1000
0001
,
0100
0001
0010
0100
,
1000
0001
0100
0100
,
1000
0001
0010
0010
,
0010
0100
0001
1000
,
1000
0100
0001
0010
,
0001
0100
1000
0010
,
0100
0100
0001
0001
,
0100
1000
0100
0100
,
1000
1000
0010
0100
,
0001
1000
0100
0010
,
0100
1000
0001
0100
,
0001
1000
0010
0100
,
0001
1000
0100
1000
,
0100
0010
0001
0100
,
0001
0010
0100
1000
,
0010
0100
0001
1000
,
0100
0010
1000
0010
,
0100
0001
1000
0100
,
1001
0001
0100
0010
,
1001
1000
0100
0010
,
1001
0010
0100
0010
,
1001
0100
0010
0100
,
1001
0010
1000
0100
,
1001
0100
0001
0010
,
1001
0000
0000
0000
,
0100
1000
0001
0000
,
0100
0001
1000
0000
,
0100
0010
0001
0000
,
0100
0010
1000
0000
,
0010
0100
0001
0001
,
0010
0100
1000
1000
,
0100
0010
0001
1000
,
0010
0100
1000
0001
,
0100
0010
0100
0010
,
1000
0010
0100
0100
,
1000
1000
0001
1000
,
0100
0001
0001
0100
,
0010
1000
1000
0100
,
0010
0001
0001
0100
,
1000
0100
0100
0001
,
0010
0001
0001
0010
,
0100
1000
0001
0100
,
0010
1000
0100
1000
,
0001
0100
0010
0100
,
1001
0010
1000
0100
,
1001
0000
0000
0000
;

//---------------dance-single - ----------------
#NOTES:
     dance-single:
     :
     Medium:
     8:
     :
0000
0000
0000
0000
,
0000
0000
0000
0000
,
0000
0000
0000
0000
,
0000
0000
0000
0000
,
0000
0000
0000
0000
,
0000
0000
0000
0000
,
0000
0000
0000
0000
,
0001
0000
1000
0000
0100
1000
0010
0000
,
0000
0010
0001
1000
0100
0010
0000
0000
,
1000
0000
0100
0000
0000
0010
0001
0000
,
0001
0100
1000
0000
0100
1000
0001
0000
,
0010
0000
1000
0000
0000
1000
0001
0000
,
0000
0100
0010
0000
0000
0001
0100
0000
,
0010
0000
1000
0100
0001
0100
1000
0000
,
0000
0000
1000
0010
0100
1000
0010
0000
,
0100
0000
0001
0000
0001
0100
0001
0000
,
1000
0000
0100
0000
0001
0010
0000
0100
,
0010
0000
0001
0100
0010
0100
0001
0000
,
1000
0100
1000
0000
1000
0100
0000
0010
,
0000
0000
0010
0000
0000
0001
0100
0000
,
1000
0100
0001
0000
0000
1000
0010
0100
,
0000
0000
0010
0000
0001
0000
1000
0001
,
0100
0000
1000
0100
0001
0000
0010
0001
,
0000
0001
0010
0000
0100
1000
0010
1000
,
0010
0100
0001
0100
0001
0100
0001
0000
,
1000
0100
0010
0000
0001
0010
0100
0000
,
1000
0100
0000
0000
0001
0100
1000
0100
,
0001
1000
0000
0000
0100
0010
0001
0000
,
0001
0010
0100
0000
0100
1000
0010
0000
,
1000
0010
0100
0010
0001
0010
0100
0010
,
0100
1000
0100
0010
0100
0010
0001
0010
,
0100
0000
0010
0000
0000
1000
0100
0000
,
1000
0100
0001
0000
0000
1000
0100
0000
,
0010
0001
0010
0000
0100
1000
0010
0000
,
0100
0010
0100
0000
1000
0001
1000
0000
,
1100
0000
0001
0100
0010
0100
0001
0000
,
1000
0100
0010
0100
1000
0000
0010
0100
,
0000
0001
1000
0000
0100
0010
0001
0000
,
0100
1000
0100
0000
0001
0100
0001
0000
,
1000
0000
0100
0000
0010
0001
0010
0000
,
0100
0000
1000
0000
1000
0100
1000
0000
,
0000
1000
0100
0000
0010
0001
0010
0000
,
0001
0000
0100
0010
0100
0001
1000
0000
,
1100
0000
0001
0010
0100
0000
0010
0000
,
0001
1000
0001
0000
0100
0010
0100
0000
,
0001
1000
0100
0000
0010
0001
0100
0000
,
1001
0000
0000
0000
,
1000
0000
0100
0000
0010
0000
0001
0001
,
0000
0010
0100
0000
1000
0000
0010
0100
,
0001
0000
1000
0000
0100
0000
0010
0001
,
0100
0010
0000
1000
0100
0000
0010
0001
,
0100
0000
0010
0000
1000
0100
0010
0000
,
0001
0000
0100
0000
0010
0100
0001
0000
,
1000
0000
0100
0000
1000
0100
1000
0000
,
0001
0000
0100
0000
0001
1000
0001
0000
,
0100
0010
0001
0000
0100
0010
1000
0000
,
1000
0100
0010
0000
0001
0100
1000
0000
,
0100
0001
1000
0000
0100
0010
0001
0000
,
0100
0010
0100
0001
1000
0000
0000
0010
,
0001
0000
0100
0000
0010
1000
0010
0000
,
0100
0001
0100
0000
0100
0010
0100
0000
,
1000
0001
1000
0000
0100
1000
0100
0000
,
0001
1000
0100
0010
0001
0100
0010
0000
,
1001
0000
0010
1000
0100
0000
0010
0001
,
0100
0000
0001
1000
0100
0000
1000
0001
,
0100
0000
0100
0010
1000
0000
0100
1000
,
0001
1000
0001
0100
0010
1000
0001
0000
,
1001
0000
0000
0000
;

//---------------dance-single - ----------------
#NOTES:
     dance-single:
     :
     Hard:
     8:
     :
0000
0000
0000
0000
,
0000
0000
0000
0000
,
0000
0000
0000
0000
,
0000
0000
0000
0000
,
0000
0000
0000
0000
,
0000
0000
0000
0000
,
0000
0000
0000
0000
,
1001
0000
0010
1000
0001
0010
0100
0001
,
0000
0000
0100
1000
0010
0100
0001
0010
,
0000
0000
0100
0001
1000
0100
0010
1000
,
0000
0010
0001
0100
0010
1000
0100
0000
,
1001
0000
0001
0100
0010
1000
0001
0100
,
0000
0000
0001
1000
0010
0100
1000
0001
,
0000
0000
1000
0100
0001
1000
0010
0001
,
0000
0000
0010
0100
0001
1000
0100
0000
,
1100
0100
1000
0010
0100
0001
0010
0000
,
0100
1000
0010
0100
0001
1000
0000
0101
,
0000
0000
0001
0100
1000
0100
0010
0001
,
0010
0100
1000
0100
0001
0010
0100
0100
,
0000
0100
0010
0001
0100
0010
1000
0001
,
0100
1000
0001
0010
0100
1000
0100
0100
,
0000
1000
0100
0001
0010
0100
1000
0010
,
0100
0001
1000
0100
0010
0001
0100
0100
,
0000
0100
0010
0001
0100
0010
0100
0001
,
1000
0100
0010
0001
0010
0100
1000
0000
,
1000
0001
0100
0010
0100
0001
1000
0100
,
0010
0001
0000
0010
0100
1000
0001
0000
,
0100
0100
0000
0000
0001
1000
0100
0010
,
0001
1000
0100
0010
0001
0010
0100
1000
,
0010
0001
0010
0100
0010
1000
0100
0001
,
0100
0010
0100
1000
0010
0001
0010
0100
,
0010
0000
0010
0001
1000
0010
0100
1000
,
0000
0000
0100
0001
0010
0100
1000
0010
,
0000
0000
0010
1000
0001
0100
0010
0001
,
0000
0010
1000
0100
0010
0001
0100
0000
,
1001
0000
1000
0100
0010
0001
1000
0100
,
0000
0000
1000
0001
0010
0100
0001
1000
,
0000
0000
0001
0100
1000
0001
0010
1000
,
0000
0000
0010
0100
1000
0001
0100
0000
,
1001
0000
0100
1000
0010
0100
0001
0100
,
0010
0100
0001
0100
0010
1000
0010
1000
,
0001
0100
0010
0100
0001
1000
0100
0010
,
0001
0010
0100
1000
0001
0100
0010
0000
,
1001
0000
0100
0010
0001
0010
0100
1000
,
0010
0100
0001
0010
0100
0010
0001
0010
,
0100
1000
0100
1000
0010
0100
0001
0100
,
0001
0010
0100
0010
0001
1000
0010
0000
,
0210
0000
1000
0000
0301
0000
1000
0001
,
0000
0100
0010
1000
0001
0000
1000
0001
,
0010
0000
0011
0000
1100
0000
0010
0010
,
0100
1000
0000
0001
0010
0000
1000
0010
,
0100
0000
1000
0100
0010
0001
0010
0001
,
0000
0000
0001
0100
0010
1000
0010
1000
,
0000
0000
0100
0010
1000
0100
1000
0100
,
0000
0001
0100
1000
0100
0010
0001
1000
,
0000
0001
1000
0100
0010
0001
0010
0100
,
0000
1000
0001
0100
0010
0100
0001
1000
,
0001
0100
0010
0001
0010
0100
0001
1000
,
0010
0100
0001
1000
0100
0010
0001
0001
,
0000
0000
0010
1000
0001
0010
0100
0001
,
0000
0000
0100
1000
0010
0100
0001
0010
,
0000
0000
0100
0001
1000
0100
0010
1000
,
0000
0010
0001
0100
0010
1000
0100
0000
,
1001
0000
0001
0100
0010
1000
0001
0100
,
0000
0000
0001
1000
0010
0100
1000
0001
,
0000
0000
1000
0100
0001
1000
0010
0001
,
0000
1000
0010
0100
0001
1000
0100
0000
,
1001
0000
0000
0000
;

//---------------dance-double - ----------------
#NOTES:
     dance-double:
     :
     Beginner:
     1:
     :
00000000
00000000
00000000
00000000
,
00000000
00000000
00000000
00000000
,
00000000
00000000
00000000
00000000
,
00000000
00000000
00000000
00000000
,
00000000
00000000
00000000
00000000
,
00000000
00000000
00000000
00000000
,
00000000
00000000
00000000
00000000
,
00100000
00000000
01000000
00000000
,
00001000
00000000
00000001
00000000
,
00000001
00000000
00000001
00000000
,
00000100
00000000
00010000
00000000
,
00010000
00000000
01000000
00000000
,
00010000
00000000
10000000
00000000
,
00100000
00000000
00010000
00000000
,
00000100
00000000
00000001
00000000
,
00001000
00000000
00001000
00000000
,
00100000
00000000
00100000
00000000
,
00001000
00000000
00001000
00000000
,
00000010
00000000
00000010
00000000
,
00000100
00000000
00000001
00000000
,
00001000
00000000
00001000
00000000
,
00100000
00000000
10000000
00000000
,
01000000
00000000
00100000
00000000
,
10000000
00000000
00010000
00000000
,
00001000
00000000
00000010
00000000
,
00000010
00000000
00000100
00000000
,
00001000
00000000
00001000
00000000
,
00001000
00000000
00100000
00000000
,
01000000
00000000
00010000
00000000
,
01000000
00000000
01000000
00000000
,
00010000
00000000
00100000
00000000
,
10000000
00000000
00100000
00000000
,
00001000
00000000
00000100
00000000
,
00000001
00000000
00000100
00000000
,
00000010
00000000
00000010
00000000
,
00000100
00000000
00010000
00000000
,
10000000
00000000
00010000
00000000
,
10000000
00000000
00010000
00000000
,
01000000
00000000
00010000
00000000
,
00000010
00000000
00000100
00000000
,
00001000
00000000
01000000
00000000
,
00010000
00000000
01000000
00000000
,
10000000
00000000
01000000
00000000
,
01000000
00000000
10000000
00000000
,
00010000
00000000
00000010
00000000
,
00000001
00000000
00001000
00000000
,
00001001
00000000
00000000
00000000
,
00000100
00000000
00010000
00000000
,
00010000
00000000
00100000
00000000
,
00100000
00000000
01000000
00000000
,
00100000
00000000
00001000
00000000
,
00000010
00000000
00000001
00000000
,
00000100
00000000
00010000
00000000
,
00100000
00000000
10000000
00000000
,
00100000
00000000
00001000
00000000
,
00000010
00000000
00000010
00000000
,
00000001
00000000
00000010
00000000
,
00001000
00000000
00010000
00000000
,
00010000
00000000
00010000
00000000
,
00100000
00000000
10000000
00000000
,
00100000
00000000
00010000
00000000
,
00000010
00000000
00000001
00000000
,
00000001
00000000
00001000
00000000
,
00010000
00000000
00100000
00000000
,
00100000
00000000
01000000
00000000
,
00010000
00000000
00100000
00000000
,
10010000
00000000
00010000
00000000
,
00000100
00000000
00000000
00000000
;

//---------------dance-double - ----------------
#NOTES:
     dance-double:
     :
     Easy:
     6:
     :
00000000
00000000
00000000
00000000
,
00000000
00000000
00000000
00000000
,
00000000
00000000
00000000
00000000
,
00000000
00000000
00000000
00000000
,
00000000
00000000
00000000
00000000
,
00000000
00000000
00000000
00000000
,
00000000
00000000
00000000
00000000
,
00100000
10000000
01000000
00010000
,
00001000
00000010
00000001
00000100
,
00000001
00001000
00000001
00001000
,
00000100
00001000
00010000
00100000
,
00010000
10000000
01000000
00100000
,
00010000
00010000
10000000
01000000
,
00100000
00001000
00010000
00000010
,
00000100
00000100
00000001
00000100
,
00001000
00010000
00001000
00010000
,
00100000
00010000
00100000
00010000
,
00001000
00010000
00001000
00010000
,
00000010
00001000
00000010
00001000
,
00000100
00000100
00000001
00000100
,
00001000
00000010
00001000
00010000
,
00100000
00100000
10000000
00010000
,
01000000
00010000
00100000
01000000
,
10000000
01000000
00010000
00001000
,
00001000
00000100
00000010
00000010
,
00000010
00000001
00000100
00000010
,
00001000
00000100
00001000
00010000
,
00001000
00010000
00100000
00100000
,
01000000
01000000
00010000
00010000
,
01000000
10000000
01000000
01000000
,
00010000
00010000
00100000
01000000
,
10000000
01000000
00100000
00010000
,
00001000
00000010
00000100
00000001
,
00000001
00001000
00000100
00000001
,
00000010
00000100
00000010
00000001
,
00000100
00001000
00010000
01000000
,
10000000
00010000
00010000
10000000
,
10000000
00100000
00010000
10000000
,
01000000
00100000
00010000
00001000
,
00000010
00000001
00000100
00000010
,
00001000
00010000
01000000
00100000
,
00010000
00001000
01000000
00100000
,
10000000
00100000
01000000
00010000
,
01000000
00100000
10000000
01000000
,
00010000
00001000
00000010
00000100
,
00000001
00000100
00001000
00000010
,
00001001
00000000
00000000
00000000
,
00000100
00001000
00010000
00000000
,
00010000
01000000
00100000
00000000
,
00100000
10000000
01000000
00000000
,
00100000
00010000
00001000
00000000
,
00000010
00000100
00000001
00000001
,
00000100
00001000
00010000
00010000
,
00100000
01000000
10000000
01000000
,
00100000
00010000
00001000
00000100
,
00000010
00000100
00000010
00000100
,
00000001
00000100
00000010
00000010
,
00001000
00001000
00010000
00001000
,
00010000
01000000
00010000
01000000
,
00100000
10000000
10000000
01000000
,
00100000
00010000
00010000
00001000
,
00000010
00000001
00000001
00000100
,
00000001
00000010
00001000
00001000
,
00010000
01000000
00100000
01000000
,
00100000
10000000
01000000
10000000
,
00010000
01000000
00100000
01000000
,
10010000
00100000
00010000
00001000
,
00000100
00000000
00000000
00000000
;

//---------------dance-double - ----------------
#NOTES:
     dance-double:
     :
     Medium:
     8:
     :
00000000
00000000
00000000
00000000
,
00000000
00000000
00000000
00000000
,
00000000
00000000
00000000
00000000
,
00000000
00000000
00000000
00000000
,
00000000
00000000
00000000
00000000
,
00000000
00000000
00000000
00000000
,
00000000
00000000
00000000
00000000
,
00010000
00000000
10000000
00000000
01000000
10000000
00100000
00000000
,
00000000
00100000
00010000
00000000
00001000
00000100
00000010
00000000
,
00001000
00000000
00000100
00000000
00000000
00000010
00000001
00000000
,
00000001
00000100
00001000
00000000
00000100
00001000
00010000
00000000
,
00100000
00000000
10000000
00000000
00000000
10000000
00010000
00000000
,
00000000
01000000
00100000
00000000
00000000
00010000
01000000
00000000
,
00100000
00000000
10000000
01000000
00010000
00001000
00010000
00000000
,
00000000
00000000
00001000
00000010
00000100
00001000
00000010
00000000
,
00000100
00000000
00000001
00000000
00000001
00000100
00000001
00000000
,
00000100
00000000
00001000
00000000
00010000
00100000
00000000
01000000
,
00100000
00000000
00010000
01000000
00100000
01000000
00010000
00000000
,
00010000
00001000
00010000
00000000
00001000
00000100
00000000
00000001
,
00000000
00000000
00001000
00000000
00000010
00000100
00000001
00000000
,
00000001
00000100
00001000
00000000
00010000
00001000
00000010
00000100
,
00000000
00000000
00000010
00000000
00000001
00000000
00001000
00000001
,
00000100
00000000
00000100
00001000
00010000
00000000
00010000
00100000
,
00000000
10000000
01000000
00000000
01000000
10000000
00100000
10000000
,
00100000
10000000
01000000
10000000
01000000
00010000
00001000
00000000
,
00000010
00000100
00000001
00000000
00000001
00000010
00000100
00000000
,
00000100
00000010
00000000
00000000
00000000
00000000
00000001
00000100
,
00001000
00010000
00000000
00000000
00000010
00001000
00010000
00000000
,
00100000
00010000
00001000
00000000
00001000
00010000
01000000
00000000
,
10000000
00100000
00010000
00001000
00010000
00001000
00000010
00000001
,
00000010
00000001
00000100
00001000
00000100
00001000
00010000
00100000
,
10000000
00000000
00100000
00000000
00000000
10000000
01000000
00000000
,
10000000
01000000
00010000
00000000
00000000
00001000
00000010
00000000
,
00001000
00010000
00001000
00000000
00001000
00000100
00000010
00000000
,
00000100
00001000
00010000
00000000
01000000
00010000
10000000
00000000
,
11000000
00000000
10000000
01000000
00100000
01000000
10000000
00000000
,
00010000
01000000
00100000
01000000
00010000
00000000
01000000
00001000
,
00000000
00010000
00000010
00000000
00000001
00000100
00000010
00000000
,
00001000
00000010
00001000
00000000
00000001
00000100
00000001
00000000
,
00000010
00000000
00000001
00000000
00000100
00001000
00010000
00000000
,
00100000
00000000
10000000
00000000
10000000
01000000
10000000
00000000
,
00000000
10000000
01000000
00000000
00100000
00010000
00100000
00000000
,
00001000
00000000
00010000
00001000
00010000
00001000
00000100
00000000
,
00001010
00000000
00001000
00000001
00000100
00000000
00000010
00000000
,
00001000
00000001
00001000
00000000
00000010
00001000
00000010
00000000
,
00000001
00001000
00000100
00000000
00000010
00001000
00010000
00000000
,
00011000
00000000
00000000
00000000
,
00001000
00000000
00010000
00000000
00100000
00000000
10000000
10000000
,
00000000
00100000
01000000
00000000
00010000
00000000
01000000
00010000
,
00001000
00000000
00010000
00000000
00001000
00000000
00000010
00001000
,
00000100
00000001
00000000
00000100
00001000
00000000
00000010
00000100
,
00001000
00000000
00000100
00000000
00001000
00010000
00100000
00000000
,
01000000
00000000
00100000
00000000
10000000
01000000
00010000
00000000
,
00100000
00000000
01000000
00000000
00010000
01000000
10000000
00000000
,
10000000
00000000
01000000
00000000
00010000
00100000
00010000
00000000
,
10000000
01000000
00100000
00000000
01000000
00100000
00010000
00000000
,
01000000
00010000
00001000
00000000
00010000
00001000
00000010
00000000
,
00001000
00000010
00000001
00000000
00000010
00000001
00000100
00000000
,
00000100
00000010
00000100
00000001
00001000
00000000
00000000
00000000
,
00000000
00000000
00000100
00000000
00000000
00000001
00000010
00000000
,
00000001
00000010
00001000
00000000
00000000
00010000
01000000
00000000
,
00010000
00001000
00010000
00000000
00010000
00100000
01000000
00000000
,
00100000
00010000
00001000
00000000
00000010
00001000
00000001
00000000
,
00000011
00000000
00000001
00000010
00000100
00000010
00000001
00000000
,
00001000
00000010
00000100
00000010
00001000
00000000
00000010
00010000
,
00000000
00001000
01000000
00000000
10000000
00100000
01000000
00000000
,
10000000
00010000
01000000
00100000
10000000
01000000
00100000
00000000
,
01000000
00000000
00000000
00000000
;

//---------------dance-double - ----------------
#NOTES:
     dance-double:
     :
     Hard:
     8:
     :
00000000
00000000
00000000
00000000
,
00000000
00000000
00000000
00000000
,
00000000
00000000
00000000
00000000
,
00000000
00000000
00000000
00000000
,
00000000
00000000
00000000
00000000
,
00000000
00000000
00000000
00000000
,
00000000
00000000
00000000
00000000
,
00000010
00001000
00000001
00000100
00001000
00010000
01000000
10000000
,
00000000
00000000
10000000
01000000
00010000
00001000
00010000
00001000
,
00000000
00000000
00001000
00010000
01000000
00100000
01000000
00010000
,
00000000
00010000
00001000
00000100
00000001
00000010
00000001
00000000
,
00001001
00000000
00000010
00001000
00010000
00001000
01000000
00010000
,
00000000
00000000
00100000
00010000
00001000
00010000
00000100
00001000
,
00000000
00000000
00000100
00000001
00000100
00001000
00000001
00000100
,
00000000
00001000
00010000
01000000
10000000
00100000
00010000
00000000
,
00011000
00000000
00000010
00001000
00000100
00000001
00000100
00000000
,
00001000
00000001
00000100
00001000
00010000
00010000
00000000
00200000
,
00000000
10300000
01000000
00010000
00001000
00010000
01000000
10000000
,
00100000
00010000
00001000
00000010
00000001
00000010
00000100
00000100
,
00000000
00000100
00000010
00000001
00000100
00001000
00000100
00000001
,
00000010
00001000
00010000
00100000
10000000
01000000
00100000
00100000
,
00000000
01000000
00010000
00001000
00100000
00001000
00010000
00001000
,
00000020
00000000
00000031
00000100
00001000
00010000
00100000
00100000
,
00000000
01000000
00100000
10000000
01000000
00010000
01000000
10000000
,
00100000
00010000
00001000
00000100
00000001
00000010
00000100
00000000
,
00001000
00000100
00000010
00001000
00010000
01000000
10000000
00100000
,
10000000
01000000
00000000
00000000
01000000
00010000
00001000
00000000
,
00010000
01000000
00000000
00000000
10010000
00000000
00100000
10000000
,
01000000
00100000
00010000
01000000
10000000
00000000
00010000
01000000
,
10000000
01000000
00010000
01000000
00100000
10000000
00100000
00010000
,
00001000
00000010
00000001
00000100
00000010
00000001
00000010
00000100
,
00000000
00000000
00000100
00000010
00001000
00000001
00000100
00002000
,
00000000
00000000
00013000
00100000
10000000
01000000
00010000
01000000
,
00000000
00000000
01000000
00100000
00010000
10000000
01000000
00020000
,
00000000
00031000
00000010
00000001
00000100
00001000
00000100
00000000
,
00001001
00000000
00000010
00000100
00001000
00000001
00000010
00002000
,
00000000
00000000
00013000
01000000
10000000
00100000
00010000
00100000
,
00000000
00000000
00100000
01000000
00010000
10000000
00100000
00020000
,
00000000
00031000
00000010
00000001
00000100
00001000
00000100
00000000
,
00001001
00000000
00000001
00000100
00001000
00000100
00000001
00000010
,
00001000
00000010
00000001
00000010
00001000
00010000
00100000
10000000
,
00100000
00010000
00100000
10000000
01000000
00010000
01000000
10000000
,
00100000
10000000
00100000
00010000
00001000
00010000
01000000
00000000
,
11000000
00000000
10000000
01000000
00010000
01000000
10000000
00100000
,
00010000
00100000
10000000
00100000
00010000
00001000
00000010
00000001
,
00000010
00001000
00000010
00000001
00000100
00001000
00000100
00000001
,
00000010
00000001
00000100
00001000
00010000
00100000
10000000
00000000
,
11000000
00000000
01010000
00000000
10100000
00000000
00100000
00010000
,
00000000
00001000
00000100
00000001
00000010
00000000
00000010
00001000
,
00010000
00000000
00100000
00000000
11000000
00000000
01000000
10000000
,
01000000
00010000
00000000
00001000
00000010
00000000
00000001
00000100
,
00001000
00000000
00010000
00100000
10000000
00100000
00010000
00001000
,
00000000
00000000
00001000
00000100
00000001
00000100
00001000
00010000
,
00000000
00100000
00010000
00001000
00000010
00001000
00010000
00100000
,
00000000
10000000
01000000
00010000
00001000
00000100
00001000
00010000
,
00000000
00001000
00000010
00000001
00000100
00001000
00000100
00000001
,
00000000
00000000
00001000
00000010
00000001
00000010
00001000
00000010
,
00000100
00000001
00000100
00001000
00010000
01000000
10000000
00100000
,
01000000
10000000
01000000
00010000
01000000
00100000
10000000
00010000
,
00000000
00000000
00100000
01000000
00010000
10000000
00100000
00020000
,
00000000
00000000
00031000
00000100
00000001
00000010
00001000
00000010
,
00000000
00000000
00000010
00000100
00001000
00000001
00000010
00002000
,
00000000
00013000
01000000
10000000
00100000
00010000
00100000
00000000
,
10010000
00000000
01000000
00100000
00010000
10000000
01000000
00020000
,
00000000
00000000
00031000
00000010
00000001
00000100
00001000
00000100
,
00000000
00000000
00000010
00000100
00001000
00000001
00000010
00002000
,
00000000
00013000
00100000
10000000
01000000
10000000
00100000
00000000
,
10010000
00000000
00000000
00000000
;
