#TITLE:Where's Your Head At;
#ARTIST:Basement Jaxx;
#BANNER:Where's Your Head At.png;
#BACKGROUND:Where's Your Head At-bg.png;
#CDTITLE:./CDTITLES/DANCING STAGE UNLEASHED 2.png;
#MUSIC:Where's Your Head At.ogg;
#SAMPLESTART:16.92;
#SAMPLELENGTH:15;
#DISPLAYBPM:128;
#BPMS:0=127.83;
#BGCHANGES:3=Where's Your Head At.avi=1=0=0=0,220=Where's Your Head At-bg.png=1=0=0=1;

//---------------dance-single - ----------------
#NOTES:
     dance-single:
     :
     Beginner:
     1:
     :
0000
0000
0000
0000
,
0000
0000
0000
0000
,
0000
0000
0000
0000
,
0000
0000
0000
0000
,
0000
0000
0000
0000
,
0010
0000
0100
0000
,
0001
0000
1000
0000
,
0100
0000
0010
0000
,
1000
0000
0001
0000
,
1000
0000
1000
0000
,
0001
0000
0001
0000
,
0100
0000
0100
0000
,
1000
0000
1001
0000
,
1000
0000
0001
0000
,
0001
0000
1000
0000
,
0010
0000
0100
0000
,
0100
0000
0010
0000
,
1000
0000
1000
0000
,
0010
0000
0010
0000
,
0010
0000
0100
0000
,
0010
0000
1000
0000
,
0010
0000
0010
0000
,
0100
0000
0100
0000
,
1000
0000
0001
0000
,
1000
0000
0001
0000
,
1000
0000
0001
0000
,
1000
0000
0010
0000
,
0010
0000
0100
0000
,
0001
0000
0100
0000
,
0001
0000
1000
0000
,
1001
0000
0000
0000
,
1000
0000
0001
0000
,
1001
0000
0000
0000
,
0000
0000
0000
0000
,
0000
0000
0000
0000
,
0001
0000
1000
0000
,
0001
0000
0010
0000
,
0001
0000
0100
0000
,
0010
0000
1000
0000
,
1000
0000
0001
0000
,
0100
0000
0010
0000
,
1000
0000
0001
0000
,
0010
0000
0100
0000
,
1001
0000
0110
0000
,
1000
0000
0001
0000
,
0100
0000
1000
0000
,
1000
0000
0010
0000
,
1001
0000
1000
0000
,
0001
0000
0110
0000
,
0001
0000
1000
0000
,
0001
0000
0010
0000
,
0001
0000
1000
0000
,
0010
0000
0100
0000
,
0001
0000
0010
0000
,
0001
0000
1001
0000
;

//---------------dance-single - ----------------
#NOTES:
     dance-single:
     :
     Easy:
     5:
     :
0000
0000
0000
0000
,
0000
0000
0000
0000
,
0000
0000
0000
0000
,
0000
0000
0000
0000
,
0000
0000
0000
0000
,
0020
0030
0200
0300
,
0002
1000
1000
1003
,
0200
0300
0020
0030
,
2000
0001
0001
3001
,
1000
0001
1000
1000
,
0001
1000
0001
0001
,
0100
0010
0100
0001
,
1000
0100
1001
0000
,
2000
0001
0001
3001
,
0002
1000
1000
1003
,
0020
0100
0100
0130
,
0200
0010
0010
0310
,
1000
0010
1000
0001
,
0010
0001
0010
0100
,
0010
0001
0100
0001
,
0010
0001
1000
0001
,
0010
1000
0010
0001
,
0100
1000
0100
0001
,
1000
0100
0001
0100
,
1000
0010
0001
0010
,
2000
0001
0001
3001
,
1000
0001
0010
0100
,
0020
0100
0100
0130
,
0001
0010
0100
1000
,
0002
0003
2000
3000
,
2002
0000
0000
3003
,
2000
3000
0002
0003
,
2002
0000
0000
3003
,
0000
0000
0000
0000
,
0000
0000
0000
0000
,
0002
0003
2000
3000
,
0002
0003
0020
0030
,
0002
0003
0200
0300
,
0020
0030
2000
3000
,
1000
1000
0001
0001
,
0100
0100
0010
0010
,
1000
1000
0001
0001
,
0010
0010
0100
0100
,
1001
0000
0110
0000
,
1000
0000
0001
0000
,
0200
1000
1000
1300
,
1000
0100
0010
0001
,
1001
0000
1000
0000
,
0001
0000
0110
0000
,
0002
1000
1000
1003
,
0001
1000
0010
0100
,
0001
0001
1000
1000
,
0010
0010
0100
0100
,
0002
0010
0010
0013
,
0001
1000
1001
0000
;

//---------------dance-single - ----------------
#NOTES:
     dance-single:
     :
     Medium:
     5:
     :
0000
0000
0000
0000
,
0000
0000
0000
0000
,
0000
0000
0000
0000
,
0000
0000
0000
0000
,
0000
0000
0000
0000
,
0110
0000
0000
0000
1001
0000
0000
0110
,
0000
1000
0001
1000
0001
0000
1000
0000
,
1100
0000
0000
0000
0101
0000
0000
1100
,
0000
0100
1000
0100
1000
0000
0001
0000
,
0002
0000
0000
2000
0003
0000
0020
3000
,
0000
0200
0030
0000
0001
0000
0301
0000
,
1010
0000
0000
0000
0101
0000
0000
1010
,
0000
0010
1000
0010
1000
0000
0000
0000
,
1000
0100
1000
0000
0001
0100
0001
0000
,
0010
0100
0010
0000
1000
0001
1000
0000
,
0100
0010
0100
0000
0010
0001
0010
0000
,
0100
1000
0100
0000
1000
0001
1000
0000
,
2000
0000
0000
0002
3000
0000
0200
0003
,
0000
0020
0300
0000
1000
0000
1030
0000
,
0001
0100
0001
0000
1000
0100
1000
0000
,
0001
1000
0001
0000
0110
0000
1001
0000
,
0020
0000
0000
0200
0030
0000
0002
0300
,
0000
2000
0003
0000
0010
0000
3010
0000
,
0010
1000
0010
0000
0100
0001
0100
0000
,
0010
0100
0010
0000
0110
0000
1001
0000
,
0002
0100
0100
1003
,
1000
0001
0100
0000
1000
0001
0100
0000
,
2000
0100
0100
3001
,
0001
1000
0100
0000
0001
1000
0100
0000
,
0010
0001
1000
0000
0010
0000
0100
0000
,
0002
1003
2000
3001
,
1000
0010
0100
0000
0001
0000
1000
0000
,
0020
0130
0200
0310
,
2000
0001
0000
0001
,
0000
0001
0000
3001
,
2020
3030
2002
3003
,
2200
3300
2002
3003
,
0202
0303
0022
0033
,
0220
0330
2002
3003
,
2000
3020
0230
0302
,
0203
0000
0320
0000
2030
0000
3001
0010
,
0200
2300
3002
0023
,
0230
0000
0320
0000
0031
1000
0100
0000
,
0200
0000
0000
2000
0300
0000
0020
3000
,
0000
0200
0030
0000
0001
0000
0301
0000
,
1000
0100
1000
0000
0001
0100
0001
0000
,
0010
1000
0010
0000
0110
0000
1001
0000
,
0002
0000
0000
2000
0003
0000
0020
3000
,
0000
0000
0200
0000
0030
0000
0000
0000
0010
0000
0000
0300
0010
0000
0000
0000
,
0100
0010
0100
0000
0001
1000
0001
0000
,
0100
0010
0100
0000
0110
0000
1001
0000
,
2000
0100
0100
3001
,
1000
0001
0100
0000
1000
0001
0100
0000
,
0002
0100
0100
1003
,
0100
0110
1001
0000
;

//---------------dance-single - ----------------
#NOTES:
     dance-single:
     :
     Hard:
     7:
     :
0000
0000
0000
0000
,
0000
0000
0000
0000
,
0000
0000
0000
0000
,
0000
0000
0000
0000
,
0000
0000
0000
0000
,
1000
0001
0100
0000
0100
0001
1000
0010
,
0000
0010
1000
0100
0010
0001
0100
0010
,
1000
0100
0010
0000
0001
0010
1000
0010
,
0000
0001
1000
0100
1000
0001
1000
0000
,
1010
0000
0000
0101
0000
0000
0011
0000
,
0000
1100
0000
0000
1001
0000
0101
0000
,
0001
1000
0001
0000
1000
0010
0100
0001
,
0000
0001
0100
0010
1000
0000
0000
0000
,
0010
0000
0001
0000
0100
0000
0010
0000
1000
0100
1000
0000
0100
0000
0010
0000
,
0001
0000
1000
0000
0010
0000
0100
0000
0001
0100
0001
0000
0100
0000
0010
0000
,
1000
0000
0100
0000
1000
0000
0001
0000
0010
0100
0010
0000
0100
0000
1000
0000
,
0100
0000
0010
0000
0001
0000
1000
0000
0100
0010
0100
0000
0010
0000
0001
0000
,
0011
0000
0000
1100
0000
0000
1010
0000
,
0000
0101
0000
0000
0110
0000
1001
0000
,
0001
0010
1000
0000
1000
0010
0001
0100
,
1000
0000
0100
0000
0001
0010
0001
1000
,
1100
0000
0000
0011
0000
0000
0101
0000
,
0000
1010
0000
0000
0110
0000
1001
0000
,
1000
0001
0010
0000
0010
0001
1000
0100
,
0010
0000
0100
0000
1000
0010
0001
0010
,
2000
0000
0000
0000
3002
0000
0000
2003
,
0000
3010
0100
0001
0100
0010
1000
0000
,
0002
0000
0000
0000
2003
0000
0000
3002
,
0000
0013
0100
1000
0100
0001
0100
0000
,
0020
0000
0000
0230
0000
0000
0310
0000
,
0220
0000
0000
0330
,
2000
0000
0000
3002
0000
0000
1003
0000
,
2002
0000
0000
3003
,
0002
0010
0000
1000
,
0000
0100
0000
1003
,
1000
0000
0000
0001
0000
0000
0100
0000
0001
0000
0000
1000
0000
0000
0100
0000
,
1000
0000
0000
0010
0000
0000
0100
0000
0001
0000
0000
0100
0000
0000
0010
0000
,
1000
0000
0000
0100
0000
0000
0001
0000
0100
0000
0000
1000
0000
0000
0010
0000
,
0001
0000
0000
0010
0000
0000
0001
0000
0010
0000
0000
1000
0000
0000
0000
0000
,
1001
0000
0000
0000
1001
0000
0000
0000
1000
0000
0000
1000
0001
0000
0100
0000
,
0110
0000
0000
0000
0110
0000
0000
0000
0010
0000
0000
0010
0100
0000
0001
0000
,
0101
0000
0000
0000
0101
0000
0000
0000
1000
0000
0000
1000
0100
0000
1000
0000
,
1001
0000
0000
0000
1001
0000
0000
0000
0010
0000
0000
0010
0001
0000
0010
0000
,
0011
0000
0000
1100
0000
0000
1010
0000
,
0000
0101
0000
0000
0110
0000
1001
0000
,
0002
0000
0000
0000
2003
0000
0000
3002
,
0000
0013
0100
0001
0100
0010
1000
0000
,
0101
0000
0000
1010
0000
0000
1100
0000
,
0000
0011
0000
0000
0110
0000
1001
0000
,
2000
0000
0000
3002
0000
0000
2003
0000
,
0000
3010
0100
1000
0100
0001
0100
0000
,
0010
1000
0001
0100
0010
0100
0010
0001
,
0010
1000
0010
0100
0010
1000
0100
0000
,
0110
0000
1001
0000
1000
0001
0100
0000
,
0101
1100
1001
0000
;

//---------------dance-double - ----------------
#NOTES:
     dance-double:
     :
     Beginner:
     1:
     :
00000000
00000000
00000000
00000000
,
00000000
00000000
00000000
00000000
,
00000000
00000000
00000000
00000000
,
00000000
00000000
00000000
00000000
,
00000000
00000000
00000000
00000000
,
00000001
00000000
00001000
00000000
,
00000000
00001000
00000000
00001000
,
00000000
00000000
00010000
00000000
,
00000000
00010000
00000000
00010000
,
00000000
00000000
00000000
10000000
,
00000000
00000000
00010000
00000000
,
01000000
00000000
01000000
00000000
,
00010000
00000000
10010000
00000000
,
10000000
00000000
00010000
00000000
,
00010000
00000000
00000010
00000000
,
00000010
00000000
00000100
00000000
,
00000100
00000000
00010000
00000000
,
00010000
00000000
00000000
10000000
,
00000000
00000000
10000000
00000000
,
00100000
00000000
00100000
00000000
,
01000000
00000000
00001000
00000000
,
00000001
00000000
00000000
00001000
,
00000000
00000000
00000001
00000000
,
00000100
00000000
00000100
00000000
,
00010000
00000000
00010000
00000000
,
10000000
00000000
00100000
00000000
,
00010000
00000000
01000000
00000000
,
00001000
00000000
00010000
00000000
,
00010000
00000000
00001000
00000000
,
00001000
00000000
00000001
00000000
,
00000000
00000000
00000000
00000000
,
00001000
00000000
00000001
00000000
,
00000000
00000000
00000000
00000000
,
00000000
00000000
00000000
00000000
,
00000000
00000000
00000000
00000000
,
00010000
00000000
00001000
00000000
,
00000100
00000000
00000010
00000000
,
00001000
00000000
00000001
00000000
,
00000100
00000000
00001000
00000000
,
00010000
00000000
00010000
00000000
,
10000000
00000000
00010000
00000000
,
00000010
00000000
00000100
00000000
,
00000010
00000000
00010000
00000000
,
00001000
00000000
00000000
00001000
,
00000000
00000000
00000001
00000000
,
00000010
00000000
00001000
00000000
,
01000000
00000000
00100000
00000000
,
00100000
00000000
00000000
00010000
,
00000000
00000000
00100000
00000000
,
00010000
00000000
10000000
00000000
,
00010000
00000000
01000000
00000000
,
00001000
00000000
00010000
00000000
,
00001000
00000000
00001000
00000000
,
00001000
00000000
00000001
00000000
,
00001000
00000000
00011000
00000000
;

//---------------dance-double - ----------------
#NOTES:
     dance-double:
     :
     Easy:
     5:
     :
00000000
00000000
00000000
00000000
,
00000000
00000000
00000000
00000000
,
00000000
00000000
00000000
00000000
,
00000000
00000000
00000000
00000000
,
00000000
00000000
00000000
00000000
,
00000002
00000000
00000000
00000000
00002003
00000000
00000000
00003020
,
00000000
00001000
00001000
00001030
,
00000200
00000000
00000000
00000000
00020300
00000000
00000000
00032000
,
00000000
00010000
00010000
00013000
,
00200000
00000000
00000000
00320000
00000000
00000000
20030000
00000000
,
00000000
32000000
00000000
00000000
00010000
00000000
03010000
00000000
,
01000000
00100000
01000000
10000000
,
00010000
01000000
10010000
00000000
,
10000000
00100000
00010000
00100000
,
00010000
00001000
00000010
00000001
,
00000010
00000001
00000100
00001000
,
00000100
00001000
00010000
00001000
,
00020000
00000000
00000000
02030000
00000000
00000000
23000000
00000000
,
00000000
30200000
00000000
00000000
10000000
00000000
10300000
00000000
,
00100000
00010000
00100000
10000000
,
01000000
00010000
00001000
00000100
,
00000002
00000000
00000000
00000023
00000000
00000000
00002030
00000000
,
00000000
00003020
00000000
00000000
00000001
00000000
00000031
00000000
,
00000100
00000010
00000100
00001000
,
00010000
00001000
00010000
01000000
,
20000000
00100000
00100000
30100000
,
00020000
01000000
01000000
01030000
,
00002000
00010000
00010000
00013000
,
00020000
00001000
00001000
00031000
,
00002000
00000000
00000000
00000000
00003000
00000000
00000000
00000000
00000002
00000000
00000000
00000003
00000000
00000000
00002002
00000000
,
00000000
00000000
00000000
00003003
,
00002000
00000000
00000000
00000000
00003000
00000000
00000000
00000000
00000002
00000000
00000000
00000003
00000000
00000000
00002002
00000000
,
00000000
00000000
00000000
00003003
,
00000000
00000000
00000000
00000000
,
00000000
00000000
00000000
00000000
,
00020000
00031000
00002000
00003100
,
00000200
00000310
00000020
00001030
,
00002000
00003001
00000002
00000103
,
00000200
00001300
00002000
00003000
,
00010000
00001000
00010000
00100000
,
10000000
01000000
00010000
00001000
,
00000010
00000001
00000100
00000001
,
00000010
00001000
00010000
00001000
,
00002000
00000000
00000000
00023000
00000000
00000000
00032000
00000000
,
00000000
00003200
00000000
00000000
00000001
00000000
00000301
00000000
,
00000010
00000100
00001000
00010000
,
01000000
10000000
00100000
10000000
,
00200000
00000000
00000000
20300000
00000000
00000000
30020000
00000000
,
00000000
02030000
00000000
00000000
00100000
00000000
03100000
00000000
,
00010000
00100000
10000000
00100000
,
00010000
10000000
01000000
00010000
,
00001000
00001000
00010000
00010000
,
00001000
00010000
00001000
00010000
,
00001000
00000100
00000001
00000010
,
00001000
00010000
00011000
00000000
;

//---------------dance-double - ----------------
#NOTES:
     dance-double:
     :
     Medium:
     6:
     :
00000000
00000000
00000000
00000000
,
00000000
00000000
00000000
00000000
,
00000000
00000000
00000000
00000000
,
00000000
00000000
00000000
00000000
,
00000000
00000000
00000000
00000000
,
01000000
00000000
10000000
00000000
00100000
00100000
10000000
02000000
,
00000000
00010000
10000000
03010000
,
00001000
00000000
00000010
00000000
00000001
00000001
00000100
00000020
,
00000000
00000100
00001000
00000130
,
00001001
00000000
00000000
00001000
00000000
00000000
00011000
00000000
,
00000000
01000000
00000000
00000000
11000000
00000000
10100000
00000000
,
00100000
10000000
01000000
00000000
10000000
00010000
01000000
00000000
,
00001000
01000000
00010000
00100000
00001000
00000000
00000000
00000000
,
00010000
00001000
00000010
00000000
00000001
00000100
00000010
00000000
,
00001000
00000010
00000100
00000000
00001000
00010000
01000000
00000000
,
10000000
00100000
01000000
00000000
00010000
10000000
01000000
00000000
,
00100000
00010000
01000000
00000000
00001000
00100000
00010000
00000000
,
00011000
00000000
00000000
01000000
00000000
00000000
01010000
00000000
,
00000000
00010000
00000000
00000000
00001100
00000000
00001001
00000000
,
00001000
00000100
00000001
00000000
00000001
00000100
00001000
00000000
,
00000010
00001000
00000001
00000100
00000010
00000000
00000000
00000000
,
00000110
00000000
00000000
00001000
00000000
00000000
00011000
00000000
,
00000000
00010000
00000000
00000000
01100000
00000000
10010000
00000000
,
10000000
01000000
00010000
00000000
00010000
01000000
10000000
00000000
,
00100000
00010000
01000000
00000000
00001000
00010000
00000100
00000000
,
00001000
00000001
00000100
00000000
00000100
00000001
00001000
00000000
,
00000001
00000010
00001000
00000000
00001000
00000010
00000001
00000000
,
00001000
00000001
00000010
00000000
00000001
00000100
00001000
00000000
,
00010000
00001000
00000100
00000000
00001000
00010000
01000000
00000000
,
02000000
00010000
10000000
03010000
,
00002000
00010000
01000000
00013000
,
00000020
00000100
00001000
00000130
,
00000002
00000010
00000100
00000013
,
00002000
00000100
00000000
00000100
,
00000000
00000100
00000000
00003100
,
00002002
00003003
00000220
00000330
,
00002200
00003300
00022000
00033000
,
02020000
03030000
02200000
03300000
,
20020000
30030000
02200000
03300000
,
10000000
00000000
00010000
00000000
01000000
00000000
00100000
10000000
,
01000000
00000000
00010000
00000000
00001000
00000000
00000100
00000001
,
00000010
00000000
00000001
00000000
00000010
00000000
00000001
00000010
,
00001000
00000000
00000010
00000000
00000100
00000000
00010000
00001000
,
00011000
00000000
00000000
00010000
00000000
00000000
01010000
00000000
,
00000000
10000000
00000000
00000000
10010000
00000000
01010000
00000000
,
10000000
00010000
01000000
00000000
00010000
00100000
01000000
00000000
,
00010000
01000000
10000000
00000000
10000000
01000000
00010000
00000000
,
00011000
00000000
00000000
00001000
00000000
00000000
00001100
00000000
,
00000000
00000100
00000000
00000000
00001001
00000000
00000101
00000000
,
00000001
00000100
00001000
00000000
00001000
00000100
00000001
00000000
,
00000010
00001000
00000100
00000000
00010000
00001000
01000000
00000000
,
00010000
10000000
01000000
00000000
01000000
10000000
00010000
00000000
,
10000000
00100000
00010000
00000000
00010000
00100000
10000000
00000000
,
10000000
00000000
01000000
00000000
00100000
00010000
01000000
00000000
,
00001000
00010000
00011000
00000000
;

//---------------dance-double - ----------------
#NOTES:
     dance-double:
     :
     Hard:
     8:
     :
00000000
00000000
00000000
00000000
,
00000000
00000000
00000000
00000000
,
00000000
00000000
00000000
00000000
,
00000000
00000000
00000000
00000000
,
00000000
00000000
00000000
00000000
,
00000001
00001000
00000100
00001000
00000010
00010000
00001000
00010000
,
01000000
10000000
00100000
10000000
00010000
01000000
00100000
01000000
,
00001000
00010000
01000000
00010000
00000010
00010000
00001000
00010000
,
00000100
00001000
00000010
00001000
00000001
00000100
00000001
00000000
,
00000002
00000000
00000000
00002003
00000000
00000000
00023000
00000000
,
00000000
20030000
00000000
00000000
30020000
00000000
00032000
00000000
,
00003001
00001000
00000001
00000000
00000001
00000010
00001000
00010000
,
00100000
10000000
01000000
00100000
00010000
00000000
00000000
00000000
,
10000000
00100000
00010000
00100000
10100000
10000000
00100000
00010000
,
00001000
00000010
00000001
00000100
00000101
00000001
00001000
00000010
,
00000100
00001000
00010000
01000000
01010000
01000000
10000000
01000000
,
00100000
00010000
10000000
01000000
01100000
00100000
00010000
10000000
,
20000000
00000000
00000000
30020000
00000000
00000000
00032000
00000000
,
00000000
00003002
00000000
00000000
00002003
00000000
00013000
00000000
,
10000000
00010000
00100000
00010000
01000000
00001000
00010000
00001000
,
00000100
00000001
00000010
00000001
00001000
00000100
00001000
00000000
,
00000020
00000000
00000000
00020030
00000000
00000000
00032000
00000000
,
00000000
02003000
00000000
00000000
03010000
00000000
00100000
00000000
,
00001000
00100000
00010000
00100000
00001000
00010000
00000100
00010000
,
00000010
00001000
00000100
00001000
00000001
00001000
00000100
00000000
,
00000100
00010000
00001000
00010000
00000010
00010000
00001000
00010000
,
01000000
00100000
00001000
00010000
00001000
01000000
00001000
00010000
,
00001000
00000100
00000010
00000100
00001000
00010000
01000000
00100000
,
00010000
01000000
00100000
00010000
00001000
00010000
00100000
00000000
,
10000000
00000000
00000000
00000000
01000000
00000000
00000000
10000000
01000000
00000000
00000000
00000000
11000000
00000000
00000000
00000000
,
00010000
00000000
00000000
00000000
00001000
00000000
00000000
00010000
00001000
00000000
00000000
00010000
00000000
00000000
00001000
00000000
,
00000100
00000000
00000000
00000000
00000001
00000000
00000000
00000100
00000001
00000000
00000000
00000000
00000101
00000000
00000000
00000000
,
00000001
00000100
00001000
00010000
,
00002000
00010000
00000000
00010000
,
00000000
00010000
00000000
00013000
,
00001000
00000000
00000000
00011000
00000000
00000000
01000000
00000000
10000000
00000000
00000000
11000000
00000000
00000000
00100000
00000000
,
00010000
00000000
00000000
00110000
00000000
00000000
00010000
00000000
00001000
00000000
00000000
00011000
00000000
00000000
00000010
00000000
,
00000001
00000000
00000000
00000011
00000000
00000000
00000100
00000000
00001000
00000000
00000000
00001100
00000000
00000000
00000010
00000000
,
00000100
00000000
00000000
00000110
00000000
00000000
00000001
00000000
00000100
00000000
00000000
00000101
00000000
00000000
00000100
00000000
,
00001000
00000000
00000000
00001100
00000000
00000000
00001000
00000000
00010000
00000000
00000000
00011000
00000000
00000000
01000000
00000000
,
10000000
00000000
00000000
11000000
00000000
00000000
00100000
00000000
01000000
00000000
00000000
01100000
00000000
00000000
10000000
00000000
,
00010000
00000000
00000000
10010000
00000000
00000000
01000000
00000000
00010000
00000000
00000000
01010000
00000000
00000000
00001000
00000000
,
00010000
00000000
00000000
00011000
00000000
00000000
00001000
00000000
00000100
00000000
00000000
00001100
00000000
00000000
00000100
00000000
,
00000002
00000000
00000000
00002003
00000000
00000000
00023000
00000000
,
00000000
20030000
00000000
00000000
30020000
00000000
00031000
00000000
,
00000001
00001000
00000100
00001000
00000010
00010000
00001000
00010000
,
01000000
10000000
00100000
10000000
00010000
01000000
00100000
00000000
,
20000000
00000000
00000000
30020000
00000000
00000000
00032000
00000000
,
00000000
00003002
00000000
00000000
00002003
00000000
00013000
00000000
,
10000000
00010000
00100000
00010000
01000000
00001000
00010000
00001000
,
00000100
00000001
00000010
00000001
00001000
00000100
00001000
00000000
,
00000100
00010000
00001000
00010000
00000010
00010000
00001000
00010000
,
01000000
00100000
00001000
00010000
00001000
01000000
00001000
00000000
,
01001000
00000000
00010100
00000000
00000100
00010000
00001000
00000000
,
01010000
00001100
00011000
00000000
;
