#TITLE:Step On;
#ARTIST:Happy Mondays;
#BANNER:Step On.png;
#BACKGROUND:Step On-bg.png;
#CDTITLE:./CDTITLES/DANCING STAGE UNLEASHED 2.png;
#MUSIC:Step On.ogg;
#SAMPLESTART:11.25;
#SAMPLELENGTH:15;
#DISPLAYBPM:105;
#BPMS:0=104.9;
#BGCHANGES:4=Step On.avi=1=0=0=0;

//---------------dance-single - ----------------
#NOTES:
     dance-single:
     :
     Beginner:
     1:
     :
0000
0000
0000
0000
,
0000
0000
0000
0000
,
0000
0000
0000
0000
,
0000
0000
0000
0000
,
0000
0000
0000
0000
,
1000
0000
1000
0000
,
0001
0000
0001
0000
,
1000
0000
0000
0000
,
0001
0000
0000
0000
,
0010
0000
0000
0000
,
0010
0000
0001
0000
,
0100
0000
0000
0000
,
0001
0000
0000
0000
,
0001
0000
0000
0000
,
0100
0000
1000
0000
,
0001
0000
0001
0000
,
1000
0000
1000
0000
,
0100
0000
0100
0000
,
0010
0000
0010
0000
,
1000
0000
0001
0000
,
1000
0000
0001
0000
,
0010
0000
0100
0000
,
0010
0000
0100
0000
,
1000
0000
0001
0000
,
1000
0000
0001
0000
,
0010
0000
0010
0000
,
0100
0000
0100
0000
,
1000
0000
1000
0000
,
0001
0000
0001
0000
,
0010
0000
0010
0000
,
0100
0000
0100
0000
,
1000
0000
1000
0000
,
0100
0000
0100
0000
,
0001
0000
0001
0000
,
0010
0000
0010
0000
,
1000
0000
0001
0000
,
1000
0000
0001
0000
,
0010
0000
0000
0000
,
1001
0000
0000
0100
,
0000
0000
0000
0000
,
0000
0000
0000
0000
,
1000
0000
1000
0000
,
0001
0000
0001
0000
,
0001
0000
0001
0000
,
1000
0000
1000
0000
;

//---------------dance-single - ----------------
#NOTES:
     dance-single:
     :
     Easy:
     2:
     :
0000
0000
0000
0000
,
0000
0000
0000
0000
,
0000
0000
0000
0000
,
0000
0000
0000
0000
,
0000
0000
0000
0000
,
1000
0010
1000
0010
,
0001
0010
0001
0010
,
1000
0100
0000
0000
,
0001
0100
0000
0000
,
0010
1000
0000
0000
,
0010
1000
0001
0000
,
0100
0010
0000
0000
,
0001
1000
0000
0000
,
0001
0100
0000
0000
,
0100
0001
1000
0000
,
0001
0000
0001
0000
,
1000
0000
1000
0000
,
0100
0000
0100
0000
,
0010
0000
0010
0000
,
1000
1000
0001
0001
,
1000
1000
0001
0001
,
0010
1000
0100
0001
,
0010
0001
0100
1000
,
1000
1000
0001
0001
,
1000
1000
0001
0001
,
0010
1000
0010
0001
,
0100
1000
0100
0001
,
1000
1000
1000
1000
,
0001
0001
0001
0001
,
0010
0010
0010
0010
,
0100
0100
0100
0100
,
1000
0001
1000
0001
,
0100
0100
0100
0100
,
0001
1000
0001
1000
,
0010
0010
0010
0010
,
1000
0100
0001
0100
,
1000
0100
0001
0100
,
0010
0000
0000
0000
,
1001
0000
0000
0100
0000
0000
0100
0000
,
2002
0000
0000
0000
,
0000
0000
0000
3003
,
1000
0100
1000
0100
,
0001
0100
0001
0100
,
0001
0010
0001
0010
,
1000
0010
1000
0010
;

//---------------dance-single - ----------------
#NOTES:
     dance-single:
     :
     Medium:
     5:
     :
0000
0000
0000
0000
,
0000
0000
0000
0000
,
0000
0000
0000
0000
,
0000
0000
0000
0000
,
0000
0000
0000
0000
,
0010
0000
0001
0000
1000
0001
0100
0000
,
0010
0000
0001
0000
1000
0001
0100
0000
,
1000
0000
0100
0000
0010
0001
0100
0000
,
0001
0000
0100
0000
0010
1000
0100
0000
,
1000
0000
0001
0000
1000
0010
0100
0000
,
0100
0000
0001
0000
0001
0100
0010
0000
,
0010
0000
1000
0000
1000
0100
0001
0000
,
0001
0000
0100
0000
0010
0100
0001
0000
,
0100
0000
0010
0000
0001
0100
0010
0000
,
1000
0000
0100
0000
0001
0100
1000
0000
,
1000
0100
0001
1000
,
0010
0001
0100
1000
,
0010
0100
0001
1000
,
0010
1000
0100
0001
,
0100
0000
1000
0100
0000
0100
1000
0000
,
0001
0000
0001
0100
0000
0100
0001
0000
,
0010
0000
0010
0100
0000
0100
0010
0000
,
1000
0000
1000
0001
0000
0001
1000
0000
,
1000
0000
0001
0000
0100
0000
0001
0100
,
0001
0000
0100
0000
1000
0000
0100
1000
,
0100
0000
0010
0000
0100
0000
0010
0100
,
0010
0000
1000
0000
0100
0000
0001
0100
,
0001
0000
0100
0000
0100
0010
0100
0000
,
1000
0000
0001
0000
1000
0001
1000
0000
,
0100
0000
0010
0100
0001
0000
0001
0100
,
1000
0000
0000
0000
0010
0000
0100
1000
0000
0000
0000
0000
0100
0000
1000
0000
,
0001
0000
0000
0000
0010
0000
0001
0100
0000
0000
0000
0000
0100
0000
1000
0000
,
0001
0000
0100
0001
0010
0000
0100
1000
,
0010
0000
0000
0000
1000
0000
0001
0100
0000
0000
0000
0000
0100
0000
0001
0000
,
0010
0000
0000
0000
0010
0000
0100
1000
0000
0000
0000
0000
1000
0000
0100
0000
,
1000
0000
0000
0000
0001
0000
1000
0100
0000
0000
0100
0000
0010
0000
0000
0001
,
0000
0000
0000
0000
0001
0000
0000
1000
0000
0000
0000
0000
0100
0000
0000
0000
,
0200
0000
0000
0300
,
0110
0000
0000
0101
0000
0000
1100
0000
,
2002
0000
0000
0000
,
0000
0000
0000
3003
,
1000
0010
1000
0000
0100
1000
0100
0000
,
0001
0100
0001
0000
0010
0001
0010
0000
,
0100
0010
0100
0000
0001
1000
0001
0000
,
1000
0100
1000
0000
0001
0100
0001
0000
;

//---------------dance-single - ----------------
#NOTES:
     dance-single:
     :
     Hard:
     7:
     :
0000
0000
0000
0000
,
0000
0000
0000
0000
,
0000
0000
0000
0000
,
0000
0000
0000
0000
,
0000
0000
0000
0000
,
1000
0001
0010
0000
0001
0000
1000
0010
,
0100
0010
1000
0000
0001
0000
1000
0001
,
0000
0100
0100
0010
1000
0100
1000
0001
,
0000
0010
0010
0001
1000
0010
0100
0001
,
0000
1000
1000
0010
0100
0001
1000
0001
,
0000
2000
0000
0100
0200
0000
3300
0000
,
0000
0010
0010
0001
0100
1000
0100
0001
,
0000
0100
0100
0010
0001
0010
1000
0001
,
0000
0100
0100
0010
1000
0001
0010
0100
,
0000
1000
0100
1000
0000
0001
0100
0001
,
1000
0001
1000
0010
,
0100
0001
1000
0001
,
1000
0100
0010
0001
,
1000
0100
0001
0100
,
1001
0000
0010
1000
0000
1000
0100
0000
,
1001
0000
0010
0001
0000
0001
0100
0000
,
1100
0000
0010
0001
0000
0001
1000
0000
,
0101
0000
0010
1000
0000
1000
0001
0000
,
1000
0000
0100
0000
1000
0000
0100
0010
0000
0010
0100
0000
1000
0000
0001
0000
,
0010
0000
0001
0000
0010
0000
0001
1000
0000
1000
0001
0000
0010
0000
0100
0000
,
1000
0000
0010
0000
1000
0000
0010
0100
0000
0100
0010
0000
1000
0000
0001
0000
,
0100
0000
0001
0000
0100
0000
0001
1000
0000
1000
0001
0000
0100
0000
0001
0000
,
1000
0010
1000
0000
0001
0000
0010
0100
,
1000
0001
1000
0000
0010
0000
0100
0001
,
0100
0000
0000
0000
0010
0000
1000
0010
0000
0000
0000
0000
0100
0000
0001
0000
,
1000
0000
0000
0000
0010
0000
0100
0010
0000
0000
0000
0000
1000
0000
0010
0000
,
0100
0000
0010
1000
0001
0000
0100
0001
,
1000
0000
0100
1000
0010
0000
0100
0001
,
0010
0000
0000
0000
0001
0000
1000
0001
0000
0000
0000
0000
0100
0000
0010
0000
,
1000
0000
0000
0000
0001
0000
0010
0001
0000
0000
0000
0000
0100
0000
0010
0000
,
1000
0000
0000
0000
0001
0000
0100
0001
0000
0000
0010
0000
0100
0000
0000
1001
,
0000
0000
0000
0000
0100
0000
0000
1001
0000
0000
0000
0000
0100
0000
0000
2002
,
0000
0000
0000
3003
,
1001
0000
0000
0101
0000
0000
1100
0000
,
2002
0000
0000
0000
,
0000
0000
0000
3003
,
0100
1000
0001
0000
1001
0000
0010
0100
,
1000
0010
0100
0000
1001
0000
0010
0100
,
1000
0001
1000
0000
0110
0000
0001
0100
,
0001
1000
0010
0000
0110
0000
1000
0001
,
1000
0100
0010
0000
1001
0000
0010
0100
,
2000
0000
0000
0000
,
0000
0000
0000
3000
;

//---------------dance-double - ----------------
#NOTES:
     dance-double:
     :
     Beginner:
     1:
     :
00000000
00000000
00000000
00000000
,
00000000
00000000
00000000
00000000
,
00000000
00000000
00000000
00000000
,
00000000
00000000
00000000
00000000
,
00000000
00000000
00000000
00000000
,
00100000
00000000
00100000
00000000
,
00001000
00000000
00001000
00000000
,
00001000
00000000
00000000
00000000
,
00000010
00000000
00000000
00000000
,
00010000
00000000
00000000
00000000
,
01000000
00000000
00010000
00000000
,
00001000
00000000
00000000
00000000
,
00000010
00000000
00000000
00000000
,
00001000
00000000
00000000
00000000
,
00100000
00000000
00010000
00000000
,
00010000
00000000
00010000
00000000
,
00001000
00000000
00001000
00000000
,
00000010
00000000
00000010
00000000
,
00000001
00000000
00000001
00000000
,
00000001
00000000
00000100
00000000
,
00001000
00000000
00010000
00000000
,
00100000
00000000
00010000
00000000
,
00000010
00000000
00000100
00000000
,
00010000
00000000
01000000
00000000
,
10000000
00000000
00100000
00000000
,
00010000
00000000
00000100
00000000
,
00000100
00000000
00010000
00000000
,
10000000
00000000
10000000
00000000
,
00100000
00000000
00100000
00000000
,
00010000
00000000
00010000
00000000
,
00001000
00000000
00001000
00000000
,
00000001
00000000
00000001
00000000
,
00000100
00000000
00000100
00000000
,
00000010
00000000
00000010
00000000
,
00010000
00000000
00010000
00000000
,
00010000
00000000
00010000
00000000
,
00000100
00000000
00000100
00000000
,
00000010
00000000
00000000
00000000
,
00001001
00000000
00000000
00010000
,
00000000
00000000
00000000
00000000
,
00000000
00000000
00000000
00000000
,
00100000
00000000
00100000
00000000
,
00010000
00000000
00010000
00000000
,
00001000
00000000
00001000
00000000
,
00010000
00000000
00010000
00000000
;

//---------------dance-double - ----------------
#NOTES:
     dance-double:
     :
     Easy:
     3:
     :
00000000
00000000
00000000
00000000
,
00000000
00000000
00000000
00000000
,
00000000
00000000
00000000
00000000
,
00000000
00000000
00000000
00000000
,
00000000
00000000
00000000
00000000
,
00100000
00010000
00100000
00010000
,
00001000
00010000
00001000
00010000
,
00001000
00000001
00000000
00000000
,
00000010
00001000
00000000
00000000
,
00010000
01000000
00000000
00000000
,
01000000
10000000
00010000
00000000
,
00001000
00000100
00000000
00000000
,
00000010
00000100
00000000
00000000
,
00001000
00100000
00000000
00000000
,
00100000
10000000
00010000
00000000
,
00010000
00000000
00010000
00000000
,
00001000
00000000
00001000
00000000
,
00000010
00000000
00000010
00000000
,
00000001
00000000
00000001
00000000
,
00000001
00000001
00000100
00000100
,
00001000
00001000
00010000
00010000
,
00100000
01000000
00010000
00001000
,
00000010
00000001
00000100
00001000
,
00010000
00010000
01000000
01000000
,
10000000
10000000
00100000
00100000
,
00010000
00001000
00000100
00000001
,
00000100
00001000
00010000
01000000
,
10000000
10000000
10000000
10000000
,
00100000
00100000
00100000
00100000
,
00010000
00010000
00010000
00010000
,
00001000
00001000
00001000
00001000
,
00000001
00001000
00000001
00001000
,
00000100
00000100
00000100
00000100
,
00000010
00001000
00000010
00001000
,
00010000
00010000
00010000
00010000
,
00010000
01000000
00010000
00001000
,
00000100
00000001
00000100
00001000
,
00000010
00000000
00000000
00000000
,
00001001
00000000
00000000
00001000
00000000
00000000
00010000
00000000
,
00022000
00000000
00000000
00000000
,
00000000
00000000
00000000
00033000
,
00100000
00001000
00100000
00001000
,
00010000
00000010
00010000
00000010
,
00001000
00000001
00001000
00000001
,
00010000
00000010
00010000
00000010
;

//---------------dance-double - ----------------
#NOTES:
     dance-double:
     :
     Medium:
     5:
     :
00000000
00000000
00000000
00000000
,
00000000
00000000
00000000
00000000
,
00000000
00000000
00000000
00000000
,
00000000
00000000
00000000
00000000
,
00000000
00000000
00000000
00000000
,
00100000
00000000
00010000
00000000
00001000
00000010
00000001
00000000
,
00000100
00000000
00000001
00000000
00001000
00000010
00000100
00000000
,
00000100
00000000
00001000
00000000
00010000
00100000
01000000
00000000
,
00010000
00000000
01000000
00000000
10000000
01000000
00010000
00000000
,
00001000
00000000
00000010
00000000
00001000
00000100
00000010
00000000
,
00000001
00000000
00001000
00000000
00000100
00001000
00000100
00000000
,
00001000
00000000
00010000
00000000
00100000
00010000
00100000
00000000
,
10000000
00000000
01000000
00000000
01000000
00010000
01000000
00000000
,
10000000
00000000
00010000
00000000
10000000
00010000
00100000
00000000
,
01000000
00000000
00010000
00000000
00001000
00000100
00001000
00000000
,
00000100
00000001
00000010
00001000
,
00010000
01000000
00100000
10000000
,
00100000
01000000
00010000
00001000
,
00000100
00000001
00000010
00001100
,
00001000
00000000
00001000
00010000
00000000
00010000
00001000
00000000
,
00010000
00000000
00010000
01000000
00000000
01000000
00010000
00000000
,
10000000
00000000
10000000
01000000
00000000
01000000
10000000
00000000
,
00010000
00000000
00010000
01000000
00000000
01000000
00010000
00000000
,
00010000
00000000
00001000
00000000
00000100
00000000
00000100
00000001
,
00000100
00000000
00000010
00000000
00001000
00000000
00000010
00001000
,
00000100
00000000
00000100
00000000
00000001
00000000
00000100
00001000
,
00010000
00000000
00001000
00000000
00010000
00000000
00010000
01000000
,
10000000
00000000
10000000
00000000
00100000
01000000
00010000
00000000
,
00010000
00000000
10000000
00000000
00100000
00010000
00001000
00000000
,
00000010
00000000
00000001
00000010
00000001
00000000
00001000
00000100
,
00001000
00000000
00000000
00000000
00000001
00000000
00000100
00001000
00000000
00000000
00000000
00000000
00010000
00000000
00100000
00000000
,
10000000
00000000
00000000
00000000
00100000
00000000
10000000
01000000
00000000
00000000
00000000
00000000
00100000
00000000
00010000
00000000
,
10000000
00000000
00100000
10000000
00010000
00000000
01000000
00001000
,
00010000
00000000
00000000
00000000
00000010
00000000
00001000
00000100
00000000
00000000
00000000
00000000
00001000
00000000
00000001
00000000
,
00000100
00000000
00000000
00000000
00001000
00000000
00010000
01000000
00000000
00000000
00000000
00000000
10000000
00000000
01000000
00000000
,
10000000
00000000
00000000
00000000
10000000
00000000
01000000
00010000
00000000
00000000
00001000
00000000
00100000
00000000
00000000
00001000
,
00000000
00000000
00000000
00000000
00010000
00000000
00000000
00001000
00000000
00000000
00000000
00000000
00000100
00000000
00000000
00000000
,
00000020
00000000
00000030
00000010
,
00001100
00000000
00000000
00011000
00000000
00000000
01010000
00000000
,
00022000
00000000
00000000
00000000
,
00000000
00000000
00000000
00033000
,
00001000
00010000
00001000
00000000
00100000
00010000
00100000
00000000
,
00010000
01000000
00010000
00000000
00010000
00001000
00010000
00000000
,
00000100
00001000
00000100
00000000
00001000
00000010
00001000
00000000
,
00000010
00001000
00000010
00000000
00010000
00001000
00010000
00000000
;

//---------------dance-double - ----------------
#NOTES:
     dance-double:
     :
     Hard:
     7:
     :
00000000
00000000
00000000
00000000
,
00000000
00000000
00000000
00000000
,
00000000
00000000
00000000
00000000
,
00000000
00000000
00000000
00000000
,
00000000
00000000
00000000
00000000
,
00001000
00010000
00001000
00000000
01000000
00000000
00010000
00100000
,
00010000
10000000
00010000
00000000
01000000
00000000
00100000
10000000
,
00000000
01000000
10000000
01000000
00000000
00010000
00001000
00010000
,
00000000
00000100
00000010
00000100
00000000
00001000
00000001
00001000
,
00000000
00000010
00010000
00000010
00000000
00010000
00001000
00010000
,
00000000
00001000
00000000
00020000
00002000
00000000
00033000
00000000
,
00000000
01000000
00100000
01000000
00000000
00001000
00010000
00001000
,
00000000
00100000
00010000
00100000
00000000
01000000
10000000
01000000
,
00000000
00010000
00001000
00010000
00000000
00000100
00000010
00000100
,
00000000
00001000
00000010
00001000
00000000
00000001
00000100
00000001
,
00001000
00000000
00001001
00000000
00000100
00000100
00010000
00010000
,
00001000
00000000
00011000
00000000
00100000
00100000
00010000
00010000
,
01000000
00000000
10010000
00000000
00100000
00100000
10000000
10000000
,
00010000
00000000
01100000
00000000
10000000
10000000
00010000
00010000
,
10010000
00000000
00100000
01000000
00000000
01000000
00001000
00000000
,
00011000
00000000
00010000
00000100
00000000
00000100
00000010
00000000
,
00001100
00000000
00000100
00010000
00000000
00010000
00001000
00000000
,
00101000
00000000
00100000
00001000
00000000
00001000
00010000
00000000
,
00001000
00000000
00000000
00000000
00000100
00000000
00000001
00000010
00000000
00000010
00000001
00000000
00000100
00000000
00000000
00000000
,
00000010
00000000
00000000
00000000
00010000
00000000
00001000
01000000
00000000
01000000
00001000
00000000
00010000
00000000
00000000
00000000
,
00100000
00000000
00000000
00000000
10000000
00000000
00010000
01000000
00000000
01000000
00010000
00000000
00100000
00000000
00000000
00000000
,
00001000
00000000
00000000
00000000
00000010
00000000
00000100
00001000
00000000
00001000
00000100
00000000
00010000
00000000
00000000
00000000
,
00001000
00010000
01000000
00000000
00100000
00000000
00010000
10000000
,
00100000
01000000
00001000
00000000
00010000
00000000
00000100
00000010
,
00000001
00000010
00000001
00000100
00000010
00000100
00000010
00010000
,
00000100
00010000
00000100
00001000
00000010
00001000
00000010
00010000
,
00001000
00010000
00001000
00100000
01000000
00100000
01000000
10000000
,
00100000
10000000
00100000
01000000
00010000
01000000
00010000
00000000
,
00100000
00001000
00100000
00001000
00010000
00000010
00010000
00000010
,
00001000
00000001
00001000
00000001
00000100
00001000
00000100
00001000
,
00010000
00000000
00100000
00000000
00010000
00000000
00100000
00000000
10000000
00000000
00010000
00000000
10000000
00000000
00000000
10010000
,
00000000
00000000
00000000
00000000
00010000
00000000
00000000
10010000
00000000
00000000
00000000
00000000
01000000
00000000
00000000
20020000
,
00000000
00000000
00000000
30030000
,
01000000
00000000
00000000
00010000
00000000
00000000
00001000
00000000
,
00022000
00000000
00000000
00000000
,
00000000
00000000
00000000
00033000
,
00001000
00000100
00000001
00000000
00001001
00000000
00000001
00000010
,
00000100
00010000
00001000
00000000
00011000
00000000
00010000
00001000
,
00010000
00100000
01000000
00000000
01010000
00000000
00100000
10000000
,
01000000
00010000
00001000
00000000
01001000
00000000
00010000
00001000
,
00010000
00000100
00000010
00000000
00001001
00000000
00000100
00001000
,
00020000
00000000
00000000
00000000
,
00000000
00000000
00000000
00030000
;
