#TITLE:Some Girls;
#ARTIST:Rachel Stevens;
#BANNER:Some Girls.png;
#BACKGROUND:Some Girls-bg.png;
#CDTITLE:./CDTITLES/DANCING STAGE UNLEASHED 2.png;
#MUSIC:Some Girls.ogg;
#SAMPLESTART:36.84;
#SAMPLELENGTH:15;
#DISPLAYBPM:129;
#BPMS:0=129.99;
#BGCHANGES:4=Some Girls.avi=1=0=0=0,250=Some Girls-bg.png=1=0=0=1;

//---------------dance-single - ----------------
#NOTES:
     dance-single:
     :
     Beginner:
     1:
     :
0000
0000
0000
0000
,
0000
0000
0000
0000
,
0000
0000
0000
0000
,
0000
0000
0000
0000
,
1000
0000
0001
0000
,
1000
0000
1000
0000
,
0010
0000
1000
0000
,
0010
0000
1000
0000
,
0001
0000
1000
0000
,
0010
0000
0010
0000
,
0010
0000
0100
0000
,
1001
0000
0000
0000
,
0100
0000
0000
0010
,
0000
1001
0000
0100
,
0000
1001
0000
1000
,
0000
0110
0000
0001
,
0000
0110
0000
1000
,
0000
1001
0000
0010
,
0000
1001
0000
0100
,
0000
0000
0000
0000
,
1000
0000
0001
0000
,
0010
0000
0100
0000
,
0001
0000
1000
0000
,
0100
0000
0010
0000
,
1000
0000
0001
0000
,
1000
0000
0001
0000
,
0001
0000
1000
0000
,
0001
0000
1000
0000
,
1000
0000
0000
0001
,
0000
0001
0000
0001
,
0000
0010
0000
0100
,
0000
0100
0000
0100
,
0000
1000
0000
1000
,
0000
0100
0000
1000
,
0000
1000
0000
1000
,
0000
0100
0000
1000
,
0000
0100
0000
0010
,
0000
0000
0000
0000
,
0100
0000
0000
0010
,
0000
1001
0000
0100
,
0000
1001
0000
0001
,
0000
0110
0000
1000
,
0000
0110
0000
1000
,
0000
1001
0000
0010
,
0000
1001
0000
0010
,
0000
0000
0000
0000
,
0001
0000
1000
0000
,
0100
0000
0010
0000
,
1000
0000
0001
0000
,
0010
0000
0100
0000
,
0001
0000
1000
0000
,
0001
0000
1000
0000
,
1000
0000
0001
0000
,
1000
0000
0001
0000
,
0001
0000
1000
0000
,
1000
0000
0010
0000
,
1000
0000
0001
0000
,
0001
0000
0100
0000
,
0010
0000
0000
0000
,
0100
0000
0000
0000
,
1000
0000
0000
0000
,
1001
0000
0000
0000
;

//---------------dance-single - ----------------
#NOTES:
     dance-single:
     :
     Easy:
     5:
     :
0000
0000
0000
0000
,
0000
0000
0000
0000
,
0000
0000
0000
0000
,
0000
0000
0000
0000
,
1000
1000
0001
0001
,
1000
0001
1000
0001
,
0010
0100
1000
0100
,
0010
0001
1000
0100
,
0001
0100
1000
0100
,
0010
0001
0010
0100
,
0010
0001
0100
1000
,
2002
0000
0000
3003
,
0100
1001
0000
0010
,
0100
1001
0000
0100
,
0010
1001
0000
1000
,
0001
0110
0000
0001
,
1000
0110
0000
1000
,
0100
1001
0000
0010
,
0001
1001
0000
0100
,
2002
0000
0000
3003
,
1000
1001
0001
1001
,
0020
0100
0100
0130
,
0001
1001
1000
1001
,
0200
0010
0010
0310
,
1000
0110
0001
0110
,
2000
0001
0001
3001
,
0001
0110
1000
0110
,
0002
1000
1000
1003
,
2000
0001
0000
0001
,
0000
0001
0000
3001
,
0010
0010
0100
0100
,
0010
0100
0010
0100
,
0001
1000
0001
1000
,
0001
0100
0010
1000
,
0100
1000
0010
1000
,
0001
0100
0001
1000
,
0001
0100
1000
0010
,
2002
0000
0000
3003
,
0100
1001
0000
0010
,
0100
1001
0000
0100
,
0010
1001
0000
0001
,
1000
0110
0000
1000
,
0001
0110
0000
1000
,
0100
1001
0000
0010
,
0001
1001
0000
0010
,
2002
0000
0000
3003
,
0001
1001
1000
1001
,
0200
0010
0010
0310
,
1000
1001
0001
1001
,
0020
0100
0100
0130
,
0001
0110
1000
0110
,
0002
1000
1000
1003
,
1000
0110
0001
0110
,
2000
0001
0001
3001
,
0001
1001
1000
1001
,
2000
0010
0010
3010
,
1000
1001
0001
1001
,
0002
0100
0100
0103
,
0020
0000
0000
0030
,
0200
0000
0000
0300
,
2000
0000
0000
3000
,
2002
0000
0000
3003
;

//---------------dance-single - ----------------
#NOTES:
     dance-single:
     :
     Medium:
     6:
     :
0000
0000
0000
0000
,
0000
0000
0000
0000
,
0000
0000
0000
0000
,
0000
0000
0000
0000
,
2000
0001
0100
3001
,
1001
0000
0000
1000
0000
0100
0000
0000
0000
1001
0000
0000
,
2000
3010
0002
0013
,
0200
1300
0200
0301
,
0002
0100
1000
0103
,
0010
0000
0100
0000
0000
0010
0000
0000
0000
1001
0000
0000
,
1000
0010
0100
1001
,
0001
0000
0001
0100
0000
0100
0010
0000
0010
1000
0000
1000
,
0010
0000
0100
0001
0000
0000
1000
0000
0000
1001
0000
0000
,
0001
0000
0001
1000
0000
0000
0001
0000
0000
1001
0000
0000
,
0010
0000
0010
0100
0000
0000
1000
0000
0000
0110
0000
0000
,
1000
0000
1000
0010
0000
0000
0100
0000
0000
1100
0000
0000
,
0100
0000
0100
0001
0000
0000
0010
0000
0000
0011
0000
0000
,
1000
0000
1000
0001
0000
0000
0100
0000
0000
0110
0000
0000
,
0010
0000
0010
1000
0000
0000
0100
0000
0000
1001
0000
0000
,
0010
0000
0010
1000
0000
1000
0100
0000
0100
0010
0000
0010
,
0001
1000
0010
0100
,
0001
0000
0000
1000
0000
0000
0001
0000
0001
0100
0000
0100
,
0010
1000
0010
1000
,
0100
0000
0000
0010
0000
0000
0001
0000
0001
1000
0000
1000
,
0100
0010
0001
0010
,
0100
0000
0000
1000
0000
0000
0001
0000
0001
0010
0000
0010
,
0100
1000
0001
0010
,
0100
0000
0000
1000
0000
1000
0100
0000
0010
0000
0000
0000
,
0000
0110
0000
1001
,
0000
1100
0000
0101
,
0002
0010
0100
0013
,
1001
0000
0000
0100
0000
1000
0000
0000
0000
1001
0000
0000
,
0010
0000
0000
0100
0000
0000
0001
0000
0000
1000
0000
0100
,
0000
0000
0000
0000
,
0020
1000
0100
1030
,
1001
0000
0000
1000
0000
0100
0000
0000
0000
0000
0000
0000
,
2000
0001
0100
3001
,
0001
0000
0001
0010
0000
0010
0100
0000
0100
1000
0000
1000
,
0010
0000
0010
1000
0000
0000
0100
0000
0000
1001
0000
0000
,
0100
0000
0100
0001
0000
0000
1000
0000
0000
0110
0000
0000
,
0010
0000
0010
0100
0000
0000
0001
0000
0000
1001
0000
0000
,
0100
0000
0100
0010
0000
0000
1000
0000
0000
0110
0000
0000
,
0010
0000
0010
0001
0000
0000
1000
0000
0000
1001
0000
0000
,
1000
0000
1000
0100
0000
0000
0010
0000
0000
0110
0000
0000
,
0001
0000
0001
0100
0000
0000
0010
0000
0000
1001
0000
0000
,
1000
0000
1000
0100
0000
0100
0010
0000
0010
0001
0000
0001
,
0010
0100
1000
0100
,
0010
0000
0000
0001
0000
0000
1000
0000
1000
0010
0000
0010
,
0100
0001
0100
0010
,
1000
0000
0000
0010
0000
0000
0100
0000
0100
0001
0000
0001
,
1000
0010
0100
0001
,
1000
0000
0000
0100
0000
0000
0010
0000
0010
0100
0000
0100
,
1000
0100
0001
0100
,
1000
0000
0000
0100
0000
0000
0010
0000
0010
0001
0000
0000
,
0001
1000
0100
0010
,
0001
0000
0000
0100
0000
0000
0100
0000
0100
1000
0000
1000
,
0100
0001
0010
1000
,
0010
0000
0000
0001
0000
0000
0100
0000
0100
0010
0000
0010
,
1000
0100
0010
0001
,
0010
0000
0000
0100
0000
0000
1000
0000
1000
0100
0000
0100
,
0010
0000
0000
0001
0000
0000
0001
0000
0000
1000
0000
0010
,
0000
0000
0010
0100
0000
0100
0010
0000
0010
0000
0000
0000
;

//---------------dance-single - ----------------
#NOTES:
     dance-single:
     :
     Hard:
     8:
     :
0000
0000
0000
0000
,
0000
0000
0000
0000
,
0000
0000
0000
0000
,
0000
0000
0000
0000
,
0100
0000
0000
0010
0000
0100
0010
0000
0000
0110
0000
0000
,
0100
0000
0000
1000
0000
0100
1000
0000
0000
1100
0000
0000
,
1000
0000
0000
0001
0000
1000
0001
0000
0000
1001
0000
0000
,
0010
0000
0000
1000
0000
0010
1000
0000
0000
1010
0000
0000
,
0001
0000
0000
0010
0000
0001
0010
0000
0000
0011
0000
0000
,
1000
0000
0000
0100
0000
1000
0100
0000
0000
1100
0000
0000
,
0001
0000
0000
1000
0000
0001
1000
0000
0000
1001
0000
0000
,
1000
0100
1000
0100
0010
0100
0010
0001
0010
0001
1000
0001
,
1000
0000
0100
1000
0000
1000
0010
0000
0000
0010
0000
0000
,
0001
0000
0001
0010
0000
0010
1000
0000
0000
1000
0000
0000
,
0100
0000
0100
0010
0000
0010
0001
0000
0000
0001
0000
0000
,
1000
0000
1000
0100
0000
0100
1000
0000
0000
1000
0000
0000
,
0001
0000
0001
1000
0000
1000
0010
0000
0000
1000
0000
0000
,
1000
0000
1000
0001
0000
0001
0100
0000
0000
0100
0000
0000
,
0010
0000
0010
1000
0000
1000
0100
0000
0000
0100
0000
0000
,
0010
0001
0010
0001
0100
0001
0100
0010
0100
0010
1000
0010
,
1000
0000
0000
1100
0000
0000
1001
0000
0000
0001
0000
0100
,
0000
0000
0010
0000
0000
0010
1000
0000
1000
0010
0000
0010
,
0100
0000
0000
1010
0000
0000
0011
0000
0000
1000
0000
0100
,
0000
0000
0010
0000
0000
0001
0010
0000
0010
0001
0000
0001
,
1000
0000
0000
1100
0000
0000
0101
0000
0000
0001
0000
1000
,
0000
0000
0010
0000
0000
0010
1000
0000
1000
0010
0000
0010
,
0100
0000
0000
0110
0000
0000
1001
0000
0000
1000
0000
0100
,
0000
0000
0010
0001
0000
0001
0100
0000
0100
0000
0000
0000
,
0000
0201
0000
0010
,
0000
1000
0000
0300
,
0100
0000
0000
0001
0000
0100
0001
0000
0000
0101
0000
0000
,
0010
0000
0000
1000
0000
0010
1000
0000
0000
1010
0000
0000
,
0100
0000
0000
0010
0000
0100
0010
0000
0000
0110
0000
0000
,
1000
0000
0000
0001
0000
1000
0001
0000
0000
1001
0000
0000
,
0100
0000
0000
1000
0000
0100
1000
0000
0000
1100
0000
0000
,
0001
0000
0000
0100
0000
0001
0100
0000
0000
0101
0000
0000
,
0100
0000
0000
0010
0000
0100
0010
0000
0000
0110
0000
0000
,
1000
0010
1000
0010
0100
0010
0100
0001
0100
0001
0010
0001
,
0010
0000
0100
1000
0000
1000
0100
0000
0000
0100
0000
0000
,
0010
0000
0010
0001
0000
0001
1000
0000
0000
1000
0000
0000
,
0001
0000
0001
0100
0000
0100
1000
0000
0000
1000
0000
0000
,
0100
0000
0100
0010
0000
0010
1000
0000
0000
1000
0000
0000
,
0100
0000
0100
0010
0000
0010
0001
0000
0000
0001
0000
0000
,
0010
0000
0010
1000
0000
1000
0010
0000
0000
0010
0000
0000
,
0001
0000
0001
0010
0000
0010
0100
0000
0000
0100
0000
0000
,
1000
0100
1000
0100
0001
0100
0010
0100
0010
0001
0010
0001
,
0010
0000
0000
1010
0000
0000
1001
0000
0000
1000
0000
0001
,
0000
0000
0100
0000
0000
0100
0001
0000
0001
1000
0000
1000
,
0100
0000
0000
1100
0000
0000
0101
0000
0000
0001
0000
1000
,
0000
0000
0010
0000
0000
0010
1000
0000
1000
0001
0000
0001
,
0010
0000
0000
0011
0000
0000
1001
0000
0000
0010
0000
0001
,
0000
0000
1000
0000
0000
1000
0100
0000
0100
0010
0000
0010
,
0001
0000
0000
0011
0000
0000
1100
0000
0000
0100
0000
0010
,
0000
0000
0001
0000
0000
0001
1000
0000
1000
0001
0000
0000
,
1000
0000
1000
0010
0000
0010
0001
0000
0001
0010
0000
0010
,
0100
0000
0100
0001
0000
0001
0100
0000
0100
0001
0000
0001
,
1000
0000
1000
0001
0000
0001
0010
0000
0010
0001
0000
0001
,
0100
0000
0100
1000
0000
1000
0100
0000
0100
0001
0000
0001
,
0100
0000
0000
1100
0000
0000
1001
0000
0000
0001
0000
1000
,
0000
0000
0100
0000
0000
0010
0001
0000
0001
1000
0000
1000
,
0100
0000
0000
0110
0000
0000
1001
0000
0000
1000
0000
0010
,
0000
0000
0010
1000
0000
1000
0001
0000
0001
0000
0000
0000
;

//---------------dance-double - ----------------
#NOTES:
     dance-double:
     :
     Beginner:
     1:
     :
00000000
00000000
00000000
00000000
,
00000000
00000000
00000000
00000000
,
00000000
00000000
00000000
00000000
,
00000000
00000000
00000000
00000000
,
00010000
00000000
00001000
00000000
,
00010000
00000000
00010000
00000000
,
00001000
00000000
00000001
00000000
,
00001000
00000000
00000001
00000000
,
00000100
00000000
00001000
00000000
,
00000100
00000000
00000100
00000000
,
00001000
00000000
00001000
00000000
,
00011000
00000000
00000000
00000000
,
00010000
00000000
00000000
10000000
,
00000000
10010000
00000000
00100000
,
00000000
01100000
00000000
00010000
,
00000000
00011000
00000000
00001000
,
00000000
00001001
00000000
00000100
,
00000000
00000110
00000000
00000001
,
00000000
00001001
00000000
00001000
,
00000000
00000000
00000000
00000000
,
00001000
00000000
00001000
00000000
,
01000000
00000000
01100000
00000000
,
10000000
00000000
00010000
00000000
,
10000000
00000000
10010000
00000000
,
00001000
00000000
00001000
00000000
,
00000001
00000000
00000110
00000000
,
00000010
00000000
00000100
00000000
,
00010000
00000000
01100000
00000000
,
01000000
00000000
00000000
00010000
,
00000000
00010000
00000000
00010000
,
00000000
01000000
00000000
00001000
,
00000000
00000001
00000000
00001000
,
00000000
00100000
00000000
01000000
,
00000000
00001000
00000000
00001000
,
00000000
00000001
00000000
00001000
,
00000000
01000000
00000000
01000000
,
00000000
00001000
00000000
00001000
,
00000000
00000000
00000000
00000000
,
00010000
00000000
00000000
00010000
,
00000000
10010000
00000000
01000000
,
00000000
10010000
00000000
00100000
,
00000000
01100000
00000000
00010000
,
00000000
00011000
00000000
00001000
,
00000000
00000110
00000000
00000010
,
00000000
00000110
00000000
00000001
,
00000000
00000000
00000000
00000000
,
00000001
00000000
00000001
00000000
,
00000100
00000000
00011000
00000000
,
00010000
00000000
00010000
00000000
,
10000000
00000000
01100000
00000000
,
01000000
00000000
01000000
00000000
,
01000000
00000000
00011000
00000000
,
00001000
00000000
00000001
00000000
,
00000001
00000000
00000110
00000000
,
00000010
00000000
00000100
00000000
,
00010000
00000000
10010000
00000000
,
00100000
00000000
01000000
00000000
,
00100000
00000000
10010000
00000000
,
01000000
00000000
00000000
00000000
,
00010000
00000000
00000000
00000000
,
00001000
00000000
00000000
00000000
,
00011000
00000000
00000000
00000000
;

//---------------dance-double - ----------------
#NOTES:
     dance-double:
     :
     Easy:
     5:
     :
00000000
00000000
00000000
00000000
,
00000000
00000000
00000000
00000000
,
00000000
00000000
00000000
00000000
,
00000000
00000000
00000000
00000000
,
00010000
00010000
00001000
00001000
,
00010000
00001000
00010000
00000000
,
00001000
00000100
00000001
00000010
,
00001000
00000010
00000001
00000000
,
00000100
00000100
00001000
00001000
,
00000100
00001000
00000100
00000000
,
00001000
00010000
00001000
00010000
,
00022000
00000000
00000000
00033000
,
00010000
10010000
00000000
10000000
,
01000000
10010000
00000000
00100000
,
01000000
01100000
00000000
00010000
,
00001000
00011000
00000000
00001000
,
00000100
00001001
00000000
00000100
,
00000010
00000110
00000000
00000001
,
00000010
00001001
00000000
00001000
,
00022000
00000000
00000000
00033000
,
00001000
00010000
00001000
00010000
,
01000000
10000000
01100000
10010000
,
10000000
01000000
00010000
01000000
,
10000000
01000000
10010000
01100000
,
00001000
00010000
00001000
00000100
,
00000001
00000010
00000110
00001001
,
00000010
00000001
00000100
00001000
,
00010000
01000000
01100000
10010000
,
02000000
00010000
00000000
00010000
,
00000000
00010000
00000000
03010000
,
10000000
01000000
00010000
00001000
,
00000100
00000001
00000010
00001000
,
00010000
00100000
10000000
01000000
,
00010000
00001000
00010000
00001000
,
00000100
00000001
00000100
00001000
,
00010000
01000000
10000000
01000000
,
00010000
00001000
00010000
00001000
,
00022000
00000000
00000000
00033000
,
00010000
00011000
00000000
00010000
,
01000000
10010000
00000000
01000000
,
10000000
10010000
00000000
00100000
,
01000000
01100000
00000000
00010000
,
00001000
00011000
00000000
00001000
,
00000100
00000110
00000000
00000010
,
00000100
00000110
00000000
00000001
,
00002002
00000000
00000000
00003003
,
00000001
00001000
00000001
00001000
,
00000100
00001000
00011000
00011000
,
00010000
01000000
00010000
01000000
,
10000000
01000000
01100000
10010000
,
01000000
00010000
01000000
10000000
,
01000000
00010000
00011000
00011000
,
00001000
00000100
00000001
00000010
,
00000001
00000100
00000110
00001001
,
00000010
00000001
00000100
00001000
,
00010000
01000000
10010000
01100000
,
00100000
10000000
01000000
10000000
,
00100000
10000000
10010000
01100000
,
02000000
00000000
00000000
03000000
,
00020000
00000000
00000000
00030000
,
00002000
00000000
00000000
00003000
,
00022000
00000000
00000000
00033000
;

//---------------dance-double - ----------------
#NOTES:
     dance-double:
     :
     Medium:
     6:
     :
00000000
00000000
00000000
00000000
,
00000000
00000000
00000000
00000000
,
00000000
00000000
00000000
00000000
,
00000000
00000000
00000000
00000000
,
00002000
00010000
01000000
00013000
,
00011000
00000000
00000000
00010000
00000000
00001000
00000000
00000000
00000000
00011000
00000000
00000000
,
00002000
00003100
00000002
00000013
,
00002000
00003010
00000002
00000103
,
00002000
00010000
01000000
00013000
,
00011000
00000000
00010000
00000000
00000000
01000000
00000000
00000000
00000000
01100000
00000000
00000000
,
00010000
00100000
10000000
10010000
,
00100000
00000000
00100000
01000000
00000000
01000000
10000000
00000000
10000000
00100000
00000000
00100000
,
10000000
00000000
10000000
00010000
00000000
00000000
01000000
00000000
00000000
01100000
00000000
00000000
,
10000000
00000000
10000000
01000000
00000000
00000000
00010000
00000000
00000000
10010000
00000000
00000000
,
01000000
00000000
01000000
00010000
00000000
00000000
00001000
00000000
00000000
00011000
00000000
00000000
,
00001000
00000000
00001000
00000100
00000000
00000000
00000001
00000000
00000000
00000101
00000000
00000000
,
00000010
00000000
00000010
00000100
00000000
00000000
00001000
00000000
00000000
00001001
00000000
00000000
,
00000001
00000000
00000001
00001000
00000000
00000000
00000010
00000000
00000000
00000110
00000000
00000000
,
00001000
00000000
00001000
00000100
00000000
00000000
00000100
00000000
00000000
00001100
00000000
00000000
,
00010000
00000000
00010000
00001000
00000000
00001000
00010000
00000000
00010000
01000000
00000000
01000000
,
10000000
00100000
00010000
00001000
,
00010000
00000000
00000000
01000000
00000000
00000000
10000000
00000000
10000000
00100000
00000000
00100000
,
10000000
01000000
00010000
00001000
,
00010000
00000000
00000000
01000000
00000000
00000000
00010000
00000000
00001000
00000100
00000000
00000100
,
00001000
00010000
00001000
00000100
,
00000001
00000000
00000000
00000010
00000000
00000000
00001000
00000000
00001000
00010000
00000000
00010000
,
00100000
10000000
00100000
00010000
,
00100000
00000000
00000000
10000000
00000000
10000000
01000000
00000000
01000000
00000000
00000000
00000000
,
00000000
11000000
00000000
10010000
,
00000000
01100000
00000000
01010000
,
00002000
00010000
01000000
00013000
,
00011000
00000000
00000000
00010000
00000000
00001000
00000000
00000000
00000000
00011000
00000000
00000000
,
00001000
00000000
00000000
00000100
00000000
00000000
00000001
00000000
00000000
00000100
00000000
00001000
,
00000000
00000000
00000000
00000000
,
00020000
00001000
00000100
00031000
,
00011000
00000000
00000000
00010000
00000000
00001000
00000000
00000000
00000000
00000000
00000000
00000000
,
00020000
00001000
00000100
00031000
,
00010000
00000000
00010000
00001000
00000000
00001000
00000100
00000000
00000100
00000001
00000000
00000001
,
00000010
00000000
00000010
00001000
00000000
00000000
00010000
00000000
00000000
00011000
00000000
00000000
,
00001000
00000000
00001000
00010000
00000000
00000000
01000000
00000000
00000000
11000000
00000000
00000000
,
00100000
00000000
00100000
00010000
00000000
00000000
00100000
00000000
00000000
00110000
00000000
00000000
,
00010000
00000000
00010000
10000000
00000000
00000000
00100000
00000000
00000000
01100000
00000000
00000000
,
00100000
00000000
00100000
10000000
00000000
00000000
01000000
00000000
00000000
10010000
00000000
00000000
,
00010000
00000000
00010000
01000000
00000000
00000000
10000000
00000000
00000000
11000000
00000000
00000000
,
01000000
00000000
01000000
00010000
00000000
00000000
00001000
00000000
00000000
00011000
00000000
00000000
,
00001000
00000000
00001000
00010000
00000000
00010000
00100000
00000000
00100000
00010000
00000000
00010000
,
00001000
00000100
00000001
00000010
,
00001000
00000000
00000000
00000010
00000000
00000000
00000001
00000000
00000001
00001000
00000000
00001000
,
00000001
00001000
00000010
00000001
,
00000010
00000000
00000000
00001000
00000000
00000000
00000001
00000000
00000001
00000100
00000000
00000100
,
00001000
00010000
01000000
00010000
,
00001000
00000000
00000000
00000100
00000000
00000000
00001000
00000000
00010000
01000000
00000000
01000000
,
10000000
00100000
00010000
00100000
,
10000000
00000000
00000000
01000000
00000000
00000000
00100000
00000000
00100000
00010000
00000000
00000000
,
00002000
00010000
01000000
00013000
,
00011000
00000000
00000000
00010000
00000000
00000000
01000000
00000000
01000000
10000000
00000000
10000000
,
00100000
00010000
00100000
10000000
,
01000000
00000000
00000000
00010000
00000000
00000000
00001000
00000000
00001000
00010000
00000000
00010000
,
00001000
00000100
00000001
00000010
,
00000001
00000000
00000000
00000100
00000000
00000000
00000001
00000000
00000010
00000001
00000000
00000100
,
00001000
00000000
00000000
00010000
00000000
00000000
00001000
00000000
00000000
00000100
00000000
00001000
,
00000000
00000000
00010000
00001000
00000000
00001000
00010000
00000000
00010000
00000000
00000000
00000000
;

//---------------dance-double - ----------------
#NOTES:
     dance-double:
     :
     Hard:
     9:
     :
00000000
00000000
00000000
00000000
,
00000000
00000000
00000000
00000000
,
00000000
00000000
00000000
00000000
,
00000000
00000000
00000000
00000000
,
00001000
00000000
00000000
00001000
00000000
00000100
00000001
00000000
00000000
00000011
00000000
00000000
,
00000001
00000000
00000000
00000001
00000000
00000100
00001000
00000000
00000000
00001100
00000000
00000000
,
00010000
00000000
00000000
00001000
00000000
00010000
01000000
00000000
00000000
01010000
00000000
00000000
,
01000000
00000000
00000000
10000000
00000000
01000000
10000000
00000000
00000000
11000000
00000000
00000000
,
10000000
00000000
00000000
00010000
00000000
10000000
00010000
00000000
00000000
10010000
00000000
00000000
,
01000000
00000000
00000000
00010000
00000000
01000000
00010000
00000000
00000000
01010000
00000000
00000000
,
00001000
00000000
00000000
00010000
00000000
00001000
00010000
00000000
00000000
00011000
00000000
00000000
,
00010000
00001000
00010000
00001000
00000100
00001000
00000100
00000010
00000100
00000001
00000100
00000001
,
00000010
00000000
00000010
00000001
00000000
00000100
00000010
00000000
00000000
00001000
00000000
00000000
,
00000001
00000000
00000100
00001000
00000000
00010000
00001000
00000000
00000000
00010000
00000000
00000000
,
00001000
00000000
00000100
00000001
00000000
00000010
00000001
00000000
00000000
00000100
00000000
00000000
,
00001000
00000000
00010000
00001000
00000000
00010000
01000000
00000000
00000000
10000000
00000000
00000000
,
00100000
00000000
10000000
00010000
00000000
00100000
01000000
00000000
00000000
00010000
00000000
00000000
,
00010000
00000000
01000000
10000000
00000000
01000000
00010000
00000000
00000000
01000000
00000000
00000000
,
10000000
00000000
10000000
01000000
00000000
00010000
00001000
00000000
00000000
00010000
00000000
00000000
,
01000000
00010000
01000000
00010000
00001000
00010000
00001000
00000100
00001000
00010000
00001000
00010000
,
00001000
00000000
00000000
00011000
00000000
00000000
00010100
00000000
00000000
00001000
00000000
00000100
,
00000000
00000000
00000010
00000000
00000000
00000001
00000010
00000000
00000001
00000100
00000000
00000010
,
00001000
00000000
00000000
00010010
00000000
00000000
00011000
00000000
00000000
00001000
00000000
00010000
,
00000000
00000000
01000000
00000000
00000000
01000000
10000000
00000000
00100000
10000000
00000000
00010000
,
10000000
00000000
00000000
01100000
00000000
00000000
10010000
00000000
00000000
00010000
00000000
10000000
,
00000000
00000000
00100000
00000000
00000000
00100000
10000000
00000000
01000000
00010000
00000000
01000000
,
00100000
00000000
00000000
00110000
00000000
00000000
11000000
00000000
00000000
10000000
00000000
01000000
,
00000000
00000000
00010000
00001000
00000000
00010000
00001000
00000000
00010000
00000000
00000000
00000000
,
00000000
00021000
00000000
00000100
,
00000000
00030000
00000000
00010100
,
00010000
00000000
00000000
00010000
00000000
01000000
10000000
00000000
00000000
10100000
00000000
00000000
,
10000000
00000000
00000000
10000000
00000000
01000000
00010000
00000000
00000000
01010000
00000000
00000000
,
00001000
00000000
00000000
00010000
00000000
00001000
00000100
00000000
00000000
00001100
00000000
00000000
,
00000100
00000000
00000000
00000001
00000000
00000100
00000001
00000000
00000000
00000101
00000000
00000000
,
00000001
00000000
00000000
00001000
00000000
00000001
00001000
00000000
00000000
00001001
00000000
00000000
,
00000100
00000000
00000000
00001000
00000000
00000100
00001000
00000000
00000000
00001100
00000000
00000000
,
00010000
00000000
00000000
00001000
00000000
00010000
00001000
00000000
00000000
00011000
00000000
00000000
,
00010000
00001000
00010000
01000000
00010000
01000000
10000000
01000000
10000000
00100000
10000000
00100000
,
10000000
00000000
00010000
10000000
00000000
00010000
01000000
00000000
00000000
00100000
00000000
00000000
,
10000000
00000000
01000000
00010000
00000000
01000000
10000000
00000000
00000000
10000000
00000000
00000000
,
01000000
00000000
00010000
00001000
00000000
00001000
00000100
00000000
00000000
00000100
00000000
00000000
,
00000001
00000000
00000010
00000001
00000000
00000010
00001000
00000000
00000000
00001000
00000000
00000000
,
00000010
00000000
00000001
00000100
00000000
00001000
00000100
00000000
00000000
00000100
00000000
00000000
,
00001000
00000000
00010000
00001000
00000000
00010000
01000000
00000000
00000000
01000000
00000000
00000000
,
10000000
00000000
10000000
01000000
00000000
00010000
01000000
00000000
00000000
01000000
00000000
00000000
,
10000000
01000000
10000000
01000000
00010000
01000000
00010000
00001000
00010000
00001000
00000100
00001000
,
00000100
00000000
00000000
00000001
00000000
00000001
00000100
00001000
00000100
00000001
00000000
00000000
,
00000100
00001000
00000100
00001000
00000000
00010000
00001000
00010000
00001000
00010000
00000000
00000000
,
00010000
00000000
00000000
01000000
00000000
10000000
00100000
10000000
01000000
10000000
00000000
00000000
,
10000000
01000000
00100000
00010000
00000000
00010000
00100000
01000000
10000000
01000000
00000000
00000000
,
00100000
00000000
00000000
00010000
00000000
10000000
01000000
00010000
01000000
10000000
00000000
00000000
,
01000000
00010000
01000000
00010000
00000000
00001000
00010000
00001000
00010000
00001000
00000000
00000000
,
00000100
00000000
00000000
00000001
00000000
00000010
00000001
00000100
00000001
00000010
00000000
00000000
,
00001000
00000010
00000001
00000010
00000000
00000001
00000100
00000001
00001000
00000001
00000000
00000000
,
00000001
00000000
00000001
00000100
00000000
00000100
00001000
00000000
00001000
00010000
00000000
00010000
,
00100000
00000000
00100000
00010000
00000000
00010000
00000010
00000000
00000010
00010000
00000000
00010000
,
00001000
00000000
00001000
01000000
00000000
01000000
00010000
00000000
00010000
10000000
00000000
10000000
,
01000000
00000000
01000000
00100000
00000000
00100000
00001000
00000000
00001000
00010000
00000000
00010000
,
00001000
00000000
00000000
01001000
00000000
00000000
00011000
00000000
00000000
00010000
00000000
00001000
,
00000000
00000000
00000100
00000000
00000000
00000001
00000100
00000000
00000100
00000001
00000000
00000001
,
00001000
00000000
00000000
00000110
00000000
00000000
00001001
00000000
00000000
00000100
00000000
00010000
,
00000000
00000000
00001000
00010000
00000000
00010000
00001000
00000000
00001000
00000000
00000000
00000000
;
