#TITLE:Love Machine;
#ARTIST:Girls Aloud;
#BANNER:Love Machine.png;
#BACKGROUND:Love Machine-bg.png;
#CDTITLE:./CDTITLES/DANCING STAGE UNLEASHED 2.png;
#MUSIC:Love Machine.ogg;
#SAMPLESTART:64.15;
#SAMPLELENGTH:15;
#BPMS:0=116;
#BGCHANGES:2=Love Machine.avi=1=0=0=0;

//---------------dance-single - ----------------
#NOTES:
     dance-single:
     :
     Beginner:
     1:
     :
0000
0000
0000
0000
,
0000
0000
0000
0000
,
0000
0000
0000
0000
,
0000
0000
0000
0000
,
0000
0000
0000
0000
,
1000
0000
0001
0000
,
1000
0000
1000
0000
,
1000
0000
0010
0000
,
1000
0000
0010
0000
,
0010
0000
1000
0000
,
1001
0000
0000
0000
,
0001
0000
0010
0000
,
0001
0000
0010
0000
,
0010
0000
0001
0000
,
0110
0000
0000
0000
,
0010
0000
0010
0000
,
0001
0000
1000
0000
,
0001
0000
0001
0000
,
0001
0000
1000
0000
,
0010
0000
0010
0000
,
0001
0000
0100
0000
,
0100
0000
0100
0000
,
0010
0000
0100
0000
,
1000
0000
0010
0000
,
0000
0000
0000
0100
,
0000
0000
0000
0001
,
0000
0000
0000
0000
,
0010
0000
0000
0001
,
0000
0000
0000
1000
,
0000
0000
0000
0100
,
0000
0000
0000
0000
,
1000
0000
0001
0000
,
1000
0000
1000
0000
,
0100
0000
0010
0000
,
0110
0000
1001
0000
,
1000
0000
0010
0000
,
1000
0000
0010
0000
,
0010
0000
1000
0000
,
1000
0000
0001
0000
,
0001
0000
0100
0000
,
0010
0000
0001
0000
,
0001
0000
0001
0000
,
1001
0000
0110
0000
,
0001
0000
1000
0000
,
0001
0000
0001
0000
,
0010
0000
0100
0000
,
0110
0000
1001
0000
,
0010
0000
1000
0000
,
1000
0000
1000
0000
,
0010
0000
0100
0000
,
0010
0000
0100
0000
,
1001
0000
0000
0000
;

//---------------dance-single - ----------------
#NOTES:
     dance-single:
     :
     Easy:
     4:
     :
0000
0000
0000
0000
,
0000
0000
0000
0000
,
0000
0000
0000
0000
,
0000
0000
0000
0000
,
0000
0000
0000
0000
,
1000
1000
0001
0001
,
1000
0001
1000
0001
,
1000
0100
0010
0001
,
1000
0100
0010
0001
,
0010
0001
1000
0100
,
2002
0000
0000
3003
,
0001
0100
0010
1000
,
0001
0100
0010
1000
,
0010
1000
0001
0100
,
0220
0000
0000
0330
,
0010
1000
0010
1000
,
0001
0100
1000
0100
,
0001
0010
0001
0010
,
0002
0000
2000
3003
,
0010
0100
0010
0100
,
0001
1000
0100
0001
,
0100
1000
0100
1000
,
0020
0000
0200
0330
,
2000
0000
3000
0010
,
0020
0000
0030
0100
,
0200
0000
0300
0001
,
0002
0000
0000
0003
,
0020
0000
0030
0001
,
0002
0000
0003
1000
,
2000
0000
3000
0100
,
0200
0000
0000
0300
,
1000
1000
0001
0001
,
1000
0001
1000
0001
,
0100
0100
0010
0010
,
0110
0000
1001
0000
,
1000
0100
0010
0001
,
1000
0100
0010
0001
,
0010
0001
1000
0100
,
2000
0000
0002
3003
,
0001
1000
0100
1000
,
0010
1000
0001
0100
,
0001
0010
0001
0100
,
1001
0000
0110
0000
,
0001
0001
1000
1000
,
0001
1000
0001
1000
,
0010
0010
0100
0100
,
0110
0000
1001
0000
,
0010
0001
1000
0100
,
1000
0010
1000
0100
,
0010
0001
0100
0001
,
0010
0001
0100
0001
,
2002
0000
0000
3003
;

//---------------dance-single - ----------------
#NOTES:
     dance-single:
     :
     Medium:
     5:
     :
0000
0000
0000
0000
,
0000
0000
0000
0000
,
0000
0000
0000
0000
,
0000
0000
0000
0000
,
0000
0000
0000
0000
,
1000
1100
0001
0101
,
0010
1000
0010
1000
0001
0000
0000
0000
,
1000
0100
1000
0000
0001
0010
0001
0000
,
1000
1100
0010
0011
,
1000
0100
1000
0000
0001
0010
0001
0000
,
0010
0100
0010
0200
0000
0000
0300
0000
,
0001
0100
0001
0000
1000
0100
1000
0000
,
0001
0011
0100
1100
,
0010
0100
0010
0000
0001
1000
0001
0000
,
1000
0010
1000
0020
0000
0000
0030
0000
,
0011
0000
1100
0000
0010
1000
0100
0000
,
0001
1000
0100
0000
1000
0001
0100
0000
,
1100
0000
0101
0000
0001
0100
0010
0000
,
1000
0100
0010
0002
0000
0000
0003
0000
,
1010
0000
0101
0000
0001
1000
0001
0000
,
1000
0100
1000
0010
1000
0010
1000
0000
,
1001
0000
0110
0000
1000
0001
1000
0000
,
0001
1000
0001
0200
0000
0000
0300
0000
,
1000
1001
0010
0110
,
1000
1100
0001
0101
,
0010
0110
1000
1001
,
0220
0000
0000
0330
,
0001
1001
1000
1001
,
0010
1010
0010
0011
,
0100
1001
0010
0110
,
2002
0000
0000
3003
,
0010
1000
0001
0000
0010
0001
0100
0000
,
0100
0010
0001
0000
0101
0000
1001
0000
,
0100
0010
1000
0000
0010
0100
0001
0000
,
1000
0001
1000
0002
0000
0000
0003
0000
,
1000
0100
0010
0000
0010
0001
1000
0000
,
0001
1000
0001
0000
1001
0000
0110
0000
,
0010
0100
0010
0000
1000
0100
0010
0000
,
0001
0010
0001
0020
0000
0000
0030
0000
,
0001
1000
0001
1001
,
0100
0010
0100
0110
,
0001
0100
0001
0101
,
1000
0001
0100
0000
0010
1000
0100
0000
,
0010
1000
0010
1010
,
1000
0001
1000
1001
,
0100
1000
0100
1100
,
0010
1000
0100
0002
0000
0000
0003
0000
,
1100
0000
0101
0000
0001
0100
1000
0000
,
0110
0000
1001
0000
0001
1000
0001
1000
,
0001
0000
0110
0000
1000
0100
0001
0000
,
0011
0000
1100
0000
0010
0100
0010
0000
,
0220
0000
0000
0330
;

//---------------dance-single - ----------------
#NOTES:
     dance-single:
     :
     Hard:
     8:
     :
0000
0000
0000
0000
,
0000
0000
0000
0000
,
0000
0000
0000
0000
,
0000
0000
0000
0000
,
0000
0000
0000
0000
,
0010
0001
1000
0100
,
0010
0001
1000
0100
1000
0000
1001
0000
,
1000
0100
0001
0100
1000
0100
1000
0010
,
0001
0010
1000
0010
1000
0100
0010
0001
,
0010
0001
1000
0100
0010
0001
0010
0001
,
0100
1000
0100
0001
0000
0000
0000
0000
,
0010
0001
1000
0100
0010
0100
0010
0001
,
0100
1000
0100
0010
0100
0010
1000
0001
,
0100
0010
1000
0100
1000
0100
0010
0001
,
1000
0100
1000
0100
0000
0000
0000
0000
,
1100
0000
0000
0000
0101
0000
0000
0000
0100
0001
0000
0100
0000
0000
0001
1000
,
0001
0000
1000
0000
0100
0000
0010
0000
0001
1000
0000
0001
0000
0000
0000
0000
,
0110
0000
0000
0000
1001
0000
0000
0000
0010
0100
0000
0010
0000
0000
0000
0000
,
1000
0000
0100
0000
0010
0000
0100
1000
0000
0000
0000
0000
0000
0000
0100
0001
,
0100
0000
0000
0000
0001
0000
0000
0000
0001
0100
0000
0001
0000
0000
0010
0001
,
0010
0001
1000
0100
1000
0100
0010
0001
0010
0001
0000
1000
0000
0000
0000
0000
,
1001
0000
0000
0000
0110
0000
0000
0000
1000
0001
0000
1000
0000
0000
0000
0000
,
0001
0000
0100
0000
1000
0000
0100
0001
0000
0000
0000
0000
0000
0000
0000
0000
,
0010
0001
1000
0100
0000
0010
0100
0010
,
0000
0001
0100
0001
0000
0100
1000
0100
,
0000
0010
1000
0010
0000
1000
0100
2000
,
0000
0000
0000
3000
,
1000
0100
0010
0001
0000
0010
0001
0010
,
0000
0100
1000
0100
0000
0010
0100
0010
,
0000
0001
1000
0001
0000
0010
1000
0020
,
0000
0000
0000
0030
,
0010
0001
0100
1000
0100
0001
0010
0100
,
1000
0100
0010
0001
1000
0100
0010
0100
,
1000
0001
0010
0100
0010
0001
1000
0100
,
0001
0100
1000
0010
0000
0000
0000
0000
,
0001
0100
1000
0100
0001
0010
1000
0010
,
0001
0100
1000
0100
0010
0100
1000
0100
,
0001
0010
0100
1000
0100
0010
0001
0100
,
0010
1000
0001
0100
0000
0000
0000
0000
,
0010
0000
1000
0000
0100
0000
1000
0000
0001
0000
1000
0001
0000
0001
1000
0000
,
0100
0000
1000
0000
0100
0000
0010
0000
0001
0000
0010
0100
0000
0100
0010
0000
,
0001
0000
0100
0000
1000
0000
0100
0000
0001
0000
0100
0010
0000
0010
0100
0000
,
0001
1000
0001
1000
0100
1000
0100
0010
,
0001
0000
1000
0000
0100
0000
0010
0000
0100
0000
1000
0100
0000
0100
1000
0000
,
0100
0000
0010
0000
0001
0000
0100
0000
0001
0000
0100
0001
0000
0001
0100
0000
,
0010
0000
1000
0000
0100
0000
0010
0000
0001
0000
0010
0001
0000
0001
0010
0000
,
0100
1000
0100
1000
0000
0000
0000
0000
,
0010
1000
0100
0001
0000
0001
0100
0000
,
1001
0000
0000
0000
0001
0000
0000
0100
0001
0100
0001
0100
0001
0000
0100
0000
,
0010
1000
0001
0100
0000
0100
0001
0000
,
0101
0000
1100
0000
1000
0001
1000
0001
,
2000
0000
0000
3000
;

//---------------dance-double - ----------------
#NOTES:
     dance-double:
     :
     Beginner:
     1:
     :
00000000
00000000
00000000
00000000
,
00000000
00000000
00000000
00000000
,
00000000
00000000
00000000
00000000
,
00000000
00000000
00000000
00000000
,
00000000
00000000
00000000
00000000
,
00010000
00000000
00001000
00000000
,
00010000
00000000
00010000
00000000
,
00000100
00000000
00000010
00000000
,
00000100
00000000
00000100
00000000
,
00000100
00000000
00010000
00000000
,
00011000
00000000
00000000
00000000
,
00010000
00000000
10000000
00000000
,
10000000
00000000
00010000
00000000
,
00010000
00000000
00010000
00000000
,
00011000
00000000
00000000
00000000
,
00001000
00000000
01000000
00000000
,
00100000
00000000
00100000
00000000
,
00010000
00000000
00010000
00000000
,
01000000
00000000
00100000
00000000
,
00001000
00000000
00001000
00000000
,
00000001
00000000
00000001
00000000
,
00001000
00000000
00001000
00000000
,
00100000
00000000
10000000
00000000
,
10000000
00000000
00000000
00000000
,
00100000
00000000
00000000
00000000
,
01000000
00000000
00000000
00000000
,
00010000
00000000
00000000
00000000
,
10000000
00000000
01000000
00000000
,
00010000
00000000
00001000
00000000
,
00000100
00000000
00000001
00000000
,
00001001
00000000
00000000
00000000
,
00000001
00000000
00001000
00000000
,
00000001
00000000
00001000
00000000
,
01000000
00000000
00100000
00000000
,
10010000
00000000
01100000
00000000
,
00100000
00000000
01000000
00000000
,
00100000
00000000
01000000
00000000
,
00001000
00000000
00001000
00000000
,
00011000
00000000
00000110
00000000
,
00000010
00000000
00000100
00000000
,
00000100
00000000
00000010
00000000
,
00001000
00000000
00001000
00000000
,
00100000
00000000
10000000
00000000
,
10000000
00000000
00010000
00000000
,
10000000
00000000
10000000
00000000
,
01000000
00000000
00001000
00000000
,
00001001
00000000
00000110
00000000
,
00000010
00000000
00000100
00000000
,
00000010
00000000
00000100
00000000
,
00010000
00000000
10000000
00000000
,
10000000
00000000
10000000
00000000
,
10010000
00000000
00000000
00000000
;

//---------------dance-double - ----------------
#NOTES:
     dance-double:
     :
     Easy:
     5:
     :
00000000
00000000
00000000
00000000
,
00000000
00000000
00000000
00000000
,
00000000
00000000
00000000
00000000
,
00000000
00000000
00000000
00000000
,
00000000
00000000
00000000
00000000
,
00010000
00010000
00001000
00001000
,
00010000
00001000
00010000
00001000
,
00000100
00000001
00000010
00000001
,
00000100
00001000
00000100
00000001
,
00000100
00001000
00010000
00001000
,
00022000
00000000
00000000
00033000
,
00010000
01000000
10000000
00100000
,
10000000
01000000
00010000
01000000
,
00010000
00001000
00010000
00001000
,
00022000
00000000
00000000
00033000
,
00001000
00010000
01000000
10000000
,
00100000
10000000
00100000
01000000
,
00010000
00100000
00010000
10000000
,
01000000
00000000
00100000
00000000
,
00001000
00010000
00001000
00000100
,
00000001
00000010
00000001
00000100
,
00001000
00010000
00001000
00010000
,
00100000
00000000
10000000
00000000
,
20000000
00000000
00000000
30000000
,
00200000
00000000
00000000
00300000
,
02000000
00000000
00000000
03000000
,
00020000
00000000
00000000
00030000
,
20000000
30000000
02000000
03000000
,
00020000
00030000
00002000
00003000
,
00000200
00000300
00000002
00000003
,
00002002
00000000
00000000
00003003
,
00000001
00000001
00001000
00001000
,
00000001
00000100
00001000
00010000
,
01000000
01000000
00100000
00100000
,
10010000
00000000
01100000
00000000
,
00100000
10000000
01000000
10000000
,
00100000
10000000
01000000
00010000
,
00001000
00010000
00001000
00010000
,
00011000
00000000
00001100
00000000
,
00000010
00001000
00000100
00000001
,
00000100
00001000
00000010
00000100
,
00001000
00010000
00001000
00010000
,
00100000
00000000
10000000
00000000
,
10000000
10000000
00010000
00010000
,
10000000
00010000
10000000
00010000
,
01000000
00010000
00001000
00000100
,
00001001
00000000
00000110
00000000
,
00000010
00000001
00000100
00000001
,
00000010
00000001
00000100
00001000
,
00010000
01000000
10000000
00100000
,
10000000
01000000
10000000
00100000
,
20020000
00000000
00000000
00000000
00000000
00000000
00000000
30030000
;

//---------------dance-double - ----------------
#NOTES:
     dance-double:
     :
     Medium:
     6:
     :
00000000
00000000
00000000
00000000
,
00000000
00000000
00000000
00000000
,
00000000
00000000
00000000
00000000
,
00000000
00000000
00000000
00000000
,
00000000
00000000
00000000
00000000
,
01100000
00000000
10010000
00000000
10000000
01000000
00010000
00000000
,
00200000
20300000
30020000
20030000
,
30010000
00100000
01000000
00000000
01100000
00000000
10010000
00000000
,
10000000
01000000
00010000
00000000
00011000
00000000
00011000
00000000
,
00010000
00001000
00000100
00000000
00001100
00000000
00000101
00000000
,
00000001
00000010
00000100
00002000
00000000
00000000
00003000
00000000
,
00000010
00000001
00000100
00000000
00000101
00000000
00001100
00000000
,
00000100
00001000
00010000
00000000
00011000
00000000
00011000
00000000
,
00001000
00000100
00000001
00000000
00000101
00000000
00001100
00000000
,
00000100
00001000
00010000
00002000
00000000
00000000
00003000
00000000
,
00010000
00000000
00001000
00000000
00010000
01000000
10000000
00000000
,
10000000
00100000
00010000
00000000
00010000
00100000
10000000
00000000
,
01000000
00000000
00010000
00000000
01000000
00100000
00010000
00000000
,
00010000
00100000
01000000
20000000
00000000
00000000
30000000
00000000
,
10000000
00000000
00010000
00000000
10000000
01000000
00010000
00000000
,
00010000
00001000
00000010
00000000
00000010
00000001
00000100
00000000
,
00000001
00000000
00001000
00000000
00000010
00001000
00000001
00000000
,
00001000
00000100
00000010
00000002
00000000
00000000
00000003
00000000
,
00001000
00000010
00000100
00001000
,
00010000
00001000
00000100
00001000
,
00010000
00100000
10000000
01000000
,
20020000
00000000
00000000
30030000
,
00010000
00100000
01000000
00010000
,
00001000
00000100
00001000
00010000
,
00001000
00000010
00000001
00000100
,
00002002
00000000
00000000
00003003
,
00000100
00000000
00000100
00001000
00000000
00001000
00010000
00000000
,
01000000
00000000
01000000
10000000
00000000
10000000
00100000
00000000
,
01000000
00000000
00010000
01000000
00000000
10000000
01000000
00000000
,
10000000
01000000
00010000
00000000
00010000
00100000
10000000
00000000
,
00100000
00000000
00100000
00010000
00000000
10000000
01000000
00000000
,
00010000
00000000
00010000
00001000
00000000
00000100
00000001
00000000
,
00001000
00000000
00001000
00000100
00000000
00000100
00001000
00000000
,
00000010
00001000
00000100
00000000
00000100
00001000
00000010
00000000
,
00001001
00000000
00000110
00000000
00000010
00001000
00000001
00000000
,
00001100
00000000
00000101
00000000
00000001
00001000
00000001
00000000
,
00001001
00000000
00000110
00000000
00000010
00000100
00000010
00000000
,
00000100
00001000
00010000
00000000
00010000
01000000
10000000
00000000
,
00200000
20300000
30200000
20300000
,
30010000
10000000
01000000
00000000
00010000
10000000
01000000
00000000
,
20000000
32000000
23000000
32000000
,
03010000
00001000
00010000
00000000
00001000
00010000
00001000
00000000
,
00011000
00000000
00011000
00000000
00010000
00001000
00000100
00000000
,
00001100
00000000
00000101
00000000
00001000
00000001
00000100
00000000
,
00000110
00000000
00001001
00000000
00000001
00000100
00001000
00000000
,
00010000
00001000
00010000
00001000
00010000
00000000
00011000
00000000
,
00022000
00000000
00000000
00000000
00000000
00000000
00000000
00033000
;

//---------------dance-double - ----------------
#NOTES:
     dance-double:
     :
     Hard:
     7:
     :
00000000
00000000
00000000
00000000
,
00000000
00000000
00000000
00000000
,
00000000
00000000
00000000
00000000
,
00000000
00000000
00000000
00000000
,
00000000
00000000
00000000
00000000
,
00011000
00000000
00000000
00000000
00001000
00000000
00000000
00001000
00000000
00001000
00000100
00000000
00000010
00000000
00001000
00000000
,
00000100
00000010
00000001
00000010
00000100
00001000
00000100
00000000
,
00000010
00000001
00000100
00001000
00000000
00010000
00000000
00000000
,
00010000
01000000
10000000
00100000
00000000
10000000
00000000
01000000
,
10000000
01000000
10000000
00100000
00000000
00100000
00000000
10000000
,
01000000
00010000
01000000
20000000
00000000
00000000
30000000
00000000
,
00100000
10000000
01000000
00010000
00000000
00001000
00000000
00001000
,
00000100
00000001
00000010
00000001
00000000
00000100
00000000
00000100
,
00000001
00000100
00000001
00000010
00000000
00000010
00000000
00000001
,
00000100
00001000
00000100
00000002
00000000
00000000
00000003
00000000
,
00000010
00000001
00000100
00000000
00000100
00000001
00000010
00000000
,
00000010
00000001
00000100
00001000
00010000
01000000
10000000
00000000
,
00100000
00010000
01000000
00000000
01000000
00010000
00100000
00000000
,
00010000
00000000
01000000
00000000
10000000
00000000
01000000
00020000
00000000
00000000
00000000
00000000
00030000
00000000
00000000
00000000
,
10000000
00010000
01000000
00000000
01000000
00010000
10000000
00000000
,
00010000
10000000
01000000
00010000
00001000
00000100
00000001
00000000
,
00000001
00000100
00000010
00000000
00000010
00000100
00000001
00000000
,
00001000
00000000
00000100
00000000
00000001
00000000
00000100
00002000
00000000
00000000
00000000
00000000
00003000
00000000
00000000
00000000
,
00001000
00000000
00000001
00000200
00000000
00000000
00001300
00020000
,
00000000
00000000
00031000
00000200
00000000
00000000
00001300
00020000
,
00000000
00000000
01030000
20000000
00000000
31000000
00010000
02000000
,
00000000
00000000
00000000
03000000
,
00100000
00000000
00010000
20000000
00000000
00000000
31000000
00020000
,
00000000
00000000
00000000
00000000
00031000
00000000
00000200
00000000
00000000
00000000
00000000
00000300
00001000
00000000
00020000
00000000
,
00000000
00000000
00031000
00000200
00000000
00000301
00000100
00000002
,
00000000
00000000
00000000
00000003
,
00000010
00000001
00000100
00001000
00000000
00000100
00001000
00000000
,
00000100
00001000
00010000
01000000
00000000
00010000
01000000
00000000
,
00010000
01000000
10000000
00100000
00000000
10000000
00010000
00000000
,
00010000
10000000
00100000
00010000
00001000
00000010
00000001
00000100
,
00001000
00000100
00000001
00000100
00000000
00000001
00000100
00000000
,
00000001
00000100
00001000
00010000
00000000
00001000
00010000
00000000
,
00001000
00010000
01000000
10000000
00000000
01000000
10000000
00000000
,
10000000
01000000
00010000
01000000
10000000
01000000
00010000
00000000
,
00000000
00001000
00010000
01000000
00000000
00010000
00001000
00000100
,
00000000
00000000
00001000
00000000
00000100
00000000
00000001
00000000
00000010
00000000
00000001
00001000
00000000
00001000
00000001
00000000
,
00000000
00000010
00000001
00000100
00000000
00000100
00000001
00000010
,
00000000
00000010
00000001
00000100
00001000
00010000
01000000
10000000
,
00000000
01000000
10000000
00100000
00000000
00100000
10000000
01000000
,
00000000
00000000
10000000
00000000
01000000
00000000
00010000
00000000
00001000
00000000
00010000
00001000
00000000
00001000
00010000
00000000
,
00000000
00001000
00000100
00000001
00000000
00000001
00000100
00001000
,
00000000
00000001
00000100
00001000
00010000
00001000
00000100
00001000
,
00010000
00001000
00000100
00001000
00000000
00010000
00001000
00000000
,
00011000
00000000
00000000
00000000
00001000
00000000
00000000
00001000
00000000
00001000
00000100
00000000
00000010
00000000
00001000
00000000
,
00000100
00000010
00000001
00000010
00000100
00001000
00000100
00000000
,
00001100
00000000
00011000
00000000
00010000
00001000
00010000
00001000
,
00022000
00000000
00000000
00000000
00000000
00000000
00000000
00033000
;
