#TITLE:I See You Baby;
#SUBTITLE:Fatboy Slim Radio Edit;
#ARTIST:Groove Armada feat. Gram'ma Funk;
#BANNER:I See You Baby Fatboy Slim Radio Edit.png;
#BACKGROUND:I See You Baby Fatboy Slim Radio Edit-bg.png;
#CDTITLE:./CDTITLES/DANCING STAGE UNLEASHED 2.png;
#MUSIC:I See You Baby Fatboy Slim Radio Edit.ogg;
#SAMPLESTART:53.29;
#SAMPLELENGTH:15;
#DISPLAYBPM:130;
#BPMS:0=130.07;
#BGCHANGES:4=I See You Baby Fatboy Slim Radio Edit.avi=1=0=0=0;

//---------------dance-single - ----------------
#NOTES:
     dance-single:
     :
     Beginner:
     1:
     :
0000
0000
0000
0000
,
0000
0000
0000
0000
,
0000
0000
0000
0000
,
0000
0000
0000
0000
,
0000
0000
0000
0000
,
0000
0000
0000
0000
,
0000
0000
0000
0000
,
1000
0000
0000
0000
,
1000
0000
0000
0000
,
0001
0000
0000
0000
,
0001
0000
0000
0000
,
1000
0000
0100
0000
,
0010
0000
0001
0000
,
1000
0000
0100
0000
,
0010
0000
0001
0000
,
0100
0000
0010
0000
,
0100
0000
0010
0000
,
0100
0000
0010
0000
,
1001
0000
0000
0000
,
1000
0000
0001
0000
,
1000
0000
0001
0000
,
1000
0000
1000
0000
,
0001
0000
0001
0000
,
1000
0000
1000
0000
,
0001
0000
0001
0000
,
1000
0000
0001
0000
,
0100
0000
0100
0000
,
1000
0000
0100
0000
,
0001
0000
0100
0000
,
1000
0000
0100
0000
,
0001
0000
0100
0000
,
1001
0000
0000
0000
,
0000
0000
0000
0000
,
0000
0000
0000
0000
,
0000
0000
0000
0000
,
1000
0000
0100
0000
,
0001
0000
0100
0000
,
1000
0000
0100
0000
,
0001
0000
0100
0000
,
1000
0000
0001
0000
,
1000
0000
0001
0000
,
0010
0000
0100
0000
,
1001
0000
0000
0000
,
1000
0000
1000
0000
,
0100
0000
0100
0000
,
0010
0000
0010
0000
,
0001
0000
0001
0000
,
1000
0000
0001
0000
,
1000
0000
0001
0000
,
1000
0000
0100
0000
,
0010
0000
0001
0000
,
1001
0000
0000
0000
,
1000
0000
0100
0000
,
0001
0000
0100
0000
,
1000
0000
0100
0000
,
0001
0000
0100
0000
,
1000
0000
0010
0000
,
0001
0000
0010
0000
,
1000
0000
0010
0000
,
0001
0000
0010
0000
,
1001
0000
0000
0000
;

//---------------dance-single - ----------------
#NOTES:
     dance-single:
     :
     Easy:
     2:
     :
0000
0000
0000
0000
,
0000
0000
0000
0000
,
0000
0000
0000
0000
,
0000
0000
0000
0000
,
0000
0000
0000
0000
,
0000
0000
0000
0000
,
0000
0000
0000
0000
,
1000
0000
0000
0000
,
1000
0000
0000
0000
,
0001
0000
0000
0000
,
0001
0000
0000
0000
,
1000
0000
0100
0000
,
0010
0000
0001
0000
,
1000
0000
0100
0000
,
0010
0000
0001
0000
,
0100
0000
0010
0000
,
0100
0000
0010
0000
,
0100
0000
0010
0000
,
2002
0000
0000
3003
,
1000
0000
0001
0000
,
1000
0000
0001
0000
,
1000
1000
1000
0000
,
0001
0001
0001
0000
,
1000
0000
1000
0000
,
0001
0000
0001
0000
,
1000
0000
0001
0000
,
0100
0000
0100
0000
,
1000
0000
0100
0000
,
0001
0000
0100
0000
,
1000
0000
0100
0000
,
0001
0000
0100
0000
,
2002
0000
0000
0000
,
0000
0000
0000
0000
,
0000
0000
0000
0000
,
0000
0000
0000
3003
,
1000
0000
0100
0000
,
0001
0000
0100
0000
,
1000
0000
0100
0000
,
0001
0000
0100
0000
,
1000
0000
0001
0000
,
1000
0000
0001
0000
,
0010
0000
0100
0000
,
2002
0000
0000
3003
,
1000
0000
1000
0000
,
0100
0000
0100
0000
,
0010
0000
0010
0000
,
0001
0000
0001
0000
,
1000
0000
0001
0000
,
1000
0000
0001
0000
,
1000
0000
0100
0000
,
0010
0000
0001
0000
,
2002
0000
0000
3003
,
1000
0000
0100
0000
,
0001
0000
0100
0000
,
1000
0000
0100
0000
,
0001
0000
0100
0000
,
1000
0000
0010
0000
,
0001
0000
0010
0000
,
1000
0000
0010
0000
,
0001
0000
0010
0000
,
2002
0000
0000
0000
,
3003
0000
0000
0000
;

//---------------dance-single - ----------------
#NOTES:
     dance-single:
     :
     Medium:
     5:
     :
0000
0000
0000
0000
,
0000
0000
0000
0000
,
0000
0000
0000
0000
,
0000
0000
0000
0000
,
0000
0000
0000
0000
,
0000
0000
0000
0000
,
0000
0000
0000
0000
,
1000
1000
0001
0001
,
1000
1000
0001
0001
,
0010
0010
0100
0100
,
0010
0010
0100
0100
,
2000
0000
0100
3100
0000
0000
1000
0000
,
0002
0000
0100
0103
0000
0000
0001
0000
,
2000
0000
0010
3010
0000
0000
0100
0000
,
0002
0000
0010
0013
0000
0000
0100
0000
,
1000
0001
0200
0000
0000
0000
0310
0000
,
1000
0001
0200
0000
0000
0000
0310
0000
,
1000
0001
0200
0000
0000
0000
0310
0000
,
1100
0101
1100
0101
,
1000
0000
0001
0000
0100
0010
0100
0000
,
0001
0000
1000
0000
0100
0010
0100
0000
,
1000
0000
0001
0000
0010
0100
0010
0000
,
0001
0000
1000
0000
0010
0100
0010
0000
,
1000
0100
1000
0000
0100
0001
0100
0000
,
1000
0010
1000
0000
0010
0001
0010
0000
,
1000
0100
1000
0000
0001
0010
0001
0000
,
0010
1000
0010
0000
0001
0100
0001
0000
,
1000
1000
0001
0001
0000
0000
1100
0000
,
0010
0010
0100
0100
0000
0000
1001
0000
,
0001
0001
1000
1000
0000
0000
0101
0000
,
0100
0100
0010
0010
0000
0000
1001
0000
,
2002
0000
0000
0000
,
0000
0000
0000
3003
,
2000
0100
0000
3100
,
0002
0100
0100
0103
,
0001
0000
0001
0000
2000
0100
3100
0000
,
1000
0000
1000
0000
0002
0100
0103
0000
,
0010
0000
0010
0000
0200
0001
0301
0000
,
0010
0000
0010
0000
0200
1000
1300
0000
,
2000
0000
0100
3100
0000
0000
0110
0000
,
0200
0000
0010
0310
0000
0000
0011
0000
,
0020
0000
0001
0031
0000
0000
1001
0000
,
1100
0101
1100
0101
,
0001
0010
0001
0000
0010
1000
0010
0000
,
0001
0100
0001
0000
0100
1000
0100
0000
,
0001
0010
0001
0000
1000
0100
1000
0000
,
0100
0001
0100
0000
1000
0010
1000
0000
,
1001
2000
0100
3100
,
1001
0002
0100
0103
,
0010
1000
0100
0001
,
0100
1000
0010
1001
,
0100
0010
0100
1001
,
0001
1000
0010
0100
0000
0010
1000
0000
,
0001
0100
0010
1000
0000
0001
1000
0000
,
0010
1000
0100
0010
0000
0001
1000
0000
,
0010
0100
0001
1000
0000
0100
0010
0000
,
0002
0000
1000
0000
0000
0010
0013
0000
,
0020
0000
0001
0000
0000
0100
0130
0000
,
0200
0000
0010
0000
0000
1000
1300
0000
,
2000
0000
0100
0000
0000
0010
3010
0000
,
2002
0000
0000
0000
,
3003
0000
0000
0000
;

//---------------dance-single - ----------------
#NOTES:
     dance-single:
     :
     Hard:
     7:
     :
0000
0000
0000
0000
,
0000
0000
0000
0000
,
0000
0000
0000
0000
,
0000
0000
0000
0000
,
0000
0000
0000
0000
,
0000
0000
0000
0000
,
0000
0000
0000
0000
,
1000
0000
0100
1000
0000
0001
0100
0000
,
0001
0000
0010
0001
0000
1000
0010
0000
,
1000
0000
0010
1000
0000
0001
0010
0000
,
0001
0000
0100
0001
0000
1000
0100
0000
,
2000
0000
0100
3100
0000
0000
0011
0000
,
0002
0000
0100
0103
0000
0000
1010
0000
,
2000
0000
0010
3010
0000
0000
0101
0000
,
0002
0000
0010
0013
0000
0000
1100
0000
,
1000
0100
0010
0001
0000
0000
1100
0000
,
0001
0100
0010
1000
0000
0000
0101
0000
,
1000
0001
1000
0001
0000
0000
1001
0000
,
0110
0000
1001
0000
0110
0000
0100
0001
,
1000
0100
0010
0000
0010
0100
1000
0000
,
0001
0100
0010
0000
0010
0100
0001
0000
,
1000
0010
0100
0000
0100
0010
1000
0000
,
0001
0010
0100
0000
0100
0010
0001
0000
,
1000
0100
1000
0010
0100
0001
0100
0000
,
0001
0010
0001
0100
0010
1000
0010
0000
,
1000
0010
1000
0100
0010
0001
0010
0000
,
0001
0100
0001
0010
0100
1000
0100
0000
,
1000
0100
1000
0001
0000
0010
0011
0000
,
0001
0100
0001
1000
0000
1000
1010
0000
,
1000
0010
1000
0001
0000
0100
0101
0000
,
0001
0010
0001
1000
0000
0100
1100
0000
,
2001
0100
0100
3100
,
2001
0000
0100
0000
0100
0100
3100
0000
,
0001
0010
0100
1000
0001
0010
0100
1000
0100
0010
0001
1000
,
0100
0010
0001
1000
0100
0010
0001
0010
0100
1000
0100
0010
,
0001
0000
1000
0000
0010
0100
0101
0000
,
1000
0000
0001
0000
0010
0100
1100
0000
,
0001
0000
1000
0000
0100
0010
0011
0000
,
1000
0000
0001
0000
0100
0010
1010
0000
,
2001
0000
0100
3100
0000
0000
0110
0000
,
2001
0000
0100
3100
0000
0000
0110
0000
,
0210
0000
0010
0310
0000
0000
1001
0000
,
0110
0000
0000
0000
1001
0000
0000
0000
0110
0000
0000
0000
0100
0000
1000
0001
,
1000
0001
0100
0000
0001
1000
0100
0000
,
0010
0100
1000
0000
0010
0100
0001
0000
,
1000
0001
0010
0000
0001
1000
0010
0000
,
0100
0010
1000
0000
0100
0010
0001
0000
,
1001
0000
1000
0100
1000
0001
0010
0000
,
1001
0000
0001
0100
0001
1000
0010
0000
,
0110
0000
0010
0100
0010
1000
0001
0000
,
0110
0000
0010
0100
0010
0001
1000
0000
,
0010
1000
0100
0001
0100
1000
0010
0000
,
1000
0100
0010
0100
0000
1000
0001
0010
,
0001
0100
0010
0100
0000
0001
1000
0100
,
1000
0010
0100
0010
0000
1000
0001
0100
,
0001
0010
0100
0010
0000
0001
1000
0001
,
0010
0100
1000
2000
0000
0001
3001
1000
,
0010
0100
0001
0002
0000
1000
1003
0001
,
0100
0010
1000
2000
0000
0001
3001
1000
,
0100
0010
0001
0002
0000
1000
1003
0001
,
2002
0000
0000
0000
,
3003
0000
0000
0000
;

//---------------dance-double - ----------------
#NOTES:
     dance-double:
     :
     Beginner:
     1:
     :
00000000
00000000
00000000
00000000
,
00000000
00000000
00000000
00000000
,
00000000
00000000
00000000
00000000
,
00000000
00000000
00000000
00000000
,
00000000
00000000
00000000
00000000
,
00000000
00000000
00000000
00000000
,
00000000
00000000
00000000
00000000
,
00010000
00000000
00000000
00000000
,
00001000
00000000
00000000
00000000
,
00010000
00000000
00000000
00000000
,
00001000
00000000
00000000
00000000
,
00000100
00000000
00000001
00000000
,
00001000
00000000
00000100
00000000
,
00000010
00000000
00000001
00000000
,
00001000
00000000
00000010
00000000
,
00010000
00000000
00001000
00000000
,
00010000
00000000
01000000
00000000
,
10000000
00000000
00100000
00000000
,
10010000
00000000
00000000
00000000
,
00100000
00000000
00000000
00000000
,
00100000
00000000
00000000
00000000
,
01000000
00000000
00000000
00000000
,
01000000
00000000
00000000
00000000
,
10000000
00000000
01000000
00000000
,
00010000
00000000
01000000
00000000
,
10000000
00000000
01000000
00000000
,
00010000
00000000
00001000
00000000
,
00000100
00000000
00000001
00000000
,
00000100
00000000
00001000
00000000
,
00000100
00000000
00000001
00000000
,
00000100
00000000
00001000
00000000
,
00011000
00000000
00000000
00000000
,
00000000
00000000
00000000
00000000
,
00000000
00000000
00000000
00000000
,
00000000
00000000
00000000
00000000
,
00010000
00000000
00000000
00000000
,
10000000
00000000
00000000
00000000
,
10000000
00000000
00000000
00000000
,
00010000
00000000
00000000
00000000
,
00001000
00000000
00000000
00000000
,
00000001
00000000
00000000
00000000
,
00000001
00000000
00000000
00000000
,
00001001
00000000
00000000
00000000
,
00000001
00000000
00000000
00000000
,
00000010
00000000
00000000
00000000
,
00000100
00000000
00000000
00000000
,
00001000
00000000
00000000
00000000
,
00010000
00000000
00000000
00000000
,
00100000
00000000
00000000
00000000
,
01000000
00000000
00000000
00000000
,
10000000
00000000
00000000
00000000
,
10010000
00000000
00000000
00000000
,
01000000
00000000
00000000
00000000
,
00010000
00000000
00000000
00000000
,
00001000
00000000
00000000
00000000
,
00000100
00000000
00000000
00000000
,
00001000
00000000
00000000
00000000
,
00010000
00000000
00000000
00000000
,
00100000
00000000
00000000
00000000
,
00010000
00000000
00000000
00000000
,
00011000
00000000
00000000
00000000
;

//---------------dance-double - ----------------
#NOTES:
     dance-double:
     :
     Easy:
     2:
     :
00000000
00000000
00000000
00000000
,
00000000
00000000
00000000
00000000
,
00000000
00000000
00000000
00000000
,
00000000
00000000
00000000
00000000
,
00000000
00000000
00000000
00000000
,
00000000
00000000
00000000
00000000
,
00000000
00000000
00000000
00000000
,
00010000
00000000
00000000
00000000
,
00001000
00000000
00000000
00000000
,
00010000
00000000
00000000
00000000
,
00001000
00000000
00000000
00000000
,
00000100
00000000
00000001
00000000
,
00001000
00000000
00000100
00000000
,
00000010
00000000
00000001
00000000
,
00001000
00000000
00000010
00000000
,
00010000
00000000
00001000
00000000
,
00010000
00000000
01000000
00000000
,
10000000
00000000
00100000
00000000
,
20020000
00000000
00000000
30030000
,
00100000
00000000
00000000
00000000
,
00100000
00000000
00000000
00000000
,
01000000
00000000
00000000
00000000
,
01000000
00000000
00000000
00000000
,
10000000
00000000
01000000
00000000
,
00010000
00000000
01000000
00000000
,
10000000
00000000
01000000
00000000
,
00010000
00000000
00001000
00000000
,
00000100
00000000
00000001
00000000
,
00000100
00000000
00001000
00000000
,
00000100
00000000
00000001
00000000
,
00000100
00000000
00001000
00000000
,
00022000
00000000
00000000
00000000
,
00000000
00000000
00000000
00000000
,
00000000
00000000
00000000
00000000
,
00000000
00000000
00000000
00033000
,
00010000
00000000
00000000
00000000
,
10000000
00000000
00000000
00000000
,
10000000
00000000
00000000
00000000
,
00010000
00000000
00000000
00000000
,
00001000
00000000
00000000
00000000
,
00000001
00000000
00000000
00000000
,
00000001
00000000
00000000
00000000
,
00002002
00000000
00000000
00003003
,
00000001
00000000
00000000
00000000
,
00000010
00000000
00000000
00000000
,
00000100
00000000
00000000
00000000
,
00001000
00000000
00000000
00000000
,
00010000
00000000
00000000
00000000
,
00100000
00000000
00000000
00000000
,
01000000
00000000
00000000
00000000
,
10000000
00000000
00000000
00000000
,
20020000
00000000
00000000
30030000
,
01000000
00000000
00000000
00000000
,
00010000
00000000
00000000
00000000
,
00001000
00000000
00000000
00000000
,
00000100
00000000
00000000
00000000
,
00001000
00000000
00000000
00000000
,
00010000
00000000
00000000
00000000
,
00100000
00000000
00000000
00000000
,
00010000
00000000
00000000
00000000
,
00022000
00000000
00000000
00000000
,
00033000
00000000
00000000
00000000
;

//---------------dance-double - ----------------
#NOTES:
     dance-double:
     :
     Medium:
     6:
     :
00000000
00000000
00000000
00000000
,
00000000
00000000
00000000
00000000
,
00000000
00000000
00000000
00000000
,
00000000
00000000
00000000
00000000
,
00000000
00000000
00000000
00000000
,
00000000
00000000
00000000
00000000
,
00000000
00000000
00000000
00000000
,
00000001
00000010
00000001
00000100
,
00001000
00010000
00001000
00010000
,
00100000
10000000
01000000
10000000
,
00100000
00010000
00001000
00011000
,
02000000
00000000
00100000
03100000
00000000
00000000
11000000
00000000
,
20000000
00000000
00010000
30010000
00000000
00000000
00110000
00000000
,
00002000
00000000
00010000
00013000
00000000
00000000
00001010
00000000
,
00000002
00000000
00000010
00000013
00000000
00000000
00000101
00000000
,
00000010
00001000
00000002
00000000
00000000
00000000
00000103
00000000
,
00001000
00010000
02000000
00000000
00000000
00000000
03100000
00000000
,
00010000
10000000
00200000
00000000
00000000
00000000
01300000
00000000
,
10100000
00110000
11000000
01010000
,
10000000
00000000
10100000
00000000
01000000
00001000
00010000
00000000
,
00000100
00000000
00000011
00000000
00001000
00000010
00000100
00000000
,
00000001
00000000
00001100
00000000
00000001
00000010
00001000
00000000
,
00010000
00000000
00011000
00000000
00001000
00010000
01000000
00000000
,
10000000
00100000
10000000
00000000
01000000
00010000
01000000
00000000
,
00100000
00001000
00100000
00000000
00001000
00000100
00001000
00000000
,
00000100
00000001
00000100
00000000
00000010
00001000
00000010
00000000
,
00010000
00001000
00010000
00000000
00001000
00000010
00001000
00000000
,
00000010
00000010
00000001
00001000
00000000
00000000
00001001
00000000
,
00000100
00000100
00010000
00001000
00000000
00000000
00011000
00000000
,
01000000
01000000
00001000
00010000
00000000
00000000
00011000
00000000
,
00100000
00100000
00010000
10000000
00000000
00000000
10010000
00000000
,
02200000
00000000
00000000
00000000
,
00000000
00000000
00000000
03300000
,
00020000
00001000
00000000
00031000
,
00002000
00010000
00010000
00013000
,
00000100
00000000
00000010
00000000
00000002
00001000
00001003
00000000
,
00000010
00000000
00010000
00000000
02000000
00100000
03100000
00000000
,
00010000
00000000
10000000
00000000
00200000
00010000
00310000
00000000
,
00001000
00000000
00000100
00000000
00000002
00001000
00001003
00000000
,
00000020
00000000
00010000
00010030
00000000
00001100
00000000
00000000
,
00020000
00000000
00000010
00030010
00000000
00000000
00101000
00000000
,
02000000
00000000
00010000
03010000
00000000
00000000
10100000
00000000
,
11000000
01010000
01100000
10010000
,
10000000
01000000
10000000
00000000
01000000
00010000
01000000
00000000
,
00010000
00001000
00010000
00000000
00001000
00000010
00001000
00000000
,
00000010
00000001
00000010
00000000
00000001
00000100
00000001
00000000
,
00000100
00001000
00000100
00000000
00001000
00010000
00001000
00000000
,
00010000
01000000
00100000
00010000
,
01000000
00100000
00010000
00001000
,
00000010
00000100
00001000
00000010
,
00000100
00001000
00010000
01000000
,
10000000
00100000
01000000
10010000
,
01000000
00001000
00010000
00000010
00000000
00001000
00000100
00000000
,
00000010
00000001
00000100
00001000
00000000
00010000
00100000
00000000
,
01000000
00010000
00100000
01000000
00000000
00100000
00001000
00000000
,
00010000
01000000
10000000
00100000
00000000
01000000
00010000
00000000
,
00200000
00000000
00010000
00000000
00000000
00001000
00301000
00000000
,
00020000
00000000
00000100
00000000
00000000
00001000
00031000
00000000
,
00000200
00000000
00000010
00000000
00000000
00001000
00001300
00000000
,
00000002
00000000
00000010
00000000
00000000
00000100
00000103
00000000
,
00002002
00000000
00000000
00000000
,
00003003
00000000
00000000
00000000
;

//---------------dance-double - ----------------
#NOTES:
     dance-double:
     :
     Hard:
     7:
     :
00000000
00000000
00000000
00000000
,
00000000
00000000
00000000
00000000
,
00000000
00000000
00000000
00000000
,
00000000
00000000
00000000
00000000
,
00000000
00000000
00000000
00000000
,
00000000
00000000
00000000
00000000
,
00000000
00000000
00000000
00000000
,
00010000
00000000
00001000
00000100
00000000
00000010
00001000
00000000
,
00000001
00000000
00000010
00000100
00000000
00010000
00001000
00000000
,
00010000
00000000
00100000
10000000
00000000
00010000
00100000
00000000
,
01000000
00000000
10000000
00010000
00000000
01000000
00001000
00000000
,
00200000
00000000
01000000
01300000
00000000
00000000
11000000
00000000
,
00200000
00000000
01000000
01300000
00000000
00000000
01010000
00000000
,
00200000
00000000
00001000
00301000
00000000
00000000
00011000
00000000
,
00000020
00000000
00010000
00010030
00000000
00000000
00011000
00000000
,
00001000
00000100
00000001
00001000
00000000
00000000
00000110
00000000
,
00000100
00001000
00010000
00100000
00000000
00000000
00011000
00000000
,
00010000
00100000
10000000
00010000
00000000
00000000
01100000
00000000
,
11000000
00000000
01010000
00000000
01100000
00000000
10010000
10000000
,
01000000
00010000
00001000
00000000
00000100
00000001
00001000
00000000
,
00000010
00010000
00001000
00000000
00010000
00100000
10000000
00000000
,
01000000
00100000
10000000
00000000
00100000
00010000
10000000
00000000
,
00100000
01000000
00001000
00000000
00010000
00001000
00000100
00000000
,
00001000
00010000
00000010
00000100
00000001
00000010
00000100
00000000
,
00001000
00000001
00000010
00001000
00010000
01000000
10000000
00000000
,
00100000
01000000
00010000
00100000
01000000
00001000
00000100
00000000
,
00000010
00000001
00000100
00001000
00000100
00000001
00001000
00000000
,
00000100
00010000
00001000
00010000
00000000
01000000
01100000
00000000
,
00100000
10000000
00010000
01000000
00000000
00001000
00011000
00000000
,
00010000
00000010
00001000
00000100
00000000
00000010
00000011
00000000
,
00000100
00010000
00001000
01000000
00000000
00100000
10100000
00000000
,
02100000
00001000
00001000
03001000
,
00021000
00000010
00000010
00030010
,
00001000
00000000
00000001
00000000
00000100
00000000
00000001
00000000
00000100
00001000
00000100
00000000
00000001
00000000
00000010
00000000
,
00001000
00000000
00010000
00000000
00100000
00000000
01000000
00000000
00010000
10000000
00010000
00000000
00100000
00000000
01000000
00000000
,
10000000
00000000
01000000
00000000
00010000
00001000
00011000
00000000
,
00001000
00000000
00000100
00000000
00000001
00001000
00001001
00000000
,
00000010
00000000
00001000
00000000
00010000
00001000
00011000
00000000
,
00010000
00000000
00100000
00000000
10000000
00010000
10010000
00000000
,
21000000
00000000
00100000
30100000
00000000
00000000
00110000
00000000
,
00210000
00000000
00001000
00301000
00000000
00000000
00011000
00000000
,
00021000
00000000
00000100
00030100
00000000
00000000
00000110
00000000
,
00000210
00000000
00000000
00000000
00000001
00000000
00000301
00000000
00000000
00000000
00000000
00000000
00001001
00000000
00000001
00000100
,
00000001
00000010
00001000
00000010
00000100
00001000
00000001
00000000
,
00000100
00001000
00010000
00001000
00100000
00010000
01000000
00000000
,
00100000
10000000
01000000
00010000
01000000
10000000
00010000
00000000
,
01000000
00001000
00100000
00010000
10000000
00010000
01000000
00000000
,
00010000
10000000
00100000
00010000
00100000
01000000
00001000
00010000
,
00000100
00010000
01000000
00100000
00010000
01000000
00100000
10000000
,
01000000
00010000
00001000
00000010
00000001
00000100
00000010
00001000
,
00000100
00000001
00000100
00001000
00000010
00000100
00000001
00000010
,
00000100
00001000
00000001
00000010
00001000
00000010
00000100
00010000
,
00001000
00010000
00000100
00001000
00000010
00010000
00001000
00000000
,
00010000
01000000
00100000
00001000
00000010
00001000
00010000
00000000
,
00001000
00000100
00000010
00001000
00000100
00000010
00000001
00000000
,
00001000
00000100
00000001
00000100
00001000
00000100
00010000
00001000
,
01000000
00010000
00100000
02000000
00000000
10000000
13000000
01000000
,
00100000
00010000
10000000
02000000
00000000
00010000
03010000
01000000
,
00100000
00001000
00010000
00000200
00000000
00000010
00000310
00000100
,
00000010
00000001
00000100
00002000
00000000
00010000
00013000
00001000
,
00022000
00000000
00000000
00000000
,
00033000
00000000
00000000
00000000
;
