#TITLE:Hot Stuff;
#ARTIST:Donna Summer;
#BANNER:Hot Stuff.png;
#BACKGROUND:Hot Stuff-bg.png;
#CDTITLE:./CDTITLES/DANCING STAGE UNLEASHED 2.png;
#MUSIC:Hot Stuff.ogg;
#SAMPLESTART:40.8;
#SAMPLELENGTH:15;
#DISPLAYBPM:120;
#BPMS:0=121.55,20=120.1,36=120.5,52=119.8,68=121.1,84=119.7,100=120.7,116=120.5,148=119.8,164=120.7,180=120,212=120.5;

//---------------dance-single - ----------------
#NOTES:
     dance-single:
     :
     Beginner:
     1:
     :
0000
0000
0000
0000
,
0000
0000
0000
0000
,
0000
0000
0000
0000
,
0000
0000
0000
0000
,
0000
0000
0000
0000
,
1000
0000
0001
0000
,
0100
0000
1000
0000
,
0001
0000
0010
0000
,
1000
0000
0001
0000
,
1000
0000
1000
0000
,
1000
0000
0001
0000
,
1000
0000
1000
0000
,
0010
0000
0010
0000
,
1000
0000
0000
0000
,
0010
0000
0000
0000
,
0001
0000
0000
0000
,
0010
0000
0000
0000
,
0100
0000
0000
0000
,
0001
0000
0000
0000
,
1000
0000
0000
0000
,
0001
0000
0000
0000
,
1001
0000
0010
0000
,
1000
0000
0001
0000
,
1001
0000
0100
0000
,
0010
0000
0100
0000
,
1001
0000
0010
0000
,
0001
0000
1000
0000
,
1001
0000
0000
0000
,
0100
0000
0100
0000
,
0001
0000
1000
0000
,
0001
0000
0100
0000
,
1000
0000
1000
0000
,
0100
0000
0001
0000
,
0001
0000
0010
0000
,
0010
0000
0100
0000
,
0100
0000
1000
0000
,
0010
0000
0001
0000
,
1000
0000
1000
0000
,
0100
0000
0001
0000
,
1000
0000
0100
0000
,
0001
0000
1000
0000
,
0001
0000
0001
0000
,
0001
0000
1000
0000
,
0001
0000
0001
0000
,
0010
0000
0010
0000
,
1001
0000
0100
0000
,
0010
0000
0100
0000
,
1001
0000
0001
0000
,
1000
0000
0001
0000
,
1001
0000
0010
0000
,
0100
0000
0010
0000
,
1001
0000
1000
0000
,
0001
0000
1000
0000
,
1001
0000
0100
0000
;

//---------------dance-single - ----------------
#NOTES:
     dance-single:
     :
     Easy:
     3:
     :
0000
0000
0000
0000
,
0000
0000
0000
0000
,
0000
0000
0000
0000
,
0000
0000
0000
0000
,
0000
0000
0000
0000
,
1000
0000
0001
0000
,
0100
0000
1000
0000
,
0001
0000
0010
0000
,
1000
0000
0001
0000
,
1000
0001
1000
0001
,
1000
1000
0001
0001
,
1000
0001
1000
0001
,
0010
0100
0010
0100
,
1000
0001
0000
0000
,
0010
0100
0000
0000
,
0001
0100
0000
0000
,
0010
1000
0000
0000
,
0100
0001
0000
0000
,
0001
1000
0000
0000
,
1000
0010
0000
0000
,
0001
0100
0000
0000
,
1001
1001
0010
0000
,
1000
0000
0001
0000
,
1001
1001
0100
0000
,
0010
0000
0100
0000
,
1001
1001
0010
0000
,
0001
0000
1000
0000
,
1001
0000
0000
0000
,
0100
0100
0100
0100
,
0001
0000
1000
0000
,
0001
0000
0100
0000
,
1000
0000
1000
0000
,
0100
0000
0001
0000
,
0001
0000
0010
0000
,
0010
0000
0100
0000
,
0100
0000
1000
0000
,
0010
0000
0001
0000
,
1000
0000
1000
0000
,
0100
0000
0001
0000
,
1000
0000
0100
0000
,
0001
0000
1000
0000
,
0001
1000
0001
1000
,
0001
0001
1000
1000
,
0001
1000
0001
1000
,
0010
0100
0010
0100
,
1001
1001
0100
0000
,
0010
0000
0100
0000
,
1001
1001
0001
0000
,
1000
0000
0001
0000
,
1001
1001
0010
0000
,
0100
0000
0010
0000
,
1001
1001
1000
0000
,
0001
0000
1000
0000
,
1001
1001
0100
0000
;

//---------------dance-single - ----------------
#NOTES:
     dance-single:
     :
     Medium:
     5:
     :
0000
0000
0000
0000
,
0000
0000
0000
0000
,
0000
0000
0000
0000
,
0000
0000
0000
0000
,
0000
0000
0000
0000
,
0010
1000
0100
1100
,
0010
0001
0100
0101
,
1000
0001
1000
1001
,
0010
0100
0010
0110
,
1000
0100
0001
0100
,
1000
0100
0001
0100
,
1000
0100
1000
0100
,
0001
0100
0001
0100
,
0010
0000
1000
0000
0001
0100
1000
0000
,
0100
0000
0001
0000
1000
0100
0001
0000
,
0100
0000
0010
0000
0001
1000
0010
0000
,
0100
0000
0001
0000
1000
0100
0010
0000
,
0001
0000
0100
0000
0010
0100
0001
0000
,
1000
0000
0001
0000
0010
0100
1000
0000
,
1000
0000
0100
0000
1000
0100
0001
0000
,
0100
0000
0010
0000
0001
0010
1000
0000
,
0110
0000
0110
0000
0001
0100
1000
0000
,
1000
0100
0001
0000
0001
0100
1000
0000
,
1001
0000
1001
0000
0010
1000
0100
0000
,
0010
0001
0100
0000
0010
1000
0100
0000
,
0110
0000
1001
0000
0001
0100
1000
0000
,
0001
0010
1000
0000
0001
0100
1000
0000
,
1001
0000
0001
0000
1000
0001
0000
1001
,
0000
0001
1000
0000
1000
0000
0000
0000
,
1001
0000
1001
0000
1000
0100
0001
0000
,
0100
1000
0100
0010
,
0110
0000
0110
0000
1000
0001
0100
0000
,
0001
0010
0001
1000
,
1001
0000
1001
0000
0001
0100
0010
0000
,
1000
0100
0010
0001
,
1001
0000
1001
0000
1000
0100
0001
0000
,
0110
0000
0110
0000
0001
0100
1000
0000
,
0010
1000
0100
1000
0010
1000
0000
0010
,
0000
1000
0100
1000
0100
0010
0000
0010
,
0000
0001
0100
0001
0100
0001
0100
0010
,
1000
0100
1000
0100
0000
0000
0000
0000
,
0010
0001
0100
0001
0010
0001
0000
0010
,
0000
0001
0100
0001
0100
0010
0000
0010
,
0000
1000
0100
1000
0100
1000
0100
0010
,
0001
0100
0001
0100
0000
0000
0000
0000
,
0110
0000
0110
0000
1000
0100
0001
0000
,
0001
0100
1000
0000
1000
0100
0001
0000
,
1001
0000
1001
0000
0010
0001
0100
0000
,
0010
1000
0100
0000
0010
0001
0100
0000
,
0110
0000
1001
0000
1000
0100
0001
0000
,
0001
0010
1000
0000
1000
0100
0001
0000
,
1001
0000
1000
0000
0001
1000
0000
1001
,
0000
0010
1000
0100
0010
0001
0100
0000
,
1100
0000
0101
0000
;

//---------------dance-single - ----------------
#NOTES:
     dance-single:
     :
     Hard:
     6:
     :
0000
0000
0000
0000
,
0000
0000
0000
0000
,
0000
0000
0000
0000
,
0000
0000
0000
0000
,
0000
0000
0000
0000
,
0010
0001
1000
0100
1000
0001
0000
0100
,
0000
0010
0100
0001
0010
0100
0000
1000
,
0000
0100
0010
0001
0100
1000
0100
0010
,
0100
0001
0100
1000
0000
0000
0000
0000
,
0100
1000
0001
0010
0001
1000
0000
0010
,
0000
0100
0010
1000
0100
0010
0000
0001
,
0000
0010
0100
1000
0010
0001
0010
0100
,
0010
1000
0010
0001
0000
0000
0000
0000
,
0001
1000
0100
0000
0010
0001
0010
0001
,
0000
0100
0000
1100
0000
1100
0000
0000
,
0001
0010
0100
0010
1000
0010
0100
0001
,
0000
0000
0000
0000
,
0010
1000
0001
1000
0100
1000
0100
0000
,
0000
0010
0000
0101
0000
0101
0000
0000
,
0100
1000
0010
0100
0001
0000
0010
0100
,
0000
0000
0000
0000
1000
0001
0100
0001
,
1001
0000
1001
0000
0100
1000
0100
2000
,
0000
3200
0000
0300
1000
0000
0001
1000
,
1001
0000
1001
0000
0010
0001
0100
2000
,
0000
0000
0000
0000
3000
1000
0100
0001
,
1001
0000
1001
0000
0001
1000
0100
0010
,
0000
0200
0000
0000
0000
0000
0300
1001
,
0000
0100
1000
0001
0101
0101
0000
0001
,
0000
1000
0010
1000
1010
0000
0001
0101
,
0001
0000
1100
0000
0100
1000
0001
0010
,
0001
1000
0100
1000
0001
1000
0100
1000
,
1001
0000
1001
0000
0100
0001
1000
0001
,
0100
0001
1000
0001
0100
0001
1000
0001
,
1001
0000
1001
0000
1000
0100
0010
0100
,
0001
0100
0010
0100
1000
0100
0010
0100
,
1001
0000
1001
0000
0100
0001
1000
0001
,
0100
0001
1000
0000
0010
0001
1000
0001
,
1001
1000
0010
0100
0001
1000
0000
0100
,
0000
1000
0010
0001
1000
0100
0000
0001
,
1000
0010
0001
1000
0100
0001
1000
0020
,
0000
0030
1000
0100
0000
0000
0000
0000
,
1000
0100
0010
0001
0100
0010
0000
0100
,
0000
0010
0100
0001
0100
0010
0000
0001
,
0000
0100
0010
1000
0100
0010
0001
0100
,
0010
0000
0001
0100
0000
0000
0010
0100
,
1001
0000
1001
0000
0001
1000
0100
0020
,
0030
0010
0000
0000
0000
0010
1000
0100
,
1001
0000
1001
0000
0010
0001
0100
0010
,
0000
1000
0000
0000
0000
0010
1000
0100
,
1001
0000
1001
0000
0010
0001
0100
0010
,
0000
1000
0000
0000
0000
0000
0100
1000
,
1001
0000
1001
0000
0100
0010
0001
0100
,
0000
0010
1000
0100
0010
0001
0100
0010
,
1010
0000
0101
0000
;

//---------------dance-double - ----------------
#NOTES:
     dance-double:
     :
     Beginner:
     1:
     :
00000000
00000000
00000000
00000000
,
00000000
00000000
00000000
00000000
,
00000000
00000000
00000000
00000000
,
00000000
00000000
00000000
00000000
,
00000000
00000000
00000000
00000000
,
10000000
00000000
00010000
00000000
,
00001000
00000000
00000100
00000000
,
00000001
00000000
00000010
00000000
,
00001000
00000000
00010000
00000000
,
00010000
00000000
00010000
00000000
,
00010000
00000000
00001000
00000000
,
00000001
00000000
00000001
00000000
,
00000100
00000000
00001000
00000000
,
01000000
00000000
00000000
00000000
,
10000000
00000000
00000000
00000000
,
01000000
00000000
00000000
00000000
,
00010000
00000000
00000000
00000000
,
00001000
00000000
00000000
00000000
,
00000001
00000000
00000000
00000000
,
00001000
00000000
00000000
00000000
,
00010000
00000000
00000000
00000000
,
10010000
00000000
00100000
00000000
,
10000000
00000000
00010000
00000000
,
00011000
00000000
00001000
00000000
,
00000100
00000000
00000010
00000000
,
00001001
00000000
00000100
00000000
,
00001000
00000000
00010000
00000000
,
00011000
00000000
00000000
00000000
,
00001000
00000000
00010000
00000000
,
00001000
00000000
00010000
00000000
,
00100000
00000000
10000000
00000000
,
01000000
00000000
00010000
00000000
,
00001000
00000000
00000100
00000000
,
00000001
00000000
00000100
00000000
,
00001000
00000000
00000010
00000000
,
00001000
00000000
00010000
00000000
,
00100000
00000000
10000000
00000000
,
00010000
00000000
10000000
00000000
,
01000000
00000000
00010000
00000000
,
00100000
00000000
00010000
00000000
,
00001000
00000000
00000001
00000000
,
00001000
00000000
00001000
00000000
,
00001000
00000000
00010000
00000000
,
10000000
00000000
10000000
00000000
,
00100000
00000000
00100000
00000000
,
10010000
00000000
01000000
00000000
,
10000000
00000000
00010000
00000000
,
00011000
00000000
00001000
00000000
,
00000010
00000000
00000100
00000000
,
00001001
00000000
00000010
00000000
,
00001000
00000000
00010000
00000000
,
00010000
00000000
10000000
00000000
,
10000000
00000000
00010000
00000000
,
00011000
00000000
00000000
00000000
;

//---------------dance-double - ----------------
#NOTES:
     dance-double:
     :
     Easy:
     3:
     :
00000000
00000000
00000000
00000000
,
00000000
00000000
00000000
00000000
,
00000000
00000000
00000000
00000000
,
00000000
00000000
00000000
00000000
,
00000000
00000000
00000000
00000000
,
10000000
00000000
00010000
00000000
,
00001000
00000000
00000100
00000000
,
00000001
00000000
00000010
00000000
,
00001000
00000000
00010000
00000000
,
00010000
10000000
00010000
10000000
,
00010000
00010000
00001000
00001000
,
00000001
00001000
00000001
00001000
,
00000100
00000010
00001000
00010000
,
01000000
10000000
00000000
00000000
,
10000000
01000000
00000000
00000000
,
01000000
00010000
00000000
00000000
,
00010000
00001000
00000000
00000000
,
00001000
00000100
00000000
00000000
,
00000001
00000010
00000000
00000000
,
00001000
00010000
00000000
00000000
,
00010000
01000000
00000000
00000000
,
10010000
10010000
00100000
00000000
,
10000000
00000000
00010000
00000000
,
00011000
00011000
00001000
00000000
,
00000100
00000000
00000010
00000000
,
00001001
00001001
00000100
00000000
,
00001000
00000000
00010000
00000000
,
00011000
00000000
00000000
00000000
,
00001000
00001000
00010000
00010000
,
00001000
00000000
00010000
00000000
,
00100000
00000000
10000000
00000000
,
01000000
00000000
00010000
00000000
,
00001000
00000000
00000100
00000000
,
00000001
00000000
00000100
00000000
,
00001000
00000000
00000010
00000000
,
00001000
00000000
00010000
00000000
,
00100000
00000000
10000000
00000000
,
00010000
00000000
10000000
00000000
,
01000000
00000000
00010000
00000000
,
01000000
00000000
00010000
00000000
,
00001000
00000000
00000001
00000000
,
00001000
00000001
00001000
00000001
,
00001000
00001000
00010000
00010000
,
10000000
00010000
10000000
00010000
,
00100000
01000000
00100000
01000000
,
10010000
10010000
01000000
00000000
,
10000000
00000000
00010000
00000000
,
00011000
00011000
00001000
00000000
,
00000010
00000000
00000100
00000000
,
00001001
00001001
00000010
00000000
,
00001000
00000000
00010000
00000000
,
00010000
10010000
10000000
00000000
,
10000000
00000000
00010000
00000000
,
00011000
00000000
00000000
00000000
00000000
00000000
00000000
00000000
00000000
00000000
00000000
00011000
00000000
00000000
00000000
00000000
;

//---------------dance-double - ----------------
#NOTES:
     dance-double:
     :
     Medium:
     5:
     :
00000000
00000000
00000000
00000000
,
00000000
00000000
00000000
00000000
,
00000000
00000000
00000000
00000000
,
00000000
00000000
00000000
00000000
,
00000000
00000000
00000000
00000000
,
00100000
10000000
01000000
11000000
,
01000000
00010000
00001000
00011000
,
00001000
00000100
00000001
00000101
,
00000001
00000010
00001000
00001010
,
00001000
00010000
00010000
01000000
,
10000000
01000000
00010000
01000000
,
10000000
01000000
10000000
01000000
,
00010000
00001000
00010000
00001000
,
00000010
00000000
00000001
00000000
00001000
00000100
00000001
00000000
,
00000100
00000000
00000010
00000000
00001000
00010000
01000000
00000000
,
01000000
00000000
00100000
00000000
00010000
10000000
00100000
00000000
,
10000000
00000000
01000000
00000000
01000000
00010000
00001000
00000000
,
00010000
00000000
00001000
00000000
00000010
00000001
00000100
00000000
,
00001000
00000000
00010000
00000000
00100000
01000000
00100000
00000000
,
10000000
00000000
01000000
00000000
10000000
00100000
00010000
00000000
,
00001000
00000000
00000010
00000000
00000001
00000100
00000001
00000000
,
00001001
00000000
00001001
00000000
00000001
00000100
00001000
00000000
,
00010000
01000000
10000000
00000000
10000000
00100000
00010000
00000000
,
01100000
00000000
01100000
00000000
00100000
10000000
01000000
00000000
,
01000000
00010000
00001000
00000000
00001000
00000010
00000001
00000000
,
00000110
00000000
00001001
00000000
00000010
00001000
00010000
00000000
,
00010000
00100000
10000000
00000000
10000000
01000000
00010000
00000000
,
00011000
00000000
00010000
00000000
00001000
00010000
00000000
00011000
,
00000000
00010000
00001000
00000000
00001000
00000000
00000000
00000000
,
00001100
00000000
00001100
00000000
00001000
00000001
00000100
00000000
,
00001000
00010000
00100000
10000000
,
01100000
00000000
01100000
00000000
10000000
00010000
01000000
00000000
,
00010000
00001000
00000010
00000100
,
00001001
00000000
00001001
00000000
00000001
00000100
00000010
00000000
,
00000001
00000100
00001000
00010000
,
10010000
00000000
10010000
00000000
10000000
01000000
00010000
00000000
,
01100000
00000000
01100000
00000000
00010000
00001000
00000100
00000000
,
00000010
00001000
00000100
00001000
00000010
00001000
00000000
00001000
,
00000000
00000001
00000100
00001000
00010000
00001000
00000000
00001000
,
00000000
00010000
00001000
00010000
00100000
10000000
00100000
10000000
,
01000000
10000000
01000000
10000000
00000000
00000000
00000000
00000000
,
00100000
00010000
01000000
00010000
00100000
00010000
00000000
00100000
,
00000000
10000000
01000000
00010000
00001000
00010000
00000000
00010000
,
00000000
00001000
00010000
00001000
00000100
00000001
00000100
00000001
,
00000010
00000001
00000010
00000001
00000000
00000000
00000000
00000000
,
00000110
00000000
00000110
00000000
00000001
00000100
00001000
00000000
,
00010000
01000000
10000000
00000000
10000000
01000000
00010000
00000000
,
10010000
00000000
10010000
00000000
00100000
00010000
01000000
00000000
,
00100000
10000000
01000000
00000000
01000000
00010000
00001000
00000000
,
00011000
00000000
00011000
00000000
00001000
00000100
00000001
00000000
,
00000001
00000010
00001000
00000000
00010000
01000000
10000000
00000000
,
10010000
00000000
10000000
00000000
00010000
10000000
00000000
10010000
,
00000000
00100000
10000000
01000000
00010000
00001000
00000010
00000000
,
00000101
00000000
00000000
00000000
00000000
00000000
00000000
00000000
00000000
00000000
00000000
00001100
00000000
00000000
00000000
00000000
;

//---------------dance-double - ----------------
#NOTES:
     dance-double:
     :
     Hard:
     6:
     :
00000000
00000000
00000000
00000000
,
00000000
00000000
00000000
00000000
,
00000000
00000000
00000000
00000000
,
00000000
00000000
00000000
00000000
,
00000000
00000000
00000000
00000000
,
00100000
10000000
01000000
00100000
00010000
01000000
00000000
10100000
,
00000000
01000000
00010000
00001000
00000010
00000001
00000000
00000101
,
00000000
00000001
00000100
00001000
00010000
00100000
01000000
10000000
,
01000000
00010000
00001000
00000100
00000000
00000000
00000000
00000000
,
00000010
00000001
00000100
00000010
00001000
00000100
00000000
00000011
,
00000000
00000100
00001000
00010000
00100000
10000000
00000000
11000000
,
00000000
00100000
10000000
01000000
00010000
00001000
00000010
00000100
,
00001000
00000100
00000001
00000100
00000000
00000000
00000000
00000000
,
00001000
00000001
00000100
00000000
00000100
00001000
00000100
00001000
,
00000000
00010000
00000000
00011000
00000000
00011000
00000000
00000000
,
00010000
00100000
01000000
00100000
10000000
00100000
01000000
00020000
,
00000000
00000000
00000000
00030000
,
10000000
01000000
00010000
00001000
00000010
00001000
00010000
00000000
,
00000000
00001000
00000000
00001100
00000000
00001100
00000000
00000000
,
00000010
00001000
00010000
00100000
00010000
00001000
00000010
00001000
,
00000000
00000000
00000000
00000000
00010000
00100000
10000000
00010000
,
10010000
00000000
11000000
00000000
00010000
00001000
00000100
00000002
,
00000000
00000023
00000000
00000000
00000000
00000000
00000031
00000100
,
00000101
00000000
00001001
00000000
00000001
00000100
00001000
00020000
,
00000000
00000000
00000000
00000000
00030000
00100000
10000000
00010000
,
10010000
00000000
10010000
00000000
00010000
10000000
01000000
00100000
,
00000000
02000000
00000000
00000000
00000000
00000000
03000000
10010000
,
00000000
01000000
00010000
00001000
00011000
00011000
00000000
00001000
,
00000000
00000100
00000001
00000010
00000011
00000000
00000100
00001100
,
00000100
00000000
00000101
00000000
00000010
00000001
00000100
00000001
,
00000010
00000001
00000100
00001000
00010000
00100000
10000000
00010000
,
10010000
00000000
10010000
00000000
01000000
00010000
00001000
00010000
,
00100000
00010000
00001000
00010000
00000100
00001000
00000001
00001000
,
00001001
00000000
00001001
00000000
00000010
00001000
00000100
00010000
,
00001000
01000000
00010000
00100000
01000000
10000000
00010000
00100000
,
10010000
00000000
10010000
00000000
00000000
00010000
00001000
00000010
,
00000001
00000010
00001000
00000000
00010000
01000000
00100000
10000000
,
11000000
10000000
01000000
00010000
00001000
00000100
00000000
00000001
,
00000000
00000010
00001000
00000001
00000100
00001000
00000000
00010000
,
00100000
01000000
00010000
01000000
00010000
10000000
00100000
00020000
,
10000000
00030000
01000000
00010000
00000000
00000000
00000000
00000000
,
00100000
01000000
00100000
00010000
01000000
00001000
00000000
00010000
,
00000000
00000100
00001000
00000010
00000100
00000001
00000000
00000001
,
00000000
00000100
00001000
00010000
00100000
01000000
00010000
00200000
,
00300000
00010000
10000000
01000000
00000000
00000000
01000000
00010000
,
00011000
00000000
00011000
00000000
00001000
00000001
00000100
00000020
,
00000030
00000100
00000000
00000000
00000000
00000010
00001000
00010000
,
00011000
00000000
00011000
00000000
00001000
00010000
01000000
00200000
,
00000000
00000000
00000000
00000000
00300000
00100000
00010000
01000000
,
10010000
00000000
10010000
00000000
01000000
00010000
00001000
00000100
,
00000000
00000001
00000000
00000000
00000000
00000001
00001000
00000000
,
00011000
00000000
00011000
00000000
00001000
00000010
00000100
00001000
,
00000000
00010000
00100000
10000000
01000000
00010000
00001000
00010000
,
00011000
00000000
00000000
00000000
00000000
00000000
00000000
00000000
00000000
00000000
00000000
00011000
00000000
00000000
00000000
00000000
;
