#TITLE:Hip Teens Don't Wear Blue Jeans;
#ARTIST:Frank Popp Ensemble;
#BANNER:Hip Teens Don't Wear Blue Jeans.png;
#BACKGROUND:Hip Teens Don't Wear Blue Jeans-bg.png;
#CDTITLE:./CDTITLES/DANCING STAGE UNLEASHED 2.png;
#MUSIC:Hip Teens Don't Wear Blue Jeans.ogg;
#SAMPLESTART:53.14;
#SAMPLELENGTH:15;
#DISPLAYBPM:140;
#BPMS:0=140.07;
#BGCHANGES:3=Hip Teens Don't Wear Blue Jeans.avi=1=0=0=0;

//---------------dance-single - ----------------
#NOTES:
     dance-single:
     :
     Beginner:
     1:
     :
0000
0000
0000
0000
,
0000
0000
0000
0000
,
0000
0000
0000
0000
,
1000
0000
1000
0000
,
1000
0000
1000
0000
,
0001
0000
0001
0000
,
0001
0000
0001
0000
,
0100
0000
0100
0000
,
0100
0000
0100
0000
,
0010
0000
0010
0000
,
0010
0000
0010
0000
,
1000
0000
1000
0000
,
0000
0000
0000
0000
,
0001
0000
0001
0000
,
0001
0000
0000
0000
,
1000
0000
1000
0000
,
0000
0000
0000
0000
,
0010
0000
0010
0000
,
0010
0000
0000
0000
,
0010
0000
0100
0000
,
0010
0000
0010
0000
,
0001
0000
1000
0000
,
0001
0000
0001
0000
,
0100
0000
0100
0000
,
0100
0000
0100
0000
,
0010
0000
0100
0000
,
0001
0000
1000
0000
,
1001
0000
1001
0000
,
1000
0000
0001
0000
,
1000
0000
1000
0000
,
1001
0000
0000
0000
,
1001
0000
0010
0000
,
0100
0000
0001
0000
,
1001
0000
0100
0000
,
0010
0000
1000
0000
,
0001
0000
0100
0000
,
1000
0000
0100
0000
,
0001
0000
0001
0000
,
1000
0000
1000
0000
,
1000
0000
0000
0000
,
0001
0000
0000
0000
,
0100
0000
0000
0000
,
0000
0000
1000
0000
,
0001
0000
1000
0000
,
0100
0000
1000
0000
,
0001
0000
0010
0000
,
0100
0000
1000
0000
,
0001
0000
0000
0000
,
1000
0000
0001
0000
,
1000
0000
1000
0000
,
1001
0000
0000
0000
,
1001
0000
0010
0000
,
0100
0000
0001
0000
,
1001
0000
0100
0000
,
0010
0000
1000
0000
,
0001
0000
0100
0000
,
1000
0000
0100
0000
,
0001
0000
0001
0000
,
0100
0000
0100
0000
,
1001
0000
0000
0000
;

//---------------dance-single - ----------------
#NOTES:
     dance-single:
     :
     Easy:
     3:
     :
0000
0000
0000
0000
,
0000
0000
0000
0000
,
0000
0000
0000
0000
,
1000
0000
1000
0000
,
1000
0000
1000
0000
,
0001
0000
0001
0000
,
0001
0000
0001
0000
,
0100
0000
0100
0000
,
0100
0000
0100
0000
,
0010
0000
0010
0000
,
0010
0000
0010
0000
,
1000
0100
1000
0100
,
0000
0000
0000
0000
,
0001
0100
0001
0100
,
0001
0000
0000
0000
,
1000
0001
1000
0001
,
0000
0000
0000
0000
,
0010
0100
0010
0100
,
0010
0000
0000
0000
,
0010
0010
0100
0100
,
0010
0100
0010
0100
,
0001
0001
1000
1000
,
0001
1000
0001
1000
,
0100
0001
0100
0001
,
0100
1000
0100
1000
,
0010
1000
0100
0001
,
0001
0100
1000
0001
,
1001
0000
1001
0000
,
1000
0000
0001
0000
,
1000
0001
1000
0001
,
2002
0000
0000
3003
,
1001
1001
0010
0010
,
0100
0100
0001
1000
,
1001
1001
0100
0100
,
0010
0010
1000
0001
,
0001
1000
0100
0100
,
1000
0001
0100
0100
,
0001
0010
0001
0010
,
1000
0100
1000
0100
,
2000
0000
0000
3000
,
0002
0000
0000
0003
,
0200
0000
0000
0000
,
0000
0300
2000
3000
,
0002
0003
2000
3000
,
0200
0300
2000
3000
,
0002
0003
0020
0030
,
0200
0300
2000
3000
,
0002
0000
0000
0003
,
1000
0000
0001
0000
,
1000
0001
1000
0001
,
2002
0000
0000
3003
,
1001
1001
0010
0010
,
0100
0100
0001
1000
,
1001
1001
0100
0100
,
0010
0010
1000
0001
,
0001
1000
0100
0100
,
1000
0001
0100
0100
,
0001
0010
0001
0010
,
0100
1000
0100
1000
,
1001
0000
1001
0000
;

//---------------dance-single - ----------------
#NOTES:
     dance-single:
     :
     Medium:
     5:
     :
0000
0000
0000
0000
,
0000
0000
0000
0000
,
0000
0000
0000
0000
,
0001
0000
1000
0000
,
0100
0000
1000
0001
,
0010
0000
0100
0000
,
0001
0000
0100
0001
,
1000
0000
0100
0000
,
0010
0000
1000
0001
,
0010
0000
0100
0000
,
0001
0000
0100
1000
,
0001
0000
1000
0000
,
0001
0000
1100
0101
,
0010
0000
1000
0000
,
0010
0000
0011
1010
,
0010
0000
1000
0000
,
0001
0000
1001
0110
,
0001
0000
0001
0000
,
1000
0000
1001
0110
,
1000
0000
0001
0000
,
1000
0000
0001
0000
1000
0100
1000
0000
,
0001
0000
1000
0000
,
0001
0000
1000
0000
0001
0100
0001
0000
,
0100
0000
0010
0000
,
0100
0000
0010
0000
0100
0001
0100
0000
,
0010
0000
0100
0000
,
0010
0000
0100
0000
0010
0100
0010
0000
,
1001
0000
0110
0000
,
1010
0000
0011
0000
,
1010
0101
1100
0011
,
0220
0000
0000
0330
,
1001
1001
0001
0101
,
1000
1100
0001
0101
,
1001
1001
1000
1010
,
0001
0011
1000
1010
,
1001
1001
0100
1000
,
0100
0010
0001
0100
,
0010
1000
0100
0100
,
1001
1001
0001
1000
,
0001
0000
0100
1000
0100
0000
0001
0100
,
0001
0000
0010
0100
0010
0000
1000
0001
,
1000
0000
0001
1000
0100
0000
0010
0001
,
1000
0000
0000
0000
0100
1000
0001
0100
,
0010
0000
0010
0100
0001
0000
0100
0001
,
0010
0000
0100
1000
0001
0000
0100
0001
,
1000
0000
0010
1000
0100
0000
1000
0100
,
0001
0000
0001
0100
1000
0000
0001
0100
,
1000
0000
1001
0000
,
1100
0000
0101
0000
,
1010
0101
1100
0011
,
0220
0000
0000
0330
,
1001
1001
1000
1100
,
0001
0101
1000
1100
,
1001
1001
0001
0011
,
1000
1010
0001
0011
,
1001
1001
0100
0001
,
0100
0010
1000
0100
,
0010
0001
0100
0100
,
1001
1001
1000
0001
,
1001
0000
1001
0000
;

//---------------dance-single - ----------------
#NOTES:
     dance-single:
     :
     Hard:
     6:
     :
0000
0000
0000
0000
,
0000
0000
0000
0000
,
0000
0000
0000
0000
,
1000
0000
0000
1000
0100
0000
0000
0100
,
0001
0000
0000
0100
0001
0010
0001
0000
,
0010
0000
0000
0010
1000
0000
0000
1000
,
0100
0000
0000
0100
1000
0010
1000
0000
,
0010
0000
1000
0000
1000
0001
0000
1000
,
0001
1000
0000
0000
0001
1000
0010
1000
,
0010
0000
0100
0000
0001
1000
0000
0100
,
0000
0001
0000
1000
0001
1000
0001
0000
,
0100
0001
1000
0000
1000
0010
0100
0000
,
0100
0001
0010
0000
0100
0001
0010
0000
,
0100
1000
0010
0000
0100
0001
0010
0000
,
0100
0000
1000
0001
0000
0100
0001
0000
,
0010
1000
0100
0000
0010
0001
0100
0000
,
0001
0000
1000
0001
0000
0001
1000
0000
,
0100
1000
0001
0000
0100
0001
1000
0000
,
0100
0000
1000
0001
0000
0100
0001
0000
,
0100
1000
0010
0000
0100
0001
0010
0000
,
0100
1000
0001
0100
0001
1000
0100
0000
,
1000
0010
0100
0000
0100
0001
0010
0000
,
0100
1000
0001
0100
0010
0100
0001
0000
,
1000
0100
0010
0000
0010
0100
0001
0000
,
0100
0010
0001
0010
1000
0010
0001
0000
,
0100
0001
0000
0001
0000
1000
0000
0001
,
0000
0100
0000
0010
0000
1000
0010
0000
,
1001
0000
0000
0000
1000
0001
1000
0000
,
0100
0001
0100
0000
0100
1000
0100
0000
,
1000
0010
1000
0010
0100
0001
0100
0001
,
0100
0001
0010
0100
1000
0010
0100
0000
,
0101
0000
1001
0000
1000
0100
0001
0000
,
0100
1000
0001
0000
0100
0001
0010
0000
,
1010
0000
0101
0000
0010
1000
0100
0000
,
1000
0001
0100
0000
1000
0100
0001
0000
,
0011
0000
1100
0000
0010
1000
0100
0000
,
0001
0100
1000
0000
1000
0001
0100
0000
,
1010
0000
0101
0000
1000
0001
0100
0000
,
0001
1000
0100
0000
0010
0100
1000
0000
,
1001
0000
1100
1000
0100
0000
0010
0001
,
0100
0000
0001
0100
1000
0100
0001
0010
,
1000
0010
1000
0100
0010
0001
0100
0001
,
0000
0000
0000
1000
0010
0100
0001
0010
,
0001
0100
1000
0100
0010
0100
0000
0001
,
0000
0100
0010
1000
0100
0010
0001
0100
,
1000
0100
0001
0010
0100
1000
0010
1000
,
0100
0001
0100
1000
0100
0010
0001
0010
,
1000
0000
0000
0000
0100
0001
0000
0000
,
1000
0001
1000
0000
0001
1000
0001
0000
,
1000
0010
1000
0001
0100
0001
0010
0100
,
1000
0010
0100
0001
1000
0100
0010
0000
,
0011
0000
1001
0000
1000
0010
0001
0000
,
0010
1000
0001
0000
0010
0001
0100
0000
,
1100
0000
0011
0000
0100
1000
0010
0000
,
1000
0001
0010
0000
1000
0010
0001
0000
,
0101
0000
1010
0000
0100
1000
0010
0000
,
0001
0010
1000
0000
1000
0001
0010
0000
,
1100
0000
0011
0000
1000
0001
0010
0000
,
0001
1000
0010
0000
0100
0010
1000
0000
,
2002
0000
3003
0000
;

//---------------dance-double - ----------------
#NOTES:
     dance-double:
     :
     Beginner:
     1:
     :
00000000
00000000
00000000
00000000
,
00000000
00000000
00000000
00000000
,
00000000
00000000
00000000
00000000
,
10000000
00000000
10000000
00000000
,
01000000
00000000
01000000
00000000
,
00010000
00000000
00010000
00000000
,
00001000
00000000
00001000
00000000
,
00000010
00000000
00000010
00000000
,
00000001
00000000
00000001
00000000
,
00000100
00000000
00000100
00000000
,
00001000
00000000
00001000
00000000
,
00010000
00000000
00010000
00000000
,
00100000
00000000
00100000
00000000
,
00010000
00000000
00010000
00000000
,
00010000
00000000
00001000
00000000
,
00001000
00000000
00001000
00000000
,
00000100
00000000
00000100
00000000
,
00000001
00000000
00000001
00000000
,
00000001
00000000
00000000
00000000
,
00000001
00000000
00000100
00000000
,
00001000
00000000
00001000
00000000
,
00001000
00000000
00010000
00000000
,
00001000
00000000
00001000
00000000
,
01000000
00000000
01000000
00000000
,
01000000
00000000
01000000
00000000
,
00010000
00000000
01000000
00000000
,
00001000
00000000
00000001
00000000
,
00001001
00000000
00001001
00000000
,
00000001
00000000
00001000
00000000
,
00000010
00000000
00000100
00000000
,
00011000
00000000
00000000
00000000
,
00011000
00000000
00100000
00000000
,
01000000
00000000
00010000
00000000
,
00011000
00000000
00000010
00000000
,
00000100
00000000
00000001
00000000
,
00001000
00000000
00100000
00000000
,
01000000
00000000
10000000
00000000
,
00010000
00000000
00010000
00000000
,
10000000
00000000
10000000
00000000
,
10000000
00000000
00000000
00000000
,
01000000
00000000
00000000
00000000
,
00010000
00000000
00000000
00000000
,
00000000
00000000
00001000
00000000
,
00000010
00000000
00000001
00000000
,
00000010
00000000
00001000
00000000
,
00010000
00000000
00100000
00000000
,
01000000
00000000
10000000
00000000
,
00010000
00000000
00000000
00000000
,
00001000
00000000
00010000
00000000
,
00001000
00000000
00001000
00000000
,
00011000
00000000
00000000
00000000
,
00011000
00000000
00100000
00000000
,
01000000
00000000
00010000
00000000
,
00011000
00000000
00000010
00000000
,
00000100
00000000
00000001
00000000
,
00001000
00000000
00100000
00000000
,
01000000
00000000
10000000
00000000
,
00010000
00000000
00001000
00000000
,
00000001
00000000
00000001
00000000
,
00001001
00000000
00000000
00000000
;

//---------------dance-double - ----------------
#NOTES:
     dance-double:
     :
     Easy:
     4:
     :
00000000
00000000
00000000
00000000
,
00000000
00000000
00000000
00000000
,
00000000
00000000
00000000
00000000
,
10000000
00000000
10000000
00000000
,
01000000
00000000
01000000
00000000
,
00010000
00000000
00010000
00000000
,
00001000
00000000
00001000
00000000
,
00000010
00000000
00000010
00000000
,
00000001
00000000
00000001
00000000
,
00000100
00000000
00000100
00000000
,
00001000
00000000
00001000
00000000
,
00010000
00001000
00010000
00001000
,
00100000
00000000
00100000
00000000
,
00010000
10000000
00010000
10000000
,
00010000
00000000
00001000
00000000
,
00001000
00010000
00001000
00010000
,
00000100
00000000
00000100
00000000
,
00000001
00001000
00000001
00001000
,
00000001
00000000
00000000
00000000
,
00000001
00000001
00000100
00000100
,
00001000
00000100
00001000
00000100
,
00001000
00001000
00010000
00010000
,
00001000
00010000
00001000
00010000
,
01000000
00010000
01000000
00010000
,
01000000
10000000
01000000
10000000
,
00010000
10000000
01000000
00010000
,
00001000
00000010
00000001
00000100
,
00001001
00000000
00001001
00000000
,
00000001
00000000
00001000
00000000
,
00000010
00000001
00000100
00001000
,
00022000
00000000
00000000
00033000
,
00011000
00011000
00100000
00100000
,
01000000
01000000
00010000
00001000
,
00011000
00011000
00000010
00000010
,
00000100
00000100
00000001
00000100
,
00001000
00010000
00100000
00100000
,
01000000
01000000
10000000
01000000
,
00010000
00000000
00010000
00100000
,
10000000
01000000
10000000
01000000
,
20000000
00000000
00000000
30000000
,
02000000
00000000
00000000
03000000
,
00020000
00000000
00000000
00000000
,
00000000
00030000
00002000
00003000
,
00000020
00000030
00000002
00000003
,
00000020
00000030
00002000
00003000
,
00020000
00030000
00200000
00300000
,
02000000
03000000
20000000
30000000
,
00020000
00000000
00000000
00030000
,
00001000
00000000
00010000
00000000
,
00001000
00010000
00001000
00010000
,
00022000
00000000
00000000
00033000
,
00011000
00011000
00100000
00100000
,
01000000
01000000
00010000
00001000
,
00011000
00011000
00000010
00000010
,
00000100
00000100
00000001
00000100
,
00001000
00010000
00100000
00100000
,
01000000
01000000
10000000
01000000
,
00010000
00000000
00001000
00000010
,
00000001
00000100
00000001
00000100
,
00001001
00000000
00000000
00000000
00000000
00000000
00000000
00000000
00000000
00000000
00000000
00001001
00000000
00000000
00000000
00000000
;

//---------------dance-double - ----------------
#NOTES:
     dance-double:
     :
     Medium:
     5:
     :
00000000
00000000
00000000
00000000
,
00000000
00000000
00000000
00000000
,
00000000
00000000
00000000
00000000
,
00010000
00000000
00001000
00000000
,
00000010
00000000
00000001
00000100
,
00001000
00000000
00010000
00000000
,
10000000
00000000
01000000
00010000
,
10000000
00000000
00010000
00000000
,
00001000
00000000
00010000
00001000
,
00100000
00000000
01000000
00000000
,
00010000
00000000
00001000
00000010
,
00000001
00000000
00000100
00000000
,
00001000
00000000
00000011
00001100
,
00001000
00000000
00010000
00000000
,
00100000
00000000
10100000
01010000
,
00010000
00000000
00001000
00000000
,
00000100
00000000
00001010
00000101
,
00000010
00000000
00001000
00000000
,
00010000
00000000
01100000
10010000
,
01000000
00000000
00010000
00000000
,
00001000
00000000
00010000
00000000
00001000
00010000
00001000
00000000
,
00001000
00000000
00000100
00000000
,
00000001
00000000
00000100
00000000
00001000
00000100
00001000
00000000
,
00000100
00000000
00000001
00000000
,
00000010
00000000
00001000
00000000
00010000
00001000
00010000
00000000
,
00100000
00000000
01000000
00000000
,
00100000
00000000
01000000
00000000
00100000
01000000
00100000
00000000
,
10010000
00000000
00011000
00000000
,
00001001
00000000
00001010
00000000
,
00000101
00001100
00000011
00001010
,
00022000
00000000
00000000
00033000
,
00011000
00011000
00100000
00110000
,
10000000
11000000
00010000
01010000
,
00011000
00011000
00000010
00001010
,
00000001
00000101
00001000
00001100
,
00011000
00011000
00100000
10000000
,
01000000
00010000
00001000
00000010
,
00000001
00000100
00000010
00000010
,
00001001
00001001
00000100
00001000
,
00010000
00000000
01000000
10000000
01000000
00000000
00100000
10000000
,
00100000
00000000
00010000
00100000
00010000
00000000
00001000
00010000
,
00001000
00000000
00000010
00001000
00000010
00000000
00000010
00000001
,
00000010
00000000
00000000
00000000
00000010
00001000
00000001
00000100
,
00001000
00000000
00010000
00100000
01000000
00000000
01000000
00100000
,
10000000
00000000
10000000
01000000
00010000
00000000
00001000
00000010
,
00000001
00000000
00000100
00001000
00010000
00000000
00100000
10000000
,
01000000
00000000
00100000
00010000
01000000
00000000
00010000
10000000
,
01000000
00000000
10010000
00000000
,
11000000
00000000
01010000
00000000
,
00110000
10100000
11000000
00110000
,
00022000
00000000
00000000
00033000
,
00011000
00011000
00000100
00001100
,
00000001
00000011
00001000
00001010
,
00011000
00011000
01000000
01010000
,
10000000
10100000
00010000
00110000
,
00011000
00011000
00000100
00000001
,
00000010
00001000
00010000
01000000
,
10000000
00100000
01000000
01000000
,
10010000
10010000
01000000
01000000
,
10010000
00000000
00000000
00000000
00000000
00000000
00000000
00000000
00000000
00000000
00000000
10010000
00000000
00000000
00000000
00000000
;

//---------------dance-double - ----------------
#NOTES:
     dance-double:
     :
     Hard:
     7:
     :
00000000
00000000
00000000
00000000
,
00000000
00000000
00000000
00000000
,
00000000
00000000
00000000
00000000
,
10000000
00000000
00000000
10000000
01000000
00000000
00000000
01000000
,
00010000
00000000
00000000
00001000
00000010
00000001
00000010
00001000
,
00000010
00000100
00000000
00000100
00000010
00000001
00000000
00000001
,
00000100
00001000
00000000
00010000
00100000
10000000
00100000
00000000
,
00100000
10000000
00000000
01000000
00100000
00010000
00000000
10000000
,
01000000
00010000
00000000
01000000
00100000
00010000
01000000
00000000
,
00100000
10000000
00000000
01000000
00010000
00001000
00000000
00001000
,
00000100
00000010
00000000
00000100
00000001
00000100
00000010
00001000
,
00000010
00001000
00000010
00001000
00000100
00000000
00000010
00000000
,
00000001
00000000
00000100
00001000
00000000
00001000
00000100
00000000
,
00001000
00010000
00000000
00100000
00000000
01000000
00000000
10000000
,
01000000
00000000
01000000
00010000
00000000
00010000
01000000
00000000
,
01000000
10000000
00100000
01000000
00010000
00000000
00100000
00000000
,
01000000
00000000
00010000
00001000
00000000
00001000
00010000
00000000
,
00000010
00001000
00000001
00000000
00000001
00001000
00000100
00000000
,
00000100
00000000
00000010
00000001
00000000
00000001
00000010
00000000
,
00001000
00000100
00001000
00000010
00000000
00000001
00000100
00000000
,
00001000
00010000
00100000
01000000
00010000
01000000
00100000
00000000
,
00100000
10000000
01000000
00000000
00100000
00010000
10000000
00000000
,
10000000
00100000
01000000
00010000
01000000
00010000
10000000
00000000
,
10000000
00010000
10000000
00000000
10000000
01000000
00010000
00000000
,
00001000
00010000
00000010
00001000
00000100
00001000
00000100
00000000
,
00001000
00000100
00000001
00000000
00000010
00000001
00000100
00000000
,
00000100
00001000
00010000
00000000
00010000
00001000
00000100
00000001
,
00000010
00000001
00000000
00000000
00000001
00000100
00001000
00000000
,
00001000
00000100
00000001
00000000
00000001
00000010
00001000
00000000
,
00010000
00100000
10000000
00010000
00100000
01000000
10000000
01000000
,
00010000
01000000
00010000
00001000
00000010
00000001
00000100
00000010
,
00001000
00000000
00011000
00000000
00010000
01000000
10000000
00000000
,
10000000
00100000
00010000
00000000
00100000
00010000
00001000
00000000
,
00011000
00000000
00011000
00000000
00000010
00001000
00010000
00000000
,
00100000
00010000
00001000
00000000
00010000
00001000
00000100
00000000
,
00001100
00000000
00000101
00000000
00000100
00001000
00000010
00000000
,
00000010
00000001
00000100
00000000
00000001
00000100
00001000
00000000
,
00001100
00000000
00011000
00000000
00010000
00100000
00010000
00000000
,
00100000
10000000
00100000
00000000
00010000
01000000
10000000
00000000
,
11000000
00000000
10000000
01000000
00100000
00000000
01000000
00010000
,
00001000
00000010
00000001
00001000
00000001
00001000
00000001
00000100
,
00001000
00000000
00010000
00100000
01000000
00100000
00010000
00200000
,
00000000
00000000
00000000
00000000
10300000
00100000
10000000
00100000
,
01000000
01000000
00010000
00100000
01000000
00010000
00000000
00002000
,
00000000
00003010
00000001
00001000
00000010
00000100
00000001
00000100
,
00001000
00010000
00100000
00010000
00001000
00000010
00000001
00000100
,
00001000
00010000
01000000
10000000
01000000
00100000
01000000
00010000
,
00000000
00000000
00000000
00000000
10000000
00100000
00010000
00000000
,
00010000
00100000
10000000
00000000
10000000
01000000
00010000
00000000
,
00001000
00000100
00000001
00001000
00000100
00000010
00000001
00000010
,
00001000
00000010
00001000
00010000
01000000
10000000
00100000
01000000
,
00010000
00000000
00011000
00000000
00010000
01000000
10000000
00000000
,
10000000
00100000
00010000
00000000
00100000
00010000
00001000
00000000
,
00011000
00000000
00011000
00000000
00000010
00001000
00010000
00000000
,
00100000
00010000
00001000
00000000
00010000
00001000
00000100
00000000
,
00001100
00000000
00000101
00000000
00000100
00001000
00000010
00000000
,
00000010
00000001
00000100
00000000
00000001
00000100
00001000
00000000
,
00001100
00000000
00011000
00000000
00010000
00100000
00010000
00000000
,
00100000
10000000
00100000
00000000
00010000
01000000
10000000
00000000
,
10010000
00000000
00000000
00000000
00000000
00000000
00000000
00000000
00000000
00000000
00000000
10010000
00000000
00000000
00000000
00000000
;
