#TITLE:Hanging On The Telephone;
#ARTIST:Blondie;
#BANNER:Hanging On The Telephone.png;
#BACKGROUND:Hanging On The Telephone-bg.png;
#CDTITLE:./CDTITLES/DANCING STAGE UNLEASHED 2.png;
#MUSIC:Hanging On The Telephone.ogg;
#SAMPLESTART:6.44;
#SAMPLELENGTH:15;
#DISPLAYBPM:153;
#BPMS:0=152.96,20=154.2,32=152.6,44=152.7,60=151.8,76=152.6,92=153,112=154,128=151.9,144=151.7,164=152.4,180=151,192=151.8,204=153.2,216=154.6,228=150.1,244=151.9,260=161;
#BGCHANGES:3=Hanging On The Telephone.avi=1=0=0=0,276=Hanging On The Telephone-bg.png=1=0=0=1;

//---------------dance-single - ----------------
#NOTES:
     dance-single:
     :
     Beginner:
     1:
     :
0000
0000
0000
0000
,
0000
0000
0000
0000
,
0000
0000
0000
0000
,
0000
0000
0000
0000
,
0000
0000
0000
0000
,
1000
0000
1000
0000
,
0001
0000
0001
0000
,
1000
0000
1000
0000
,
0001
0000
0001
0000
,
1000
0000
1000
0000
,
0001
0000
0001
0000
,
1001
0000
0000
0000
,
0110
0000
0000
0000
,
1000
0000
0100
0000
,
0001
0000
0100
0000
,
1001
0000
0000
0000
,
0110
0000
0000
0000
,
1000
0000
0001
0000
,
1001
0000
0000
0000
,
0100
0000
0100
0000
,
1000
0000
1000
0000
,
0001
0000
0001
0000
,
0100
0000
0100
0000
,
0010
0000
0010
0000
,
1000
0000
1000
0000
,
0001
0000
0001
0000
,
1000
0000
0100
0000
,
0001
0000
0010
0000
,
1000
0000
0100
0000
,
0001
0000
0010
0000
,
0100
0000
0100
0000
,
0100
0000
0100
0000
,
1001
0000
0000
0000
,
1001
0000
0000
0000
,
0010
0000
0000
0100
,
0000
1000
0000
0001
,
0000
0000
0000
0100
,
0000
1000
0000
0001
,
0000
0000
0000
0100
,
0000
1001
0000
1001
,
0000
0100
0000
0100
,
0000
0000
0010
0000
,
0100
0000
0000
1000
,
0000
0000
0000
0000
,
0000
0000
0000
0000
,
1000
0000
0100
0000
,
0001
0000
0010
0000
,
1000
0000
0100
0000
,
0001
0000
0010
0000
,
1000
0000
0100
0000
,
1000
0000
0001
0000
,
1000
0000
0001
0000
,
0010
0000
0100
0000
,
0010
0000
0100
0000
,
1000
0000
0001
0000
,
1000
0000
0001
0000
,
0100
0000
0100
0000
,
1001
0000
0000
0000
,
0110
0000
0000
0000
,
1001
0000
0000
0000
,
1000
0000
0001
0000
,
1001
0000
0000
0000
,
1000
0000
0001
0000
,
1001
0000
0000
0000
,
0010
0000
0100
0000
,
1000
0000
0000
0000
,
0000
0000
0000
0000
,
0000
1001
0000
0000
;

//---------------dance-single - ----------------
#NOTES:
     dance-single:
     :
     Easy:
     2:
     :
0000
0000
0000
0000
,
0000
0000
0000
0000
,
0000
0000
0000
0000
,
0000
0000
0000
0000
,
0000
0000
0000
0000
,
1000
0000
1000
0000
,
0001
0000
0001
0000
,
1000
0000
1000
0000
,
0001
0000
0001
0000
,
1000
0000
1000
0000
,
0001
0000
0001
0000
,
1001
0000
0000
0000
,
0110
0000
0000
0000
,
1000
0000
0100
0000
,
0001
0000
0100
0000
,
1001
0000
0000
0000
,
0110
0000
0000
0000
,
1000
0000
0001
0000
,
2002
0000
0000
3003
,
0100
0000
0100
0000
,
1000
0000
1000
0000
,
0001
0000
0001
0000
,
0100
0000
0100
0000
,
0010
0000
0010
0000
,
1000
0000
1000
0000
,
0001
0000
0001
0000
,
1000
0000
0100
0000
,
0001
0000
0010
0000
,
1000
0000
0100
0000
,
0001
0000
0010
0000
,
0100
0000
0100
0000
,
0100
0000
0100
0000
,
1001
0000
0000
0000
,
1001
0000
0000
0000
,
0020
0000
0000
0100
0000
0000
0130
0000
,
0000
1000
0000
0001
,
0020
0000
0000
0100
0000
0000
0130
0000
,
0000
1000
0000
0001
,
0020
0000
0000
0100
0000
0000
0130
0000
,
0000
1001
0000
1001
,
0000
0100
0000
0100
,
0002
0000
0023
0000
,
0230
0000
0300
1000
,
2002
0000
0000
0000
,
3003
0000
0000
0000
,
1000
0000
0100
0000
,
0001
0000
0010
0000
,
1000
0000
0100
0000
,
0001
0000
0010
0000
,
1000
0000
0100
0000
,
1000
0000
0001
0000
,
1000
0000
0001
0000
,
0010
0000
0100
0000
,
0010
0000
0100
0000
,
1000
0000
0001
0000
,
1000
0000
0001
0000
,
0100
0000
0100
0000
,
1001
0000
0000
0000
,
0110
0000
0000
0000
,
1001
0000
0000
0000
,
1000
0000
0001
0000
,
2002
0000
0000
3003
,
1000
0000
0001
0000
,
2002
0000
0000
3003
,
0010
0010
0100
0100
,
1000
0000
0000
0000
0000
0000
0000
0000
0000
0001
0000
0000
0000
0000
0000
0000
,
0000
0010
0000
0000
0000
0100
0000
0000
,
0000
1001
0000
0000
;

//---------------dance-single - ----------------
#NOTES:
     dance-single:
     :
     Medium:
     5:
     :
0000
0000
0000
0000
,
0000
0000
0000
0000
,
0000
0000
0000
0000
,
0000
0000
0000
0000
,
0000
0000
0000
0000
,
1000
0100
0001
0100
,
1000
0100
0001
0100
,
1000
0010
0001
0010
,
1000
0010
0001
0010
,
1000
0001
1000
0001
,
0100
0000
0010
0010
0100
0100
0000
0000
,
2002
0000
0000
3003
0000
1000
0100
0010
,
0002
0000
0000
0000
0000
0003
0010
0100
,
1000
1100
0001
0101
,
0010
0010
0100
0100
,
2002
0000
0000
3003
0000
0100
0001
1000
,
2002
0000
0000
0000
3003
0000
0010
0100
,
0010
1001
0100
1001
,
0220
0000
0000
0330
,
1000
0100
1000
0100
,
0010
0001
0010
0001
,
0100
0001
0100
0001
,
1000
0010
1000
0010
,
0100
0010
0100
0010
,
1000
0001
1000
0001
,
0100
0010
1000
0001
,
1001
0000
0010
0100
0000
0000
1001
0000
,
0000
0000
0010
0100
0000
0000
0110
0000
,
0000
0000
1000
0010
0000
0000
0101
0000
,
0000
0000
0001
0010
0000
0000
1100
0000
,
0001
0010
0100
1000
,
0001
0010
0100
1000
,
0101
0000
1100
0000
,
0101
0000
1100
0000
,
0010
0000
0000
0100
0000
0000
1001
0000
,
1000
0001
1000
0001
,
0100
0000
0000
0010
0000
0000
1001
0000
,
0001
1000
0001
1000
,
0010
0000
0000
0100
0000
0000
0110
0000
,
1000
0001
1000
0001
,
0010
1000
0100
0001
0100
1000
0010
0000
,
0220
0330
2002
3003
,
0220
0000
0330
1001
,
2002
0000
0000
0000
,
3003
0000
0000
0000
,
1000
0100
1000
0001
,
0100
0001
1000
0010
,
1000
0001
0010
0001
,
1000
0100
0010
0001
,
0100
0010
1000
0001
,
0000
0000
0000
0110
0000
0000
1001
0000
,
0001
0010
0100
1000
0000
0000
0000
0000
,
0000
0000
0000
0110
0000
0000
1001
0000
,
1000
0100
0010
0001
0000
0000
0000
0000
,
0000
0000
0000
1100
0000
0000
0101
0000
,
1000
0001
1000
0001
0000
0000
0000
0000
,
0000
0000
0000
0100
0100
0100
0000
2002
,
0000
0000
0000
3003
0000
0000
0000
0000
,
0220
0000
0000
0000
0330
0000
1000
0002
,
0000
0000
0000
0003
,
1100
0000
0101
0000
,
0100
0100
1000
0001
,
1100
0000
0101
0000
,
0010
0010
1000
0001
,
1000
0100
0010
0001
,
1001
0000
0000
0000
0000
0000
0000
0000
0000
1100
0000
0000
0000
0000
0000
0000
,
0000
0101
0000
0000
0000
0110
0000
0000
,
0000
1001
0000
0000
;

//---------------dance-single - ----------------
#NOTES:
     dance-single:
     :
     Hard:
     7:
     :
0000
0000
0000
0000
,
0000
0000
0000
0000
,
0000
0000
0000
0000
,
0000
0000
0000
0000
,
0000
0000
0000
0000
,
1000
0100
1000
0001
0100
0000
0001
0000
,
1000
0001
0010
0100
0010
0001
1000
0100
,
0010
0100
1000
0001
0010
0000
0001
0000
,
1000
0001
0100
0001
0100
0000
0000
0001
,
1000
0100
1000
0010
0100
0000
0001
0000
,
1000
0000
0001
1000
0001
0010
0000
0000
,
2002
0000
0000
3003
0000
0100
0010
0100
,
2002
0000
0000
0000
3003
0000
1000
0001
,
1000
1100
0001
0101
,
0010
1000
0100
0001
0100
1000
0010
1000
,
2002
0000
0000
3003
0000
0100
0010
0100
,
2002
0000
0000
0000
3003
0000
0001
1000
,
0001
0101
1000
1100
,
1000
0001
1000
0001
1000
0001
1000
0000
,
0000
0001
0010
0001
1000
0100
1000
0010
,
1000
0010
0100
0001
0010
0100
1000
0000
,
0000
0000
0010
0100
0010
1000
0001
0100
,
0010
0100
0001
1000
0100
0010
0001
0000
,
0000
0000
1000
0010
1000
0001
0010
0001
,
1000
0100
1000
0001
0100
0001
1000
0000
,
0100
0000
0100
0000
0100
1000
0001
1000
,
1001
0200
0001
0301
,
1001
0200
1000
1300
,
1001
0020
0001
0031
,
1001
0020
1000
1030
,
0110
1000
0001
1000
,
0110
0001
1000
0001
,
1000
0100
0001
0100
1000
0100
0001
0100
,
1000
0010
0001
0010
1000
0010
0001
0010
,
2000
0000
0000
3002
0000
0000
1003
0000
,
0001
0010
0100
1000
0010
0100
0001
0000
,
2000
0000
0000
3002
0000
0000
1003
0000
,
0001
0100
0010
1000
0100
0010
0001
0000
,
0020
0000
0000
0230
0000
0000
0310
0000
,
0001
0010
0100
1000
0010
0100
0001
0000
,
1000
0100
1000
0010
1000
0001
0100
0000
,
0202
0303
2200
3300
,
2002
0000
3003
0110
,
2002
0000
0000
0000
,
3003
0000
0000
0000
,
1000
0100
1000
0001
0100
0001
0000
0000
,
0000
1000
0010
1000
0001
0010
0001
0100
,
0010
1000
0100
0010
0001
0100
0000
0000
,
0000
0001
0010
0100
1000
0001
0010
0001
,
1000
0010
0100
0010
1000
0001
0000
0000
,
0000
0000
0000
0110
0000
1000
1000
0001
,
0001
0100
0000
0000
1001
0000
0000
0000
,
0000
0000
0000
1001
0000
0001
0001
1000
,
1000
0100
0000
0000
1001
0000
0000
0000
,
0000
0000
0000
0110
0000
0010
0010
0100
,
0100
0010
0000
0000
1001
0000
0000
0000
,
0000
0000
0000
1000
0001
1000
0000
2200
,
0000
0000
0000
3300
0000
0001
0100
0001
,
0202
0000
0000
0000
0303
0000
0010
0200
,
0000
0000
0000
0300
,
1100
0011
0101
1010
,
0001
0100
0001
0100
0010
1000
0010
0000
,
0101
1010
1100
0011
,
1000
0100
1000
0100
0010
0001
0010
0000
,
0100
1000
0001
0100
0001
1000
0100
0000
,
1100
0000
0000
0000
0000
0000
0000
0000
0000
0101
0000
0000
0000
0000
0000
0000
,
0000
1100
0000
0000
0000
0101
0000
0000
,
0000
1001
0000
0000
;

//---------------dance-double - ----------------
#NOTES:
     dance-double:
     :
     Beginner:
     1:
     :
00000000
00000000
00000000
00000000
,
00000000
00000000
00000000
00000000
,
00000000
00000000
00000000
00000000
,
00000000
00000000
00000000
00000000
,
00000000
00000000
00000000
00000000
,
00000001
00000000
00000001
00000000
,
00000010
00000000
00000100
00000000
,
00001000
00000000
00001000
00000000
,
00010000
00000000
00010000
00000000
,
00100000
00000000
01000000
00000000
,
10000000
00000000
10000000
00000000
,
01100000
00000000
00000000
00000000
,
10010000
00000000
00000000
00000000
,
01000000
00000000
00010000
00000000
,
00001000
00000000
00000100
00000000
,
00000110
00000000
00000000
00000000
,
00001001
00000000
00000000
00000000
,
00000010
00000000
00000010
00000000
,
00001001
00000000
00000000
00000000
,
00000010
00000000
00000010
00000000
,
00000001
00000000
00000001
00000000
,
00000100
00000000
00000100
00000000
,
00001000
00000000
00001000
00000000
,
00010000
00000000
00010000
00000000
,
01000000
00000000
01000000
00000000
,
10000000
00000000
10000000
00000000
,
00100000
00000000
00100000
00000000
,
10000000
00000000
00010000
00000000
,
01000000
00000000
00001000
00000000
,
00010000
00000000
00000100
00000000
,
00001000
00000000
00000001
00000000
,
00000100
00000000
00001000
00000000
,
00011000
00000000
00000000
00000000
,
00011000
00000000
00000000
00000000
,
01000000
00000000
00000000
10000000
,
00000000
00100000
00000000
00010000
,
00000000
00000000
00000000
00000010
,
00000000
00000001
00000000
00000100
,
00000000
00000000
00000000
00010000
,
00000000
01000000
00000000
10000000
,
00000000
00010000
00000000
01000000
,
00000000
00000000
00010000
00000000
,
00001000
00000000
00000000
00010000
,
00000000
00000000
00000000
00000000
,
00000000
00000000
00000000
00000000
,
00001000
00000000
00000100
00000000
,
00000001
00000000
00000100
00000000
,
00001000
00000000
00010000
00000000
,
01000000
00000000
10000000
00000000
,
01000000
00000000
00010000
00000000
,
00001000
00000000
00000010
00000000
,
00000001
00000000
00000010
00000000
,
00001000
00000000
00010000
00000000
,
00100000
00000000
10000000
00000000
,
00100000
00000000
00010000
00000000
,
00001000
00000000
00001000
00000000
,
00010000
00000000
00010000
00000000
,
10010000
00000000
00000000
00000000
,
10000000
00000000
00000000
00000000
,
00010000
00000000
00000000
00000000
,
00001000
00000000
00000001
00000000
,
00001001
00000000
00000000
00000000
,
00010000
00000000
10000000
00000000
,
10010000
00000000
00000000
00000000
,
00100000
00000000
00001000
00000000
,
00000100
00000000
00000000
00000000
,
00000000
00000000
00000000
00000000
,
00000000
00001001
00000000
00000000
;

//---------------dance-double - ----------------
#NOTES:
     dance-double:
     :
     Easy:
     3:
     :
00000000
00000000
00000000
00000000
,
00000000
00000000
00000000
00000000
,
00000000
00000000
00000000
00000000
,
00000000
00000000
00000000
00000000
,
00000000
00000000
00000000
00000000
,
00000001
00000000
00000001
00000000
,
00000010
00000000
00000100
00000000
,
00001000
00000000
00001000
00000000
,
00010000
00000000
00010000
00000000
,
00100000
00000000
01000000
00000000
,
10000000
00000000
10000000
00000000
,
01100000
00000000
00000000
00000000
,
10010000
00000000
00000000
00000000
,
01000000
00000000
00010000
00000000
,
00001000
00000000
00000100
00000000
,
00000110
00000000
00000000
00000000
,
00001001
00000000
00000000
00000000
,
00000010
00000000
00000010
00000000
,
00002002
00000000
00000000
00003003
,
00000010
00000000
00000010
00000000
,
00000001
00000000
00000001
00000000
,
00000100
00000000
00000100
00000000
,
00001000
00000000
00001000
00000000
,
00010000
00000000
00010000
00000000
,
01000000
00000000
01000000
00000000
,
10000000
00000000
10000000
00000000
,
00100000
00000000
00100000
00000000
,
10000000
00000000
00010000
00000000
,
01000000
00000000
00001000
00000000
,
00010000
00000000
00000100
00000000
,
00001000
00000000
00000001
00000000
,
00000100
00000000
00001000
00000000
,
00011000
00000000
00000000
00000000
,
00011000
00000000
00000000
00000000
,
02000000
00000000
00000000
10000000
00000000
00000000
13000000
00000000
,
00000000
00100000
00000000
00010000
,
00002000
00000000
00000000
00000010
00000000
00000000
00003010
00000000
,
00000000
00000001
00000000
00000100
,
00002000
00000000
00000000
00010000
00000000
00000000
00013000
00000000
,
00000000
01000000
00000000
10000000
,
00000000
00010000
00000000
01000000
,
00001000
00000000
00010000
00000000
,
00001000
00000000
00000000
00010000
,
00022000
00000000
00000000
00000000
,
00033000
00000000
00000000
00000000
,
00001000
00000000
00000100
00000000
,
00000001
00000000
00000100
00000000
,
00001000
00000000
00010000
00000000
,
01000000
00000000
10000000
00000000
,
01000000
00000000
00010000
00000000
,
00001000
00000000
00000010
00000000
,
00000001
00000000
00000010
00000000
,
00001000
00000000
00010000
00000000
,
00100000
00000000
10000000
00000000
,
00100000
00000000
00010000
00000000
,
00001000
00000000
00001000
00000000
,
00010000
00000000
00010000
00000000
,
10010000
00000000
00000000
00000000
,
20000000
00000000
00000000
30000000
,
00020000
00000000
00000000
00030000
,
00001000
00000000
00000001
00000000
,
00002002
00000000
00000000
00003003
,
00010000
00000000
10000000
00000000
,
20020000
00000000
00000000
30030000
,
00100000
00001000
00010000
00000100
,
00001000
00000000
00000000
00000000
00000000
00000000
00000000
00000000
00000000
00000100
00000000
00000000
00000000
00000000
00000000
00000000
,
00000000
00001000
00000000
00000000
00000000
00000010
00000000
00000000
,
00000000
00001001
00000000
00000000
;

//---------------dance-double - ----------------
#NOTES:
     dance-double:
     :
     Medium:
     5:
     :
00000000
00000000
00000000
00000000
,
00000000
00000000
00000000
00000000
,
00000000
00000000
00000000
00000000
,
00000000
00000000
00000000
00000000
,
00000000
00000000
00000000
00000000
,
00001000
00000100
00000010
00000001
,
00000100
00000010
00000001
00000010
,
00001000
00010000
00100000
10000000
,
01000000
00100000
00010000
01000000
,
00100000
10000000
01000000
00010000
,
00001000
00000000
00000100
00000001
00001000
00000100
00000000
00000000
,
00000020
00000000
00000000
00000030
00000000
00000100
00010000
00001000
,
02000000
00000000
00000000
00000000
03000000
00000000
00100000
10000000
,
01000000
10010000
01000000
10010000
,
00100000
10000000
01000000
00010000
,
00022000
00000000
00000000
00033000
00000000
00001000
00000100
00000001
,
00002002
00000000
00000000
00000000
00003003
00000000
00000010
00000100
,
00000010
00001001
00000100
00001001
,
00002002
00000000
00000000
00003003
,
00000001
00000010
00000100
00001000
,
00000001
00000100
00000010
00001000
,
00010000
01000000
00100000
10000000
,
00010000
00100000
01000000
10000000
,
00100000
10000000
01000000
00010000
,
00001000
00000100
00000001
00000010
,
00001000
00010000
00001000
00010000
,
01000000
00000000
10000000
00010000
00000000
00000000
10010000
00000000
,
00000000
00000000
00100000
00010000
00000000
00000000
00011000
00000000
,
00000000
00000000
00001000
00000010
00000000
00000000
00001001
00000000
,
00000000
00000000
00001000
00000001
00000000
00000000
00000110
00000000
,
00000001
00000100
00000001
00000100
,
00000010
00001000
00000010
00001000
,
00000002
00000000
00002003
00000000
,
00003002
00000000
00002003
00003000
,
00000100
00000000
00000000
00001000
00000000
00000000
00000001
00000000
,
00000010
00000100
00010000
00001000
,
00100000
00000000
00000000
01000000
00000000
00000000
10000000
00000000
,
00010000
00100000
01000000
10000000
,
00100000
00000000
00000000
01000000
00000000
00000000
00001000
00000000
,
00010000
00000100
00000010
00000001
,
00001000
00000001
00001000
00000001
00001000
00000001
00000100
00000000
,
00000002
00000003
00000200
00000300
,
00002000
00000000
00003000
00010000
,
00022000
00000000
00000000
00000000
,
00033000
00000000
00000000
00000000
,
00000001
00000010
00000001
00000100
,
00000010
00001000
00000100
00010000
,
00001000
00100000
00010000
01000000
,
00100000
10000000
01000000
10000000
,
01000000
00010000
00001000
00011000
,
00000000
00000000
00000000
00000011
00000000
00000001
00000000
00000010
,
00000000
00000100
00000000
00001100
00000000
00000000
00000000
00000000
,
00000000
00000000
00000000
00001010
00000000
00001000
00000000
00000010
,
00000000
00000100
00000000
00000101
00000000
00000000
00000000
00000000
,
00000000
00000000
00000000
00001001
00000000
00000100
00000000
00001000
,
00000000
00010000
00000000
00011000
00000000
00000000
00000000
00000000
,
00000000
00000000
00000000
00010000
00100000
01000000
00000000
20000000
,
00000000
00000000
00000000
30000000
00000000
10000000
00100000
01000000
,
00020000
00000000
00000000
00000000
00030000
00000000
00100000
02000000
,
00000000
00000000
00000000
03000000
,
10010000
00000000
10010000
00000000
,
01000000
00010000
00001000
00000100
,
00001001
00000000
00001001
00000000
,
00000100
00001000
00010000
01000000
,
10000000
00100000
00010000
00001000
,
00011000
00000000
00000000
00000000
00000000
00000000
00000000
00000000
00000000
00001100
00000000
00000000
00000000
00000000
00000000
00000000
,
00000000
00000011
00000000
00000000
00000000
00000110
00000000
00000000
,
00000000
00001001
00000000
00000000
;

//---------------dance-double - ----------------
#NOTES:
     dance-double:
     :
     Hard:
     7:
     :
00000000
00000000
00000000
00000000
,
00000000
00000000
00000000
00000000
,
00000000
00000000
00000000
00000000
,
00000000
00000000
00000000
00000000
,
00000000
00000000
00000000
00000000
,
10000000
01000000
10000000
00010000
00100000
00000000
00001000
00000000
,
00010000
00000100
00001000
00000001
00000010
00000100
00001000
00000010
,
00010000
00000100
00001000
00000010
00010000
00000000
00000100
00000000
,
00001000
00000001
00000100
00000010
00000100
00000000
00000000
00000010
,
00010000
00001000
00100000
00010000
01000000
00000000
00010000
00000000
,
10000000
00000000
00100000
10000000
00010000
00100000
00000000
00000000
,
20020000
00000000
00000000
30030000
00000000
01000000
00001000
00010000
,
00022000
00000000
00000000
00000000
00033000
00000000
00001000
00000100
,
00000001
00000101
00001000
00001100
,
00000001
00000010
00000100
00001000
00000001
00000010
00000100
00001000
,
00002002
00000000
00000000
00003003
00000000
00000100
00001000
00010000
,
00022000
00000000
00000000
00000000
00033000
00000000
00010000
01000000
,
10000000
11000000
00010000
01010000
,
10000000
01000000
00010000
00001000
00010000
01000000
10000000
00000000
,
00000000
00100000
01000000
00001000
00010000
00100000
01000000
00001000
,
00010000
00000010
00000100
00000001
00001000
00000100
00000010
00000000
,
00000000
00000000
00000100
00010000
00001000
00000100
00000001
00000010
,
00000100
00010000
00001000
00010000
00000100
00000010
00000001
00000000
,
00000000
00000000
00001000
00000010
00000001
00000010
00001000
00000100
,
00010000
01000000
00100000
00010000
10000000
01000000
00100000
00000000
,
00001000
00000000
00010000
00000000
00001000
00000000
00010000
00001000
,
00011000
00000000
01000000
01000000
00000000
00000000
10010000
00000000
,
00000000
00000000
00100000
00100000
00000000
00000000
00011000
00000000
,
00000000
00000000
00000010
00000010
00000000
00000000
00001001
00000000
,
00000000
00000000
00000100
00000100
00000000
00000000
00011000
00000000
,
00010000
01000000
10000000
01100000
,
10000000
01000000
00010000
01100000
,
10000000
01000000
00010000
01000000
10000000
01000000
00010000
00001000
,
00000100
00000001
00000100
00001000
00000100
00000001
00000100
00001000
,
00020000
00000000
00000000
00032000
00000000
00000000
00003100
00000000
,
00000001
00000010
00000100
00001000
00000100
00010000
00001000
00000000
,
00020000
00000000
00000000
00032000
00000000
00000000
01003000
00000000
,
00010000
00100000
01000000
10000000
00100000
01000000
00001000
00000000
,
00020000
00000000
00000000
00032000
00000000
00000000
01003000
00000000
,
00100000
01000000
00010000
10000000
01000000
00100000
00001000
00000000
,
00010000
00001000
00000100
00000001
00000100
00001000
00010000
00000000
,
00020200
00030300
02002000
03003000
,
00022000
00000000
00033000
00000010
,
00002002
00000000
00000000
00000000
,
00003003
00000000
00000000
00000000
,
00000010
00000001
00000100
00000010
00001000
00000100
00000000
00000000
,
00000000
00000010
00000001
00000100
00000010
00001000
00000100
00010000
,
00001000
00100000
00010000
01000000
00100000
10000000
00000000
00000000
,
00000000
00100000
10000000
01000000
00100000
00010000
01000000
00001000
,
00010000
00000010
00001000
00000100
00000010
00000001
00000000
00000000
,
00000000
00000000
00000000
00001001
00000000
00000001
00000001
00001000
,
00001000
00000001
00000000
00000000
00001001
00000000
00000000
00000000
,
00000000
00000000
00000000
00011000
00000000
00001000
00001000
00010000
,
00010000
00001000
00000000
00000000
00011000
00000000
00000000
00000000
,
00000000
00000000
00000000
10010000
00000000
00010000
00010000
10000000
,
10000000
00010000
00000000
00000000
10010000
00000000
00000000
00000000
,
00000000
00000000
00000000
00100000
01000000
10000000
00000000
22000000
,
00000000
00000000
00000000
33000000
00000000
00100000
01000000
00010000
,
02020000
00000000
00000000
00000000
03030000
00000000
00100000
02000000
,
00000000
00000000
00000000
03000000
,
10010000
01100000
11000000
01010000
,
10000000
01000000
10000000
01000000
00100000
00010000
00100000
00000000
,
00101000
00011000
00010010
00001001
,
00000010
00000001
00000010
00000001
00001000
00000100
00001000
00000000
,
00000001
00000100
00000001
00000100
00000010
00001000
00000001
00000000
,
00000101
00000000
00000000
00000000
00000000
00000000
00000000
00000000
00000000
00001010
00000000
00000000
00000000
00000000
00000000
00000000
,
00000000
00001100
00000000
00000000
00000000
00000011
00000000
00000000
,
00000000
00001001
00000000
00000000
;
