#TITLE:Get It On;
#ARTIST:Intenso Project feat. Lisa Scott-Lee;
#BANNER:Get It On.png;
#BACKGROUND:Get It On-bg.png;
#CDTITLE:./CDTITLES/DANCING STAGE UNLEASHED 2.png;
#MUSIC:Get It On.ogg;
#SAMPLESTART:8.95;
#SAMPLELENGTH:15;
#BPMS:0=130;

//---------------dance-single - ----------------
#NOTES:
     dance-single:
     :
     Beginner:
     1:
     :
0000
0000
0000
0000
,
0000
0000
0000
0000
,
0000
0000
0000
0000
,
0000
0000
0000
0000
,
0000
0000
0000
0000
,
1000
0000
0001
0000
,
1000
0000
1000
0000
,
0100
0000
0100
0000
,
0001
0000
1000
0000
,
0001
0000
1000
0000
,
0001
0000
1000
0000
,
0001
0000
0100
0000
,
0100
0000
0100
0000
,
0010
0000
0100
0000
,
1001
0000
0000
0000
,
0100
0000
0010
0000
,
0010
0000
0100
0000
,
0010
0000
0100
0000
,
1001
0000
0000
0000
,
0100
0000
0010
0000
,
0010
0000
0100
0000
,
1000
0000
0001
0000
,
1000
0000
0001
0000
,
1001
0000
0000
0000
,
0110
0000
0000
0000
,
0001
0000
1000
0000
,
0001
0000
1000
0000
,
1001
0000
0000
0000
,
0110
0000
0000
0000
,
1000
0000
0001
0000
,
0001
0000
1000
0000
,
0001
0000
1000
0000
,
1000
0000
0001
0000
,
0000
0110
0000
1001
,
0000
0110
0000
1001
,
0000
0010
0000
0010
,
0000
0000
0000
0000
,
1000
0000
0001
0000
,
1000
0000
1000
0000
,
0010
0000
0010
0000
,
0001
0000
1000
0000
,
0001
0000
1000
0000
,
0001
0000
1000
0000
,
0001
0000
0100
0000
,
0010
0000
0010
0000
,
0010
0000
0100
0000
,
1001
0000
0000
0000
,
0010
0000
0100
0000
,
0100
0000
0010
0000
,
0010
0000
0100
0000
,
1001
0000
0000
0000
,
0010
0000
0100
0000
,
0100
0000
0010
0000
,
1000
0000
0001
0000
,
0010
0000
0000
0000
,
1000
0000
0001
0000
,
0001
0000
1000
0000
,
0001
0000
1000
0000
,
0010
0000
0000
0000
,
0001
0000
1000
0000
,
1000
0000
0001
0000
,
1001
0000
0000
0000
;

//---------------dance-single - ----------------
#NOTES:
     dance-single:
     :
     Easy:
     4:
     :
0000
0000
0000
0000
,
0000
0000
0000
0000
,
0000
0000
0000
0000
,
0000
0000
0000
0000
,
0000
0000
0000
0000
,
1000
1000
0001
0001
,
1000
0001
1000
0001
,
0100
0000
0100
0000
,
0001
0001
1000
1000
,
0001
0001
1000
1000
,
0001
0001
1000
1000
,
0001
0010
0100
1000
,
0100
0000
0100
0000
,
0010
0001
0100
1000
,
2002
0000
0000
3003
,
0100
0000
0010
0000
,
0010
0000
0100
0000
,
0010
1000
0100
0001
,
2002
0000
0000
3003
,
0100
0000
0010
0000
,
0010
0000
0100
0000
,
1000
0100
0001
0100
,
1000
0100
0001
0100
,
2002
0000
0000
3003
,
0220
0000
0000
0330
,
0001
0100
1000
0100
,
0001
0100
1000
0100
,
2002
0000
0000
3003
,
0220
0000
0000
0330
,
1000
0100
0001
0000
,
0001
0100
1000
0000
,
0001
0100
1000
0000
,
1000
0100
0001
0000
,
0000
0110
0000
1001
,
0000
0110
0000
1001
,
0100
0010
0100
0010
,
0200
0000
0000
0300
,
1000
1000
0001
0001
,
1000
0001
1000
0001
,
0010
0000
0010
0000
,
0001
0001
1000
1000
,
0001
0001
1000
1000
,
0001
0001
1000
1000
,
0001
0010
0100
1000
,
0010
0000
0010
0000
,
0010
1000
0100
0001
,
2002
0000
0000
3003
,
0010
0000
0100
0000
,
0100
0000
0010
0000
,
0010
0001
0100
1000
,
2002
0000
0000
3003
,
0010
0000
0100
0000
,
0100
0000
0010
0000
,
1000
0100
0001
0100
,
0020
0000
0000
0030
,
2000
0000
3001
0000
,
0002
0000
1003
0000
,
0001
0100
1000
0100
,
0020
0000
0000
0030
,
0002
0000
1003
0000
,
2000
0000
3001
0000
,
2002
0000
0000
3003
;

//---------------dance-single - ----------------
#NOTES:
     dance-single:
     :
     Medium:
     6:
     :
0000
0000
0000
0000
,
0000
0000
0000
0000
,
0000
0000
0000
0000
,
0000
0000
0000
0000
,
0000
0000
0000
0000
,
0100
1000
0001
0000
0100
0001
1000
0000
,
0010
1000
0001
0000
0010
0001
1000
0000
,
0100
1001
0100
1001
,
1000
1000
1000
0000
0001
0001
0001
0000
,
0010
0100
1000
0000
0010
0100
0001
0000
,
0100
0010
1000
0000
0100
0010
0001
0000
,
1000
1001
0001
1001
,
0100
0100
0100
0000
0010
0010
0010
0000
,
1000
0001
1000
0001
0010
0000
0100
0020
,
0000
0000
0000
0000
0000
0030
0000
0000
,
2000
0100
0001
3100
,
0002
0100
1000
0103
,
1000
0100
1000
0001
0100
0000
0001
0020
,
0000
0000
0000
0000
0000
0030
0000
0000
,
0002
0010
1000
0013
,
2000
0010
0001
3010
,
0100
0000
1100
0000
0101
0000
1000
0100
,
0010
0001
0000
0000
0000
0100
0100
0020
,
0000
0000
0000
0030
0000
0100
0100
0020
,
0000
0000
0000
0030
0000
0000
0000
0000
,
1000
0000
1010
0000
0011
0000
0001
0010
,
0100
1000
0000
0000
0000
0001
0001
2000
,
0000
0000
0000
3000
0000
1000
1000
0002
,
0000
0000
0000
0003
0000
0000
0000
0000
,
1000
0001
1000
0000
0010
0100
0010
0000
,
0100
0001
0100
0000
0010
1000
0010
0000
,
1000
0100
1000
0000
0001
0010
0001
0000
,
1000
0010
1000
0001
0100
0001
0010
0000
,
0100
0000
0000
0000
0100
0000
0000
0000
1001
0000
0000
1001
0000
0000
0100
0000
,
0200
0000
0000
0000
0300
0000
0000
0000
1001
0000
0000
1001
0000
0000
0000
0000
,
1000
0100
0010
0000
0001
0100
0010
0000
,
2002
0000
0000
3003
,
1000
0100
0001
0000
0100
1000
1000
0000
,
0001
0100
1000
0000
0100
0001
0001
0000
,
1000
1100
0001
0101
,
0010
1000
0100
0000
0010
0001
0100
0000
,
0001
0010
1000
0000
0010
0001
0001
0000
,
1000
0010
0001
0000
0010
1000
1000
0000
,
0001
0011
1000
1010
,
0100
0001
0010
0000
0100
1000
0010
0000
,
0100
0001
0100
0010
1000
0000
0001
0010
,
0100
1000
0000
0000
0000
0001
1000
2002
,
0000
0000
0000
3003
0000
1000
0001
2002
,
0000
0000
0000
3003
0000
0000
0000
0000
,
0100
1000
0001
0100
0001
0000
1000
0100
,
0010
0001
0000
0000
0000
0100
0010
0220
,
0000
0000
0000
0330
0000
0010
0100
0220
,
0000
0000
0000
0330
0000
0000
0000
0000
,
1000
0100
1000
0001
0010
0000
0001
0100
,
0010
1000
0000
0000
0000
0001
0100
0202
,
0000
0000
0000
0303
0000
1000
0100
2200
,
0000
0000
0000
3300
0000
0000
0000
0000
,
0010
0100
1000
0001
0100
0000
0010
1000
,
0001
0010
0000
0000
0000
0001
1000
2002
,
0000
0000
0000
3003
0000
1000
0001
1001
,
0000
0000
1000
1000
0001
0001
0100
0100
,
2002
0000
0000
3003
;

//---------------dance-single - ----------------
#NOTES:
     dance-single:
     :
     Hard:
     8:
     :
0000
0000
0000
0000
,
0000
0000
0000
0000
,
0000
0000
0000
0000
,
0000
0000
0000
0000
,
0000
0000
0000
0000
,
1000
0000
0100
0000
0010
0000
0100
0000
1000
0001
1000
0000
0010
0000
0000
0000
,
0100
0000
0001
0000
0010
0000
0001
0000
1000
0100
1000
0000
0010
0000
0000
0000
,
0100
0000
0001
0000
1000
0100
0000
0000
0010
0001
0000
1000
0000
0000
0010
0000
,
0100
1000
0100
0001
0010
0100
1000
0000
,
0010
0000
0100
0000
0010
0000
1000
0000
0001
0100
0001
0000
0010
0000
0000
0000
,
0100
0000
1000
0000
0001
0000
0100
0000
0010
1000
0010
0000
0100
0000
0000
0000
,
0001
0000
1000
0000
0001
0100
0000
0000
0010
1000
0000
0001
0000
0000
0010
0000
,
0100
1000
0100
0001
0100
1000
0001
0000
,
1000
0100
1000
0010
0100
0010
1000
0002
,
0000
0000
0000
0000
0000
1003
0001
0200
,
0000
0301
0100
0020
0000
1030
0010
0200
,
0000
0301
0100
0020
0000
0230
0000
0300
,
0001
1000
0001
0010
0100
1000
0010
2000
,
0000
0000
0000
0000
0000
3100
1000
0020
,
0000
0130
0010
2000
0000
3001
1000
0200
,
0000
1300
0100
0020
0000
0031
1000
0001
,
0100
0010
1000
0100
0001
0100
1000
0010
,
0100
2002
0000
3003
0000
0010
0100
2002
,
0000
0000
0000
3003
0000
0010
0100
2002
,
0000
0000
0000
3003
0000
0100
0010
0001
,
1000
0100
1000
0010
0100
0010
0001
0010
,
1000
2002
0000
3003
0000
0100
0010
2002
,
0000
0000
0000
3003
0000
0100
0010
2002
,
0000
0000
0000
3003
0000
0000
0000
0000
,
0100
0001
0100
0010
0001
0010
1000
0100
,
0010
1000
0010
0001
0100
0010
1000
0001
,
0010
0100
0010
0001
1000
0010
0100
0001
,
1000
0100
1000
0010
0100
0001
1001
0000
,
1000
0000
0101
0000
0000
0001
1100
0000
,
0001
0000
1010
0000
0000
1000
0011
0000
,
0100
0010
0001
0010
0100
1000
0001
0000
,
0220
0000
0000
0330
,
0100
0000
1000
0000
0001
0000
0100
0000
0010
1000
0010
0000
0100
0000
0000
0000
,
0001
0000
0010
0000
0100
0000
1000
0000
0010
0100
0010
0000
1000
0000
0000
0000
,
0100
0000
0001
0000
0100
1000
0000
0000
0001
0100
0000
1000
0000
0000
0100
0000
,
0001
0010
0100
0010
0001
1000
0010
0000
,
1000
0000
0100
0000
0001
0000
0100
0000
1000
0001
1000
0000
0010
0000
0000
0000
,
0100
0000
0001
0000
0010
0000
0001
0000
1000
0100
1000
0000
0001
0000
0000
0000
,
0010
0000
1000
0000
0010
0001
0000
0000
1000
0100
0000
0001
0000
0000
0100
0000
,
0010
0001
0100
1000
0100
0001
1000
0001
,
0010
0100
1000
0010
0100
0001
0010
0001
,
1000
0220
0000
0330
0000
0001
1000
0220
,
0000
0000
0000
0330
0000
0001
1000
0220
,
0000
0000
0000
0000
0330
0001
0100
0010
,
0100
0001
0010
0100
0010
0001
1000
0010
,
1000
0220
0000
0330
0000
1000
0001
0220
,
0000
0000
0000
0330
0000
1000
0001
0220
,
0000
0000
0330
0000
,
0010
1000
0100
1000
0001
1000
0100
0010
,
0001
0100
0001
0010
0001
1000
0001
0010
,
0100
1000
0100
0001
0100
0010
0100
1000
,
0010
0001
0010
1000
0010
0100
0010
1000
,
0100
0010
0001
0100
0010
1000
0100
0010
,
0001
1000
0100
0010
0001
0100
0010
1000
,
0100
0010
0001
1000
0010
0100
0001
0010
,
0100
1000
0010
0100
0001
0010
0100
1000
,
2002
0000
0000
3003
;

//---------------dance-double - ----------------
#NOTES:
     dance-double:
     :
     Beginner:
     1:
     :
00000000
00000000
00000000
00000000
,
00000000
00000000
00000000
00000000
,
00000000
00000000
00000000
00000000
,
00000000
00000000
00000000
00000000
,
00000000
00000000
00000000
00000000
,
00100000
00000000
01000000
00000000
,
00001000
00000000
00000001
00000000
,
00001000
00000000
00010000
00000000
,
00000100
00000000
00001000
00000000
,
00000010
00000000
00000100
00000000
,
00010000
00000000
10000000
00000000
,
00010000
00000000
00001000
00000000
,
01000000
00000000
00010000
00000000
,
10000000
00000000
01000000
00000000
,
00100000
00000000
00010000
00000000
,
00100000
00000000
01000000
00000000
,
10000000
00000000
00010000
00000000
,
00001000
00000000
00000100
00000000
,
00000010
00000000
00000001
00000000
,
00000010
00000000
00000100
00000000
,
00001000
00000000
00010000
00000000
,
01000000
00000000
10000000
00000000
,
00010000
00000000
01000000
00000000
,
00001000
00000000
00000000
00000000
,
00010000
00000000
00000000
00000000
,
00000100
00000000
00000001
00000000
,
00001000
00000000
00000010
00000000
,
00010000
00000000
00000000
00000000
,
00001000
00000000
00000000
00000000
,
00010000
00000000
10000000
00000000
,
10000000
00000000
00010000
00000000
,
00001000
00000000
00000001
00000000
,
00000001
00000000
00001000
00000000
,
00000001
00000000
00001000
00000000
,
00010000
00000000
10000000
00000000
,
01000000
00000000
00000000
00000000
,
00011000
00000000
00000000
00000000
,
00000100
00000000
00000010
00000000
,
00010000
00000000
10000000
00000000
,
00010000
00000000
00001000
00000000
,
00100000
00000000
00010000
00000000
,
01000000
00000000
00100000
00000000
,
00001000
00000000
00000001
00000000
,
00001000
00000000
00010000
00000000
,
00000010
00000000
00001000
00000000
,
00000001
00000000
00000010
00000000
,
00000100
00000000
00001000
00000000
,
00000100
00000000
00000010
00000000
,
00000001
00000000
00001000
00000000
,
00010000
00000000
00100000
00000000
,
01000000
00000000
10000000
00000000
,
01000000
00000000
00100000
00000000
,
00010000
00000000
00001000
00000000
,
00000100
00000000
00000100
00000000
,
00001001
00000000
00000000
00000000
,
00000001
00000000
00001000
00000000
,
00010000
00000000
10000000
00000000
,
01000000
00000000
01000000
00000000
,
10010000
00000000
00000000
00000000
,
10000000
00000000
00010000
00000000
,
00001000
00000000
00000001
00000000
,
00001001
00000000
00000000
00000000
;

//---------------dance-double - ----------------
#NOTES:
     dance-double:
     :
     Easy:
     4:
     :
00000000
00000000
00000000
00000000
,
00000000
00000000
00000000
00000000
,
00000000
00000000
00000000
00000000
,
00000000
00000000
00000000
00000000
,
00000000
00000000
00000000
00000000
,
00100000
10000000
01000000
00010000
,
00001000
00000100
00000001
00000010
,
00001000
00000000
00010000
00000000
,
00000100
00000000
00001000
00000000
,
00000010
00000001
00000100
00001000
,
00010000
01000000
10000000
00100000
,
00010000
00000000
00001000
00000000
,
01000000
00000000
00010000
00000000
,
10000000
00000000
01000000
00000000
,
00100000
00000000
00010000
00000000
,
00100000
00000000
01000000
00000000
,
10000000
00000000
00010000
00000000
,
00001000
00000000
00000100
00000000
,
00000010
00000000
00000001
00000000
,
00000010
00000000
00000100
00000000
,
00001000
00000000
00010000
00000000
,
01000000
01000000
10000000
10000000
,
00010000
00010000
01000000
01000000
,
00002000
00000000
00000000
00003000
,
00020000
00000000
00000000
00030000
,
00000100
00000100
00000001
00000001
,
00001000
00001000
00000100
00000100
,
00020000
00000000
00000000
00030000
,
00002000
00000000
00000000
00003000
,
00010000
00100000
10000000
00000000
,
10000000
01000000
00010000
00000000
,
00001000
00000010
00000001
00000000
,
00000001
00000100
00001000
00000000
,
00000001
00000000
00001000
00000000
,
00010000
00000000
10000000
00000000
,
01000000
01000000
00000000
00000000
,
00011000
00000000
00000000
00000000
,
00000100
00000001
00000010
00001000
,
00010000
00100000
10000000
01000000
,
00010000
00000000
00001000
00000000
,
00100000
00000000
00010000
00000000
,
01000000
10000000
00100000
00010000
,
00001000
00000010
00000001
00000100
,
00001000
00000000
00010000
00000000
,
00000010
00000000
00001000
00000000
,
00000001
00000000
00000010
00000000
,
00000100
00000000
00001000
00000000
,
00000100
00000000
00000010
00000000
,
00000001
00000000
00001000
00000000
,
00010000
00000000
00100000
00000000
,
01000000
00000000
10000000
00000000
,
01000000
00000000
00100000
00000000
,
00010000
00000000
00001000
00000000
,
00000100
00000100
00000100
00000000
,
00001001
00000000
00000000
00000000
,
00000001
00000100
00001000
00000000
,
00010000
01000000
10000000
00000000
,
01000000
01000000
01000000
00000000
,
10010000
00000000
00000000
00000000
,
10000000
01000000
00010000
00000000
,
00001000
00000100
00000001
00000000
,
00002002
00000000
00000000
00003003
;

//---------------dance-double - ----------------
#NOTES:
     dance-double:
     :
     Medium:
     7:
     :
00000000
00000000
00000000
00000000
,
00000000
00000000
00000000
00000000
,
00000000
00000000
00000000
00000000
,
00000000
00000000
00000000
00000000
,
00000000
00000000
00000000
00000000
,
10000000
01000000
10000000
00100000
,
00010000
00001000
00010000
00000000
00001000
00010000
00001000
00000000
,
00010000
00011000
00001000
00011000
,
00000010
00001000
00000100
00001000
,
00000001
00000010
00000001
00000100
,
00001000
00010000
00001000
00000000
00010000
00001000
00010000
00000000
,
00001000
00011000
00010000
00011000
,
00100000
00010000
01000000
00010000
,
10000000
01000000
10000000
01000000
00010000
00000000
00001000
00020000
,
00000000
00000000
00000000
00000000
00000000
00030000
00000000
00000000
,
00001000
00000100
00000001
00001001
,
00000100
00001000
00010000
00011000
,
00001000
00000100
00001000
00000100
00000001
00000000
00000010
00000200
,
00000000
00000000
00000000
00000000
00000000
00000300
00000000
00000000
,
00001000
00000100
00010000
00011000
,
00010000
00100000
10000000
10010000
,
02000000
00000000
00100000
00000000
03100000
00000000
01000000
10000000
,
00100000
01000000
00000000
00000000
00000000
00100000
00010000
00002000
,
00000000
00000000
00000000
00003000
00000000
00010000
00001000
00000020
,
00000000
00000000
00000000
00000030
00000000
00000000
00000000
00000000
,
00000200
00000000
00000010
00000000
00000310
00000000
00000001
00000010
,
00000100
00001000
00000000
00000000
00000000
00000100
00010000
00002000
,
00000000
00000000
00000000
00003000
00000000
00010000
00001000
02000000
,
00000000
00000000
00000000
03000000
00000000
00000000
00000000
00000000
,
00100000
10000000
01000000
00000000
00100000
00010000
01000000
00000000
,
00100000
00010000
00001000
00000000
00010000
00001000
00000100
00000000
,
00000010
00001000
00000100
00000000
00000010
00000001
00000100
00000000
,
00000010
00001000
00010000
00000000
00001000
00010000
01000000
00000000
,
00010000
00000000
00000000
00000000
00001000
00000000
00000000
00000000
00010100
00000000
00000000
01001000
00000000
00000000
00010000
00000000
,
00002000
00000000
00000000
00000000
00003000
00000000
00000000
00000000
00010010
00000000
00000000
00101000
00000000
00000000
00000000
00000000
,
00010000
00000100
00001000
00000000
00000001
00000100
00000010
00000000
,
00002002
00000000
00000000
00003003
,
00000100
00001000
00010000
01000000
,
00010000
00001000
00000010
00000000
00001000
00010000
00100000
00000000
,
10000000
11000000
00010000
01010000
,
00010000
10000000
00010000
10000000
,
01000000
00010000
00001000
00000100
,
00001000
00010000
00100000
00000000
00010000
00001000
00000010
00000000
,
00000001
00000101
00001000
00001100
,
00001000
00000001
00001000
00000001
,
00000200
00000000
00000010
00000000
00000310
00000000
00000001
00000100
,
00001000
00010000
00000000
00000000
00000000
00001000
00010000
00200000
,
00000000
00000000
00000000
00300000
00000000
00010000
00001000
00000020
,
00000000
00000000
00000000
00000030
00000000
00000000
00000000
00000000
,
00002000
00000000
00010000
00000000
00013000
00000000
01000000
10000000
,
00100000
01000000
00000000
00000000
00000000
00100000
10000000
02000000
,
00000000
00000000
00000000
03000000
00000000
00100000
00010000
02000000
,
00000000
00000000
03000000
00000000
,
00200000
00000000
10000000
00000000
10300000
00000000
01000000
00010000
,
00001000
00000100
00000000
00000000
00000000
00000001
00000010
00000200
,
00000000
00000000
00000000
00000300
00000000
00001000
00000010
00000200
,
00000000
00000000
00000000
00000300
00000000
00000000
00000000
00000000
,
00000020
00000000
00001000
00000000
00001030
00000000
00000100
00010000
,
00001000
01000000
00000000
00000000
00000000
00001000
00010000
00000020
,
00000000
00000000
00000000
00000030
00000000
00010000
00001000
00100000
,
00000000
00000000
01000000
01000000
10000000
10000000
00010000
00010000
,
20020000
00000000
00000000
30030000
;

//---------------dance-double - ----------------
#NOTES:
     dance-double:
     :
     Hard:
     8:
     :
00000000
00000000
00000000
00000000
,
00000000
00000000
00000000
00000000
,
00000000
00000000
00000000
00000000
,
00000000
00000000
00000000
00000000
,
00000000
00000000
00000000
00000000
,
00010000
00001000
00100000
00001000
00010000
01000000
00100000
00010000
,
10000000
00100000
01000000
00010000
10000000
01000000
10000000
00010000
,
01000000
00100000
10000000
00000000
01000000
00010000
00001000
00000000
,
00010000
00000010
00001000
00000001
00000010
00001000
00010000
00000000
,
01000000
00100000
00001000
00010000
00000010
00010000
00000100
00000001
,
00000100
00001000
00000010
00000100
00001000
00000100
00000001
00001000
,
00000001
00000010
00000100
00000000
00010000
00001000
00000100
00000000
,
00000010
00010000
00001000
00010000
00100000
10000000
00010000
00000000
,
10000000
01000000
00100000
00001000
01000000
00100000
00010000
00002000
,
00000000
00000000
00000000
00000000
00000000
00013000
00001000
00000010
,
00000000
00000100
00010000
00001000
00000000
00010000
01000000
00100000
,
00000000
00010000
10000000
00020000
00000000
20030000
00000000
30000000
,
00100000
01000000
00001000
00010000
00001000
00000010
00000001
00002000
,
00000000
00000000
00000000
00000000
00000000
00003001
00001000
00000100
,
00000000
00010000
01000000
00100000
00000000
00001000
00010000
00001000
,
00000000
00010000
01000000
20000000
00000000
31000000
00100000
00001000
,
00010000
00001000
00000010
00000100
00001000
00000001
00000100
00001000
,
00010000
00022000
00000000
00033000
00000000
00010000
01000000
22000000
,
00000000
00000000
00000000
33000000
00000000
00100000
01000000
02020000
,
00000000
00000000
03030000
00000000
01000000
00010000
01000000
00001000
,
00010000
00000010
00010000
00000100
00000001
00000100
00001000
00000010
,
00010000
00022000
00000000
00033000
00000000
00001000
00000100
00000202
,
00000000
00000000
00000000
00000303
00000000
00000010
00000100
00002200
,
00000000
00000000
00000000
00003300
00000000
00000000
00000000
00000000
,
00000010
00001000
00000010
00000001
00000100
00001000
00000100
00001000
,
00010000
00000100
00001000
00000100
00000010
00000100
00001000
00000010
,
00000001
00000010
00000100
00000001
00000100
00001000
00010000
00100000
,
01000000
00010000
00100000
01000000
10000000
00010000
10010000
00000000
,
02000000
00000000
00000000
00000000
03000000
00000000
00000000
00000000
10000000
00000000
00000000
00010000
00000000
00000000
01000000
00100000
,
02000000
00000000
00000000
00000000
03000000
00000000
00000000
00000000
00010000
00000000
00000000
10000000
00000000
00000000
00000000
00000000
,
10000000
01000000
00010000
00001000
00000100
00000001
00001000
00000000
,
00002002
00000000
00000000
00003003
,
00000100
00001000
00010000
01000000
00010000
00001000
00000010
00001000
,
00010000
00100000
01000000
00010000
00100000
00001000
00010000
00000010
,
00001000
00000001
00000100
00000000
00000001
00001000
00000100
00000000
,
00010000
00001000
00000100
00000001
00000010
00001000
00010000
00000000
,
00001000
00000100
00000001
00001000
00000010
00000001
00001000
00000100
,
00000010
00001000
00000100
00010000
01000000
10000000
00010000
00100000
,
10000000
00100000
00010000
00000000
01000000
00010000
10000000
00000000
,
00010000
00100000
01000000
10000000
01000000
00100000
00010000
10000000
,
00100000
01000000
00001000
00010000
00001000
01000000
00100000
10000000
,
00010000
20020000
00000000
30030000
00000000
00010000
01000000
02002000
,
00000000
00000000
00000000
03003000
00000000
00001000
00010000
00020200
,
00000000
00000000
00000000
00000000
00030300
00000100
00001000
00000010
,
00000100
00000001
00001000
00000100
00010000
00001000
00100000
00001000
,
00010000
00022000
00000000
00033000
00000000
00001000
00000100
00000220
,
00000000
00000000
00000000
00000330
00000000
00001000
00010000
00022000
,
00000000
00000000
00000000
00033000
00000000
00000000
00010000
01000000
,
00010000
00001000
00010000
00000100
00000010
00000001
00000010
00000100
,
00010000
00001000
01000000
00100000
10000000
01000000
00100000
00001000
,
00010000
01000000
10000000
00100000
01000000
00001000
00010000
00100000
,
01000000
00010000
00100000
10000000
00100000
00001000
00010000
00000010
,
00000100
00000010
00001000
00000100
00000001
00000100
00001000
00000010
,
00000100
00000001
00001000
00000100
00000010
00000001
00000100
00001000
,
00010000
01000000
10000000
01000000
00100000
10000000
00100000
00010000
,
01000000
00001000
00010000
00000100
00010000
01000000
10000000
00100000
,
20020000
00000000
00000000
30030000
;
