#TITLE:Circles;
#ARTIST:Busface feat. Madamoiselle EB;
#BANNER:Circles.png;
#BACKGROUND:Circles-bg.png;
#CDTITLE:./CDTITLES/DANCING STAGE UNLEASHED 2.png;
#MUSIC:Circles.ogg;
#SAMPLESTART:3.68;
#SAMPLELENGTH:15;
#DISPLAYBPM:130;
#BPMS:0=129.99;
#BGCHANGES:3=Circles.avi=1=0=0=0,228=Circles-bg.png=1=0=0=1;

//---------------dance-single - ----------------
#NOTES:
     dance-single:
     :
     Beginner:
     1:
     :
0000
0000
0000
0000
,
0000
0000
0000
0000
,
0000
0000
0000
0000
,
0000
0000
0000
0000
,
0000
0000
0000
0000
,
1000
0000
0000
0000
,
0001
0000
1000
0000
,
1000
0000
0001
0000
,
0100
0000
0010
0000
,
0100
0000
0010
0000
,
1000
0000
0100
0000
,
1000
0000
0100
0000
,
0010
0000
0001
0000
,
1000
0000
1001
0000
,
1000
0000
1000
0000
,
1000
0000
1000
0000
,
0001
0000
0001
0000
,
0001
0000
0001
0000
,
0010
0000
0100
0000
,
0001
0000
1000
0000
,
0001
0000
1000
0000
,
0100
0000
1000
0000
,
0001
0000
1000
0000
,
0001
0000
1001
0000
,
0000
0000
0000
0000
,
0000
0000
0000
0000
,
1000
0000
0010
0000
,
1000
0000
1000
0000
,
0100
0000
0001
0000
,
0100
0000
0100
0000
,
0010
0000
0100
0000
,
0010
0000
0010
0000
,
1000
0000
0100
0000
,
1000
0000
0100
0000
,
1000
0000
0100
0000
,
0100
0000
0010
0000
,
0010
0000
0001
0000
,
0001
0000
1000
0000
,
0001
0000
1001
0000
,
1000
0000
1001
0000
,
0010
0000
0110
0000
,
0100
0000
0110
0000
,
0010
0000
0000
0010
,
0000
0010
0000
1000
,
0000
1000
0000
0001
,
0000
0001
0000
0000
,
1000
0000
0001
0000
,
1000
0000
1000
0000
,
0010
0000
0001
0000
,
0010
0000
0010
0000
,
1000
0000
0100
0000
,
1000
0000
1000
0000
,
1000
0000
0010
0000
,
0001
0000
0100
0000
,
1001
0000
0000
0000
;

//---------------dance-single - ----------------
#NOTES:
     dance-single:
     :
     Easy:
     4:
     :
0000
0000
0000
0000
,
0000
0000
0000
0000
,
0000
0000
0000
0000
,
0000
0000
0000
0000
,
0000
0000
0000
0000
,
2000
0000
0000
3000
,
0001
0000
1000
0000
,
1000
1000
0001
0001
,
0100
0000
0010
0000
,
0100
0100
0010
0010
,
1000
0000
0100
0000
,
1000
1000
0100
0100
,
0010
0000
0001
0000
,
1000
0001
2002
3003
,
1000
0001
1000
0001
,
1000
1000
1000
1000
,
0001
1000
0001
1000
,
0001
0001
0001
0001
,
0010
0000
0100
0000
,
0001
0000
1000
0000
,
0001
0000
1000
0000
,
0100
0000
1000
0000
,
0001
0001
1000
1000
,
0001
1000
2002
0000
,
0000
0000
0000
0000
,
0000
0000
0000
3003
,
1000
1000
0010
0010
,
1000
0010
1000
0010
,
0100
0100
0001
0001
,
0100
0001
0100
0001
,
0010
0010
0100
0100
,
0010
0100
0010
0100
,
1000
0010
0100
0001
,
1000
0010
0100
0001
,
2000
0100
0100
3100
,
0200
0010
0010
0310
,
0020
0001
0001
0031
,
0002
1000
1000
1003
,
0001
0000
1001
0000
,
1000
0000
1001
0000
,
0010
0000
0110
0000
,
0100
0000
0110
0000
,
0010
0100
0000
0010
,
0100
0010
0000
1000
,
0001
1000
0000
0001
,
1000
0001
1001
0000
,
1000
1000
0001
0001
,
1000
0001
1000
0001
,
0010
0010
0001
0001
,
0010
0001
0010
0001
,
1000
1000
0100
0100
,
1000
0100
1000
0100
,
1000
1000
0010
0010
,
0001
0001
0100
0100
,
2002
0000
0000
3003
;

//---------------dance-single - ----------------
#NOTES:
     dance-single:
     :
     Medium:
     5:
     :
0000
0000
0000
0000
,
0000
0000
0000
0000
,
0000
0000
0000
0000
,
0000
0000
0000
0000
,
0000
0000
0000
0000
,
0220
0000
0000
0330
,
1000
0100
1000
0010
,
1000
0001
1000
0010
,
0001
0100
1000
0010
,
0001
0100
1000
0000
0010
0000
0001
0000
,
0100
0001
0010
0001
,
0100
0001
1000
0001
,
0010
1000
0010
0001
,
1000
0001
0220
0330
,
0001
1000
0100
0000
1000
0000
0001
0000
,
1000
0001
0100
0000
0100
0001
0010
0000
,
0010
0001
0100
0000
0001
0000
1000
0000
,
0010
0100
0001
1000
,
0001
1000
0001
0000
0010
0000
0100
0000
,
1000
0100
0010
0000
0010
0001
0010
0000
,
0001
0010
0100
0000
1000
0000
0001
0000
,
1000
0100
1000
0001
,
0010
0100
0001
0100
,
1000
0010
2002
0000
,
0000
0000
0000
0000
,
0000
0000
0000
3003
,
0001
1000
0100
0000
1000
0001
0010
0000
,
0002
0010
1000
0103
,
1000
0010
0001
0000
0001
0100
1000
0000
,
0200
1000
1000
1300
,
1000
0100
0001
0000
0001
0100
1000
0000
,
0200
0001
0001
0301
,
0010
0001
0100
0000
0010
1000
0100
0000
,
1000
0010
0001
0100
,
1000
0010
0001
0100
,
0001
0010
1000
0100
,
0001
0010
1000
0100
,
0010
0001
1000
0100
,
2200
3300
0202
0303
,
2200
3300
0202
0303
,
0220
0330
2002
3003
,
0022
0033
2200
3300
,
1000
1001
0000
0001
,
1000
1001
0000
0010
,
0100
0110
0000
0100
,
0010
0110
1001
0000
,
1000
0100
1000
0000
0001
0000
0010
0000
,
0010
0001
0100
0000
0001
1000
0100
0000
,
1000
0100
0001
0000
0100
0000
1000
0000
,
0001
0100
0001
0000
1000
0000
0010
0000
,
0010
1000
0100
0000
1000
0001
0100
0000
,
0001
0100
1000
0000
0100
0000
0001
0000
,
0010
1000
0100
0001
,
0010
1000
0100
0001
,
2002
0000
0000
3003
;

//---------------dance-single - ----------------
#NOTES:
     dance-single:
     :
     Hard:
     7:
     :
0000
0000
0000
0000
,
0000
0000
0000
0000
,
0000
0000
0000
0000
,
0000
0000
0000
0000
,
0000
0000
0000
0000
,
2000
0000
0000
0000
0000
0000
0000
3002
0000
0000
0000
0000
1003
0000
0000
0000
,
0010
1000
0100
1000
0020
0000
0000
0000
,
1030
0001
0100
0010
2000
0000
0000
0000
,
3100
0010
0001
0010
0200
0000
0000
0000
,
1300
0100
0010
0100
2000
0000
3002
0000
,
1003
0100
0010
0000
0002
0000
2003
0000
,
3001
0100
0010
0000
2000
0000
3002
0000
,
0013
0100
1000
0000
0020
0000
0230
0000
,
0302
2003
3020
0030
,
1000
0001
0100
0010
1000
0001
0100
0010
,
0100
0001
1000
0010
0100
0001
0010
0100
,
1000
0001
1000
0100
1000
0010
1000
0100
,
1000
0001
0100
0001
0020
0000
0000
0031
,
0100
0001
0010
0001
0100
0001
1000
0100
,
0010
0001
1000
0010
0100
0001
0010
0001
,
1000
0010
1000
0100
0001
0100
1000
0010
,
0100
0001
0010
0100
1000
0100
0010
0100
,
0010
0001
1000
0100
1000
0010
1000
0001
,
1000
0010
1000
0000
2002
0000
0000
0000
,
0000
0000
0000
0000
,
0000
0000
0000
3003
,
0001
0000
1000
0000
0010
0100
0001
1000
,
0002
2003
3020
0230
,
0310
0000
0100
0000
0001
0100
1000
0100
,
0002
0203
2300
3200
,
0310
0000
1000
0000
0001
0010
0100
1000
,
0002
0023
0230
2300
,
3100
0000
0010
0000
0100
1000
0100
0001
,
0200
2300
3200
0302
,
0203
1000
0010
1300
,
2000
0001
0100
3001
,
0002
0010
0100
0013
,
0020
0100
0001
0130
,
1001
0100
1001
0010
,
1100
1000
0101
0001
,
1010
1000
0011
0001
,
0100
0110
0010
0110
,
0001
0100
1000
0000
0000
0000
1001
0000
,
1000
0100
0001
0000
0000
0000
1001
0000
,
0001
0010
0100
0000
0000
0000
0110
0000
,
1001
1100
0101
0000
,
0001
1000
0010
0100
0001
0010
0001
1000
,
0100
1000
0001
1000
0100
0010
0100
1000
,
0100
0010
0001
1000
0010
0100
0001
1000
,
0010
1000
0100
1000
0001
0010
0001
0100
,
0010
0100
0001
1000
0100
0010
0001
0100
,
1000
0100
0001
0010
0001
1000
0100
1000
,
0001
1000
0010
0100
0001
1000
0010
1000
,
0001
0010
0001
0100
1000
0100
0001
0010
,
0002
0000
0000
0003
;

//---------------dance-double - ----------------
#NOTES:
     dance-double:
     :
     Beginner:
     1:
     :
00000000
00000000
00000000
00000000
,
00000000
00000000
00000000
00000000
,
00000000
00000000
00000000
00000000
,
00000000
00000000
00000000
00000000
,
00000000
00000000
00000000
00000000
,
00000010
00000000
00000000
00000000
,
00001000
00000000
00000001
00000000
,
00000001
00000000
00001000
00000000
,
01000000
00000000
10000000
00000000
,
01000000
00000000
00001000
00000000
,
00000001
00000000
00000010
00000000
,
00000001
00000000
00001000
00000000
,
01000000
00000000
10000000
00000000
,
00010000
00000000
00000000
00000000
,
10000000
00000000
10000000
00000000
,
10000000
00000000
00100000
00000000
,
10000000
00000000
10000000
00000000
,
00010000
00000000
00000100
00000000
,
00000100
00000000
00000100
00000000
,
00000100
00000000
00000010
00000000
,
00000100
00000000
00000100
00000000
,
00000100
00000000
00010000
00000000
,
10000000
00000000
10000000
00000000
,
10000000
00000000
10010000
00000000
,
00000000
00000000
00000000
00000000
,
00000000
00000000
00000000
00000000
,
10000000
00000000
10000000
00000000
,
00010000
00000000
00010000
00000000
,
00010000
00000000
00010000
00000000
,
00000100
00000000
00000100
00000000
,
00000100
00000000
00000100
00000000
,
00000010
00000000
00000010
00000000
,
00000010
00000000
00000010
00000000
,
00001000
00000000
00001000
00000000
,
00000100
00000000
00000000
00001000
,
00000000
00010000
00000000
01000000
,
00000000
10000000
00000000
00100000
,
00000000
00001000
00000000
00000010
,
00000000
00000001
00000000
00001001
,
00000000
00000100
00000000
00001001
,
00000000
00000100
00000000
00011000
,
00000000
00010000
00000000
10010000
,
00000000
10000000
00000000
10010000
,
00000000
00100000
00000000
10010000
,
00000000
00010000
00000000
00011000
,
00000000
00001000
00000000
00011000
,
00000000
00001000
00000000
00010000
,
00000000
00000100
00000000
00000010
,
00000000
00000001
00000000
00000010
,
00000000
00000100
00000000
00010000
,
00000000
00001000
00000000
00010000
,
00000000
10000000
00000000
10000000
,
00000000
01000000
00000000
00010000
,
00000000
00010000
00000000
00010000
;

//---------------dance-double - ----------------
#NOTES:
     dance-double:
     :
     Easy:
     5:
     :
00000000
00000000
00000000
00000000
,
00000000
00000000
00000000
00000000
,
00000000
00000000
00000000
00000000
,
00000000
00000000
00000000
00000000
,
00000000
00000000
00000000
00000000
,
00000020
00000000
00000000
00000030
,
00001000
00001000
00000001
00000001
,
00000001
00000100
00001000
00010000
,
01000000
01000000
10000000
10000000
,
01000000
00010000
00001000
00000100
,
00000001
00000001
00000010
00000010
,
00000001
00000100
00001000
00010000
,
01000000
01000000
20000000
00000000
,
30020000
00000000
00000000
00030000
,
10000000
00010000
10000000
00010000
,
10000000
01000000
00100000
00010000
,
10000000
01000000
10000000
01000000
,
00010000
00001000
00000100
00000001
,
00000100
00001000
00000100
00001000
,
00000100
00000001
00000010
00000001
,
00000100
00000010
00000100
00000010
,
00000100
00001000
00010000
01000000
,
10000000
00010000
10000000
00010000
,
10000000
01000000
20020000
00000000
,
00000000
00000000
00000000
00000000
,
00000000
00000000
00000000
30030000
,
10000000
01000000
10000000
01000000
,
00010000
01000000
00010000
01000000
,
00010000
00001000
00010000
00001000
,
00000100
00001000
00000100
00001000
,
00000100
00000001
00000100
00000001
,
00000010
00000001
00000010
00000001
,
00000010
00000100
00000010
00000100
,
00001000
00000100
00002000
00000000
,
00003100
00010000
00000000
00001000
,
00000000
00010000
00000000
01000000
,
00000000
10000000
00000000
00100000
,
00000000
00001000
00000000
00000010
,
00000000
00000001
00000000
00001001
,
00000000
00000100
00000000
00001001
,
00000000
00000100
00000000
00011000
,
00000000
00010000
00000000
10010000
,
00000000
10000000
00000000
10010000
,
00000000
00100000
00000000
10010000
,
00000000
00010000
00000000
00011000
,
00000000
00001000
00000000
00011000
,
00001000
00001000
00010000
00010000
,
00001000
00000100
00000001
00000010
,
00000001
00000001
00000010
00000010
,
00000001
00000100
00001000
00010000
,
00001000
00001000
00010000
00010000
,
01000000
10000000
00100000
10000000
,
01000000
01000000
00010000
00010000
,
00001000
00010000
00001000
00010000
,
00022000
00000000
00000000
00033000
;

//---------------dance-double - ----------------
#NOTES:
     dance-double:
     :
     Medium:
     6:
     :
00000000
00000000
00000000
00000000
,
00000000
00000000
00000000
00000000
,
00000000
00000000
00000000
00000000
,
00000000
00000000
00000000
00000000
,
00000000
00000000
00000000
00000000
,
20020000
00000000
00000000
30030000
,
10000000
01000000
00010000
01000000
,
10000000
00100000
00010000
00001000
,
00000010
00000001
00000010
00001000
,
00000010
00000001
00000100
00001000
,
00000100
00000010
00001000
00000100
,
00010000
00001000
00100000
00010000
,
01000000
00010000
02000000
00000000
,
03200000
00000000
00000000
00300000
,
00100000
10000000
00000000
01000000
00000000
00010000
00000000
01000000
,
00000000
00010000
00000000
01000000
00000000
10000000
00000000
01000000
,
00010000
00001000
00000000
00000100
00000000
00000001
00000000
00000010
,
00000000
00001000
00000000
00000010
00000000
00001000
00000000
00000010
,
00000001
00000100
00000000
00001000
00000000
00000100
00000000
00001000
,
00000000
00010000
00000000
00001000
00000000
00010000
00000000
00001000
,
00010000
01000000
00000000
10000000
00000000
00010000
00000000
10000000
,
00000000
00100000
00000000
10000000
00000000
01000000
00000000
00010000
,
00001000
00010000
00000000
00001000
00000000
00000100
00000000
00001000
,
00000000
00010000
00000000
00001000
00022000
00000000
00000000
00000000
,
00000000
00000000
00000000
00000000
,
00000000
00000000
00000000
00033000
,
00010000
00001000
00010000
00011000
,
00001000
00000100
00000001
00000101
,
00000010
00001000
00000001
00001001
,
00000010
00001000
00000010
00001010
,
00000100
00001000
00010000
00011000
,
00010000
01000000
10000000
11000000
,
00100000
00010000
00100000
00110000
,
00001000
00000000
00010000
00000000
00002000
00000000
00003000
00020000
,
00000000
01030000
00000000
00010000
00000000
00001000
00000000
00010000
,
00000000
00001000
00000000
00000100
00000000
00000001
00000000
00000010
,
00000001
00000100
00000000
00001000
00000000
00010000
00000000
00001000
,
00000000
00000100
00000000
00000001
00000000
00000010
00000000
00001000
,
00000010
00000110
00000000
00001001
,
00000000
00001100
00000000
00011000
,
00000000
01010000
00000000
10010000
,
00000000
01100000
00000000
00110000
,
00000000
00001010
00000000
00001100
,
00000000
01010000
00000000
10010000
,
00000000
01100000
00000000
00011000
,
00000000
00000110
00000000
00001001
,
00000001
00000100
00001000
00000100
,
00000010
00010000
00001000
00010000
,
00000100
00010000
00001000
01000000
,
00010000
10000000
00100000
10010000
,
00100000
00010000
01000000
10010000
,
10000000
01000000
00010000
00011000
,
00001000
00000100
00000001
00001001
,
00000010
00000001
00000100
00001000
,
00022000
00000000
00000000
00033000
;

//---------------dance-double - ----------------
#NOTES:
     dance-double:
     :
     Hard:
     7:
     :
00000000
00000000
00000000
00000000
,
00000000
00000000
00000000
00000000
,
00000000
00000000
00000000
00000000
,
00000000
00000000
00000000
00000000
,
00000000
00000000
00000000
00000000
,
00022000
00000000
00000000
00033000
,
00001000
00000010
00000001
00000100
00001000
00000100
00000001
00000010
,
00001000
00010000
00100000
10000000
01000000
00010000
01000000
10000000
,
00010000
01000000
00001000
00010000
00000100
00001000
00000001
00000100
,
00000010
00001000
00000100
00010000
00001000
01000000
00010000
00000000
,
01000000
10000000
00100000
00010000
00001000
00000010
00000001
00000100
,
00001000
00000100
00000001
00000010
00001000
00010000
00100000
10000000
,
01000000
10000000
00010000
01000000
00001000
00010000
00000100
00001000
,
00000001
00000100
00000010
00001000
00000100
00010000
00001000
00000000
,
00000100
00000000
00000001
00000000
00000010
00000000
00000001
00000010
,
00001000
00000000
00000010
00000000
00000001
00000000
00000100
00001000
,
00010000
00000000
01000000
00000000
10000000
00000000
10000000
00100000
,
00010000
00000000
00100000
00000000
10000000
00000000
01000000
10000000
,
00100000
00000000
00010000
00000000
00100000
00000000
10000000
00010000
,
01000000
00000000
00100000
00000000
00010000
00000000
00001000
00000010
,
00000001
00000000
00000100
00000000
00000001
00000000
00000010
00000100
,
00000001
00000000
00000100
00000000
00000010
00000000
00000100
00010000
,
00001000
00000000
00100000
00000000
00010000
00000000
10000000
01000000
,
00010000
00001000
00022000
00000000
,
00000000
00000000
00000000
00000000
,
00000000
00000000
00000000
00033000
,
00001000
00000000
00010000
00000000
01000000
00000000
10000000
00100000
,
10000000
00000000
01000000
00000000
00010000
00000000
00001000
00010000
,
00001000
00000000
00010000
00000000
00001000
00000000
00000100
00000001
,
00000100
00000000
00000001
00000000
00000010
00000000
00001000
00010000
,
00001000
00000000
00010000
00000000
00100000
00000000
10000000
01000000
,
10000000
00000000
00100000
00000000
00010000
00000000
00001000
00010000
,
00001000
00000000
00000010
00000000
00000001
00000000
00000100
00000010
,
00000100
00000000
00000001
00000000
00000100
00000000
00001000
00010000
,
00001000
00010000
00000000
01000000
00000000
10000000
00000000
01000000
,
00000000
11000000
00000000
00100000
00000000
00010000
00000000
10000000
,
00000000
10010000
00000000
01000000
00000000
00010000
00000000
00001000
,
00000000
00001100
00000000
00000001
00000000
00000010
00000000
00000100
,
00001001
00000000
00000110
00000000
00000000
00000000
00000010
00010000
,
00001000
00000000
00011000
00000000
00000000
00000000
00001000
01000000
,
00010000
00000000
01010000
00000000
00000000
00000000
10000000
00010000
,
01000000
00000000
01100000
00000000
00000000
00000000
00001000
00100000
,
00010000
00000000
00110000
00000000
00000000
00000000
00000010
00010000
,
00001000
00000000
00011000
00000000
00000000
00000000
00000100
00001000
,
00000010
00000000
00001010
00000000
00000000
00000000
00001000
00000001
,
00000100
00000101
00001100
00000000
,
00000010
00000001
00000100
00001000
00000100
00000001
00000100
00001000
,
00010000
01000000
00010000
00001000
00000100
00001000
00010000
01000000
,
10000000
00100000
00010000
00100000
10000000
00100000
00010000
00001000
,
00000010
00000001
00000010
00001000
00000010
00000001
00000100
00000000
,
00000010
00010000
00001000
01000000
00010000
10000000
01000000
00100000
,
00010000
10000000
01000000
00100000
00001000
00010000
00000100
00001000
,
00000010
00000100
00000001
00000010
00000100
00001000
00000001
00000010
,
00000100
00010000
00001000
01000000
00010000
00100000
00001000
00010000
,
00022000
00000000
00000000
00033000
;
