#TITLE:Alright;
#ARTIST:Supergrass;
#BANNER:Alright.png;
#BACKGROUND:Alright-bg.png;
#CDTITLE:./CDTITLES/DANCING STAGE UNLEASHED 2.png;
#MUSIC:Alright.ogg;
#SAMPLESTART:7.23;
#SAMPLELENGTH:15;
#DISPLAYBPM:147;
#BPMS:0=150.66,36=148.6,52=147.9,68=147.3,84=146.23,100=146.7,116=144.6,132=145.6,148=145.4,156=145.12,172=146,188=145.1,204=146.1,220=144,236=144.8,252=145;
#BGCHANGES:3=Alright.avi=1=0=0=0;

//---------------dance-single - ----------------
#NOTES:
     dance-single:
     :
     Beginner:
     1:
     :
0000
0000
0000
0000
,
0000
0000
0000
0000
,
0000
0000
0000
0000
,
0000
0000
0000
0000
,
0000
0000
0000
0000
,
1000
0000
0001
0000
,
0001
0000
1000
0000
,
0010
0000
0100
0000
,
0010
0000
0100
0000
,
1001
0000
0100
0000
,
1001
0000
0010
0000
,
0100
0000
0000
0001
,
0000
0001
0000
1000
,
0000
0100
0000
0000
,
1000
0000
0001
0000
,
0010
0000
0100
0000
,
0010
0000
0100
0000
,
1001
0000
0100
0000
,
1001
0000
0010
0000
,
0100
0000
0000
1000
,
0000
1000
0000
0001
,
0000
0000
0100
0000
,
0001
0000
0010
0000
,
1000
0000
0001
0000
,
0001
0000
1000
0000
,
0001
0000
0100
0000
,
1000
0000
0010
0000
,
0001
0000
1000
0000
,
1000
0000
0001
0000
,
0001
0000
1000
0000
,
0001
0000
0001
0000
,
0001
0000
1000
0000
,
0001
0000
0001
0000
,
0001
0000
0100
0000
,
1000
0000
0100
0000
,
0100
0000
0010
0000
,
0100
0000
0010
0000
,
0010
0000
0100
0000
,
0010
0000
0100
0000
,
1000
0000
0000
0000
,
0001
0000
0000
0000
,
0100
0000
0000
0000
,
0010
0000
0000
0000
,
0001
0000
0000
0000
,
0100
0000
0000
0000
,
1000
0000
0000
0000
,
0010
0000
0000
0000
,
0100
0000
0000
0000
,
0001
0000
0000
0000
,
1000
0000
0000
0000
,
0010
0000
0000
0000
,
0001
0000
0000
0000
,
1000
0000
0000
0000
,
0010
0000
0000
0000
,
0100
0000
0000
0000
,
1000
0000
0001
0000
,
1000
0000
1000
0000
,
1000
0000
0001
0000
,
1000
0000
1000
0000
,
1000
0000
1000
0000
,
0001
0000
0001
0000
,
0100
0000
0010
0000
,
1001
0000
0110
0000
,
1001
0000
0000
0000
;

//---------------dance-single - ----------------
#NOTES:
     dance-single:
     :
     Easy:
     4:
     :
0000
0000
0000
0000
,
0000
0000
0000
0000
,
0000
0000
0000
0000
,
0000
0000
0000
0000
,
0000
0000
0000
0000
,
1000
0100
0001
0000
,
0001
0100
1000
0000
,
0010
1000
0100
0000
,
0010
0001
0100
0000
,
1001
0100
0100
0000
,
1001
0010
0010
1000
,
0100
1001
0000
0001
,
0000
0001
0000
1000
,
0001
0100
1000
0000
,
1000
0100
0001
0000
,
0010
0001
0100
0000
,
0010
1000
0100
0000
,
1001
0100
0100
0000
,
1001
0010
0010
0001
,
0100
1001
0000
1000
,
0000
1000
0000
0001
,
1000
0000
0100
0000
,
0001
0000
0010
0000
,
1000
0000
0001
0000
,
0001
0000
1000
0000
,
0001
0000
0100
0000
,
1000
0000
0010
0000
,
0001
0000
1000
0000
,
1000
0000
0001
0100
,
0001
0001
1000
1000
,
0001
0100
0001
1000
,
0001
0001
1000
1000
,
0001
0010
0001
1000
,
0001
1000
0100
0000
,
1000
0001
0100
0100
,
0100
1001
0010
1001
,
0100
1001
0010
1001
,
0010
0001
0100
0100
,
0010
1000
0100
0100
,
2000
0001
0000
3000
,
0002
0010
0000
0003
,
0200
0010
0000
0300
,
0020
1000
0000
0030
,
0002
1000
0000
0003
,
0200
0001
0000
0300
,
2000
0010
0000
3000
,
0020
0100
0000
0030
,
0200
0001
0000
0300
,
0002
1000
0000
0003
,
2000
0010
0000
3000
,
0020
0100
0000
0030
,
0002
0100
0000
0003
,
2000
0001
0000
3000
,
0020
0100
0000
0030
,
0200
0010
0000
0300
,
1000
1000
0001
0001
,
1000
0010
1000
0001
,
1000
1000
0001
0001
,
1000
0100
1000
0001
,
1000
0100
1000
0000
,
0001
0100
0001
0000
,
0100
0000
0010
0000
,
1001
0000
0110
0000
,
1001
0000
0000
0000
;

//---------------dance-single - ----------------
#NOTES:
     dance-single:
     :
     Medium:
     5:
     :
0000
0000
0000
0000
,
0000
0000
0000
0000
,
0000
0000
0000
0000
,
0000
0000
0000
0000
,
0000
0000
0000
0000
,
0000
0000
1000
0001
0000
0001
1000
0000
,
0000
0000
0001
1000
0000
1000
0001
0000
,
0000
0000
1000
0100
0000
0100
1000
0000
,
0000
0000
0100
0010
0000
0010
0100
0000
,
1000
0000
0100
0000
0010
0001
0100
0000
,
0010
0000
1000
0000
0100
0010
0001
0000
,
0100
1001
0000
1010
,
0000
0000
0101
0000
0001
1000
0001
0000
,
0010
0000
0100
0000
0010
0001
0100
0000
,
0010
0000
0100
0000
0010
1000
0100
0000
,
0001
0000
1100
0000
0100
1000
0010
0000
,
1000
0000
0101
0000
0100
0001
0010
0000
,
0110
0000
0100
0000
1000
0001
0100
0000
,
0110
0000
0100
0000
0001
1000
0100
0000
,
0000
0001
0000
0001
,
0000
1000
0000
1000
,
0020
2030
3200
0302
,
0203
0000
0000
1300
,
0002
0000
0023
0000
,
0000
0030
0000
0000
,
0010
0000
0100
1000
0000
1000
0100
0000
,
0010
0000
0010
0001
0000
0001
0010
0000
,
0001
0000
0001
1000
0000
1000
0001
0000
,
1000
0000
1000
0001
0000
0001
1000
0000
,
0010
0000
0100
0000
0010
1000
0100
0000
,
0010
0000
0100
0000
0010
0001
0100
0000
,
1000
0000
0101
0000
0100
0001
0010
0000
,
0001
0000
1100
0000
0100
1000
0010
0000
,
0110
0000
0100
0000
0001
1000
0100
0000
,
0110
0000
0100
0000
1000
0001
0100
0000
,
1010
0000
0010
1000
0000
1000
0100
0000
,
0101
0000
0100
0001
0000
0001
0010
0000
,
1000
0000
0100
1000
0000
1000
0010
0000
,
0101
0000
0100
0001
0000
0001
0010
0000
,
0100
0000
1000
0100
0000
0010
0001
0100
,
0000
0000
0100
1000
0000
1000
0100
0001
,
0000
0000
0001
1000
0000
1000
0001
0100
,
0000
0000
0100
0010
0000
0010
1000
0010
,
0000
0000
1000
0001
0000
0001
0100
0010
,
0000
0000
0010
0100
0000
0100
0001
0010
,
0000
0000
0001
0100
0000
0100
0010
1000
,
0000
0000
1000
0001
0000
0001
0100
1000
,
0100
0000
0001
0100
0000
0100
0001
0000
,
0010
0000
0010
1000
0000
1000
0010
0000
,
1000
0000
1000
0100
0000
0100
1000
0000
,
0100
0000
0100
0001
0000
0001
0100
0000
,
0001
0000
0001
1000
0000
1000
0010
0000
,
1000
0000
1000
0010
0000
0010
1000
0000
,
0010
0000
0010
0100
0000
0100
0010
0000
,
1000
0000
1000
0100
0000
0100
1000
0000
,
1000
0000
0100
0000
1000
0100
1000
0000
,
0001
0000
0100
0000
0001
0100
0001
0000
,
1001
0000
0110
0000
0010
0100
0010
0000
,
1000
0001
1000
0000
0010
0100
0010
0000
,
1010
0000
0101
0000
0100
0001
0010
0000
,
0011
0000
1100
0000
0100
1000
0010
0000
,
0100
0001
1000
0001
0010
0100
1000
0000
,
0010
1000
0001
0100
1000
0100
0001
0000
,
1001
0000
0000
0000
;

//---------------dance-single - ----------------
#NOTES:
     dance-single:
     :
     Hard:
     7:
     :
0000
0000
0000
0000
,
0000
0000
0000
0000
,
0000
0000
0000
0000
,
0000
0000
0000
0000
,
0000
0000
0000
0000
,
1100
0000
1000
0100
0000
0100
1000
0000
,
0101
0000
0001
0100
0000
0100
0001
0000
,
1001
0000
1000
0001
0000
0001
1000
0000
,
0110
0000
0000
0000
0100
0000
0001
0000
0000
0000
0001
0000
0010
0001
0010
0001
,
0000
1000
0100
0001
,
0100
1000
0010
1000
,
0100
1001
0000
0101
,
0000
1100
0000
0000
,
1001
0000
0010
1000
0100
1000
0001
0000
,
1001
0000
0010
0001
0100
0001
1000
0000
,
0110
0000
1000
0010
0100
0010
0001
0000
,
0110
0000
0001
0100
0010
0100
1000
0000
,
1001
0000
1000
0100
0001
0100
1000
0000
,
0110
0000
0000
0000
0010
0000
0001
0000
1000
0000
0001
0000
0100
0001
0100
0001
,
0000
0000
0010
1000
0000
1000
0100
0000
,
0000
0000
0100
0001
0000
0001
0010
0000
,
2001
0010
0100
3001
,
0201
1000
0001
0310
,
0210
1000
0001
1300
,
2010
0100
0010
3001
,
1100
0000
0100
1000
0000
1000
0100
0000
,
0011
0000
0010
0001
0000
0001
0010
0000
,
1001
0000
1000
0001
0000
0001
1000
0000
,
1001
0000
0001
1000
0000
1000
0001
0000
,
0010
1000
0001
0100
0010
1000
0001
0000
,
0010
0001
1000
0100
0010
0001
1000
0000
,
0001
0010
0001
1000
0001
0100
0001
0000
,
1000
0100
1000
0001
1000
0010
1000
0000
,
0010
0001
0100
0010
1000
0100
0010
0000
,
0100
1000
0010
0000
0100
0001
0010
0000
,
0100
1001
0000
1010
,
1000
0100
0001
0011
,
0010
1000
0100
0101
,
0001
0010
1000
0000
,
2010
0000
3010
1000
0000
1000
0100
0010
,
0002
0000
0000
0003
0010
0000
0100
0000
0000
0000
0100
0000
1000
0000
0001
0000
,
0200
0000
0301
0010
0000
0010
0100
1000
,
0002
0000
0103
1000
0000
1000
0100
0001
,
0020
0000
1030
0010
0000
0010
0100
1000
,
0020
0000
0031
1000
0000
1000
0100
0001
,
2000
0000
3010
0001
0000
0010
0100
0010
,
0200
0000
0301
0010
0000
0010
0100
1000
,
0002
0000
0103
0001
0000
0001
0010
0100
,
2000
0000
3100
0010
0000
0010
0001
1000
,
0200
0000
0310
0100
0000
0100
1000
0001
,
0020
0000
0130
1000
0000
1000
0010
1000
,
0002
0000
0103
1000
0000
1000
0100
0001
,
0020
0000
1030
0010
0000
0001
0100
0001
,
0020
0000
1030
0001
0000
0001
0100
1000
,
0200
0000
0310
0001
0000
0001
0100
0000
,
1000
0100
0001
0000
0001
0100
1000
0000
,
1000
0100
0001
0010
0001
0100
1000
0000
,
1000
0100
0001
0000
0010
0001
0100
0000
,
0010
1000
0100
0001
0100
1000
0100
0000
,
0010
0100
0010
0000
0001
1000
0001
0000
,
0001
0010
1000
0001
0100
1000
0001
0000
,
0001
1000
0100
0000
1000
0001
0100
0000
,
0010
0100
0001
1000
0010
0100
0001
0000
,
1001
0000
0000
0000
;

//---------------dance-double - ----------------
#NOTES:
     dance-double:
     :
     Beginner:
     1:
     :
00000000
00000000
00000000
00000000
,
00000000
00000000
00000000
00000000
,
00000000
00000000
00000000
00000000
,
00000000
00000000
00000000
00000000
,
00000000
00000000
00000000
00000000
,
10000000
00000000
00010000
00000000
,
00001000
00000000
00000001
00000000
,
00000010
00000000
00000100
00000000
,
00000001
00000000
00001000
00000000
,
00011000
00000000
00010000
00000000
,
00011000
00000000
00001000
00000000
,
00001000
00000000
00000000
00010000
,
00000000
00100000
00000000
10000000
,
00000000
00010000
00000000
00000000
,
00010000
00000000
00010000
00000000
,
00100000
00000000
01000000
00000000
,
10000000
00000000
00010000
00000000
,
00011000
00000000
00010000
00000000
,
00011000
00000000
00001000
00000000
,
00001000
00000000
00000000
00001000
,
00000000
00000010
00000000
00000001
,
00000000
00000000
00000100
00000000
,
00001000
00000000
00010000
00000000
,
00001000
00000000
00000010
00000000
,
00001000
00000000
00010000
00000000
,
00100000
00000000
10000000
00000000
,
01000000
00000000
00010000
00000000
,
00001000
00000000
00010000
00000000
,
00001000
00000000
00010000
00000000
,
01000000
00000000
00010000
00000000
,
00001000
00000000
00000001
00000000
,
00000001
00000000
00001000
00000000
,
00000100
00000000
00010000
00000000
,
10000000
00000000
10000000
00000000
,
01000000
00000000
00010000
00000000
,
00010000
00000000
00001000
00000000
,
00010000
00000000
00001000
00000000
,
00100000
00000000
01000000
00000000
,
00100000
00000000
01000000
00000000
,
10000000
00000000
00000000
00000000
,
00010000
00000000
00000000
00000000
,
00001000
00000000
00000000
00000000
,
00000010
00000000
00000000
00000000
,
00000001
00000000
00000000
00000000
,
00000100
00000000
00000000
00000000
,
00010000
00000000
00000000
00000000
,
00100000
00000000
00000000
00000000
,
01000000
00000000
00000000
00000000
,
00010000
00000000
00000000
00000000
,
10000000
00000000
00000000
00000000
,
00010000
00000000
00000000
00000000
,
00001000
00000000
00000000
00000000
,
00010000
00000000
00000000
00000000
,
00000010
00000000
00000000
00000000
,
00000001
00000000
00000000
00000000
,
00001000
00000000
00000001
00000000
,
00000100
00000000
00010000
00000000
,
00010000
00000000
10000000
00000000
,
01000000
00000000
00001000
00000000
,
00001000
00000000
00011000
00000000
,
00001000
00000000
00011000
00000000
,
00010000
00000000
10000000
00000000
,
00010000
00000000
00000010
00000000
,
00001001
00000000
00000000
00000000
;

//---------------dance-double - ----------------
#NOTES:
     dance-double:
     :
     Easy:
     4:
     :
00000000
00000000
00000000
00000000
,
00000000
00000000
00000000
00000000
,
00000000
00000000
00000000
00000000
,
00000000
00000000
00000000
00000000
,
00000000
00000000
00000000
00000000
,
10000000
01000000
00010000
00000000
,
00001000
00000100
00000001
00000000
,
00000010
00000001
00000100
00000000
,
00000001
00000100
00001000
00000000
,
00011000
00001000
00010000
00000000
,
00011000
00010000
00001000
00010000
,
00001000
00011000
00000000
00010000
,
00000000
00100000
00000000
10000000
,
01000000
00010000
00001000
00000000
,
00010000
00100000
00010000
00000000
,
00100000
10000000
01000000
00000000
,
10000000
01000000
00010000
00000000
,
00011000
00001000
00010000
00000000
,
00011000
00010000
00001000
00010000
,
00001000
00011000
00000000
00001000
,
00000000
00000010
00000000
00000001
,
00000001
00000000
00000100
00000000
,
00001000
00000000
00010000
00000000
,
00001000
00000000
00000010
00000000
,
00001000
00000000
00010000
00000000
,
00100000
00000000
10000000
00000000
,
01000000
00000000
00010000
00000000
,
00001000
00000000
00010000
00000000
,
00001000
00000000
00010000
00010000
,
01000000
01000000
00010000
00010000
,
00001000
00000100
00000001
00001000
,
00000001
00000001
00001000
00001000
,
00000100
00001000
00010000
00100000
,
10000000
00010000
10000000
00100000
,
01000000
00100000
00010000
00010000
,
00010000
00011000
00001000
00011000
,
00010000
00011000
00001000
00011000
,
00100000
00010000
01000000
01000000
,
00100000
10000000
01000000
01000000
,
20000000
00010000
00000000
30000000
,
00020000
00100000
00000000
00030000
,
00002000
00010000
00000000
00003000
,
00000020
00001000
00000000
00000030
,
00000002
00000100
00000000
00000003
,
00000200
00000010
00000000
00000300
,
00020000
00001000
00000000
00030000
,
00200000
00010000
00000000
00300000
,
02000000
00010000
00000000
03000000
,
00020000
10000000
00000000
00030000
,
20000000
00100000
00000000
30000000
,
00020000
01000000
00000000
00030000
,
00002000
00010000
00000000
00003000
,
00020000
00001000
00000000
00030000
,
00000020
00000100
00000000
00000030
,
00000002
00001000
00000000
00000003
,
00001000
00001000
00000001
00000001
,
00000100
00001000
00010000
00100000
,
00010000
00010000
10000000
10000000
,
01000000
00010000
00001000
00000010
,
00001000
00010000
00011000
00000000
,
00001000
00010000
00011000
00000000
,
00010000
00100000
10000000
01000000
,
00010000
00001000
00000010
00000001
,
00001001
00000000
00000000
00000000
;

//---------------dance-double - ----------------
#NOTES:
     dance-double:
     :
     Medium:
     6:
     :
00000000
00000000
00000000
00000000
,
00000000
00000000
00000000
00000000
,
00000000
00000000
00000000
00000000
,
00000000
00000000
00000000
00000000
,
00000000
00000000
00000000
00000000
,
00000000
00000000
00001000
00010000
00000000
00010000
00001000
00000000
,
00000000
00000000
00100000
00010000
00000000
00010000
00100000
00000000
,
00000000
00000000
10000000
01000000
00000000
01000000
10000000
00000000
,
00000000
00000000
00010000
00100000
00000000
00100000
00010000
00000000
,
00001000
00000000
00010000
00000000
00000010
00001000
00000100
00000000
,
00000010
00000000
00000001
00000000
00000100
00001000
00010000
00000000
,
01000000
10010000
00000000
10100000
,
00000000
00000000
01010000
00000000
00010000
10000000
00010000
00000000
,
00100000
00000000
01000000
00000000
00100000
10000000
01000000
00000000
,
00100000
00000000
01000000
00000000
00100000
00001000
01000000
00000000
,
00010000
00000000
00100000
00000000
00001000
00010000
00000100
00000000
,
00001000
00000000
00000101
00000000
00000100
00000001
00000010
00000000
,
00000110
00000000
00000010
00000000
00000001
00000100
00001000
00000000
,
00010000
00000000
00001000
00000000
00010000
00100000
01000000
00000000
,
00000000
00010000
00000000
00010000
,
00000000
10000000
00000000
10000000
,
00200000
20300000
32000000
03020000
,
00032000
00000000
00000000
00003000
,
00000020
00000000
00000032
00000000
,
00000000
00000003
00000000
00000000
,
00000010
00000000
00000001
00000100
00000000
00000100
00000001
00000000
,
00001000
00000000
00000100
00001000
00000000
00001000
00000100
00000000
,
00010000
00000000
00001000
00010000
00000000
00010000
00001000
00000000
,
00100000
00000000
00010000
01000000
00000000
01000000
00010000
00000000
,
01000000
00000000
00100000
00000000
10000000
01000000
00010000
00000000
,
00001000
00000000
00000010
00000000
00000001
00000100
00001000
00000000
,
00010000
00000000
00011000
00000000
00001000
00010000
00100000
00000000
,
10000000
00000000
01010000
00000000
01000000
00010000
00100000
00000000
,
01100000
00000000
01000000
00000000
10000000
00010000
01000000
00000000
,
01010000
00000000
01001000
00000000
00001000
00010000
00001000
00000000
,
00011000
00000000
00001000
00000100
00000000
00000100
00000001
00000000
,
00001010
00000000
00000001
00000100
00000000
00000100
00001000
00000000
,
00010000
00000000
01000000
10000000
00000000
10000000
00100000
00000000
,
01010000
00000000
01000000
00001000
00000000
00001000
00010000
00000000
,
00000010
00000000
00001000
00000100
00000000
00000010
00000001
00000100
,
00000000
00000000
00000001
00000100
00000000
00000100
00001000
00010000
,
00000000
00000000
00010000
10000000
00000000
10000000
01000000
00010000
,
00000000
00000000
00010000
00001000
00000000
00000010
00000001
00000100
,
00000000
00000000
00000001
00000100
00000000
00000100
00001000
00010000
,
00000000
00000000
00100000
01000000
00000000
01000000
00010000
00100000
,
00000000
00000000
00001000
00010000
00000000
00010000
00100000
10000000
,
00000000
00000000
00100000
10000000
00000000
10000000
01000000
00010000
,
00001000
00000000
00001000
00010000
00000000
00001000
00000100
00000000
,
00000001
00000000
00000001
00000010
00000000
00000010
00000001
00000000
,
00000010
00000000
00000010
00001000
00000000
00001000
00010000
00000000
,
01000000
00000000
01000000
10000000
00000000
10000000
01000000
00000000
,
10000000
00000000
10000000
00010000
00000000
00010000
00100000
00000000
,
00100000
00000000
00100000
00001000
00000000
00001000
00100000
00000000
,
00100000
00000000
00100000
01000000
00000000
01000000
00100000
00000000
,
00001000
00000000
00001000
00010000
00000000
00010000
00001000
00000000
,
00001000
00000000
00000100
00000000
00001000
00000100
00000001
00000000
,
00000010
00000000
00000001
00000000
00000001
00000010
00001000
00000000
,
00011000
00000000
00001000
00000000
00100000
01000000
00100000
00000000
,
00010000
10000000
00010000
00000000
00100000
01000000
00100000
00000000
,
10100000
00000000
01010000
00000000
00100000
00010000
00001000
00000000
,
00000011
00000000
00001100
00000000
00000010
00001000
00010000
00000000
,
00001000
00000100
00000001
00000100
00001000
00010000
00001000
00000000
,
00001000
00010000
00100000
10000000
00100000
00010000
00001000
00000000
,
00011000
00000000
00000000
00000000
;

//---------------dance-double - ----------------
#NOTES:
     dance-double:
     :
     Hard:
     7:
     :
00000000
00000000
00000000
00000000
,
00000000
00000000
00000000
00000000
,
00000000
00000000
00000000
00000000
,
00000000
00000000
00000000
00000000
,
00000000
00000000
00000000
00000000
,
11000000
00000000
10000000
00100000
00000000
00100000
00010000
00000000
,
00011000
00000000
00001000
00000010
00000000
00000010
00000001
00000000
,
00000101
00000000
00000001
00000100
00000000
00000100
00001000
00000000
,
00011000
00000000
00000000
00000000
00010000
00000000
01000000
00000000
00000000
00000000
01000000
00000000
10000000
00100000
10000000
00100000
,
00000000
10000000
01000000
00010000
,
00001000
00000100
00000001
00000100
,
00001000
00011000
00000000
01010000
,
00000000
11000000
00000000
00000000
,
10010000
00000000
00100000
10000000
01000000
00010000
00001000
00000000
,
00001001
00000000
00000010
00000001
00000100
00001000
00010000
00000000
,
00011000
00000000
00100000
00010000
00001000
00000100
00000001
00000000
,
00000110
00000000
00000100
00001000
00010000
00100000
10000000
00000000
,
10010000
00000000
01000000
00010000
00001000
00010000
01000000
00000000
,
00011000
00000000
00000000
00000000
00100000
00000000
00010000
00000000
00100000
00000000
01000000
00000000
10000000
01000000
10000000
01000000
,
00000000
00000000
10000000
01000000
00000000
01000000
00010000
00000000
,
00000000
00000000
00001000
00000100
00000000
00000100
00000001
00000000
,
00002001
00000010
00000100
00003000
,
00000210
00001000
00000001
00001300
,
00002010
00000000
00000000
00000000
00000100
00000000
00000000
00000000
00000001
00000000
00000000
00003000
00000000
00000000
00000000
00000000
,
00021000
00100000
00001000
00130000
,
01010000
00000000
01000000
00010000
00000000
00001000
00000010
00000000
,
00000011
00000000
00000010
00001000
00000000
00010000
00001000
00000000
,
00011000
00000000
00010000
00100000
00000000
00010000
01000000
00000000
,
10010000
00000000
00100000
10000000
00000000
01000000
00010000
00000000
,
00001000
00000010
00000001
00001000
00000100
00000001
00000100
00000000
,
00000001
00000100
00001000
00010000
00100000
10000000
01000000
00000000
,
10000000
00100000
10000000
00010000
10000000
01000000
00010000
00000000
,
00001000
00010000
00001000
00100000
00001000
00000100
00000001
00000000
,
00000010
00000001
00000100
00001000
00010000
00100000
10000000
00000000
,
00010000
00100000
00010000
01000000
00001000
00010000
00001000
00000000
,
00010000
00011000
00000000
00001010
,
00000001
00000100
00001000
00011000
,
00100000
00010000
01000000
01010000
,
10000000
00100000
00010000
00000000
,
20100000
00000000
30100000
10000000
00000000
10000000
00100000
01000000
,
00020000
00000000
01030000
00001000
00000000
00000010
00000001
00001000
,
00000002
00000000
00000013
00000001
00000000
00000001
00000100
00001000
,
00020000
00000000
00130000
10000000
00000000
10000000
01000000
00010000
,
00002000
00000000
00003010
00000001
00000000
00000001
00000100
00000010
,
00002000
00000000
00003001
00000010
00000000
00000001
00000100
00010000
,
00200000
00000000
00301000
00010000
00000000
00001000
00010000
00001000
,
00000200
00000000
00000301
00000100
00000000
00000010
00001000
00000001
,
00000200
00000000
00001300
00010000
00000000
00010000
00100000
01000000
,
00200000
00000000
10300000
00100000
00000000
00100000
00010000
00001000
,
00000200
00000000
00000301
00000010
00000000
00000010
00001000
00010000
,
00200000
00000000
10300000
01000000
00000000
01000000
00010000
00001000
,
00020000
00000000
00031000
00000010
00000000
00000001
00000100
00001000
,
00020000
00000000
00130000
00010000
00000000
00001000
00000100
00000001
,
00000200
00000000
00000310
00001000
00000000
00001000
00010000
00100000
,
20000000
00000000
30100000
01000000
00000000
01000000
00010000
00000000
,
00001000
00000010
00000001
00000000
00000001
00000100
00001000
00000000
,
00010000
01000000
10000000
00010000
00100000
10000000
01000000
00000000
,
00100000
10000000
01000000
00000000
01000000
00010000
00001000
00000000
,
00000010
00000001
00000100
00001000
00010000
00100000
01000000
00000000
,
00100000
01000000
00100000
00000000
00010000
10000000
00010000
00000000
,
00100000
01000000
00010000
00001000
00000010
00000001
00000010
00000000
,
00001000
00000001
00000100
00000000
00000001
00000100
00001000
00000000
,
00010000
00100000
10000000
01000000
00010000
00001000
00010000
00000000
,
00011000
00000000
00000000
00000000
;
