#TITLE:A Town Called Malice;
#ARTIST:The Jam;
#BANNER:A Town Called Malice.png;
#BACKGROUND:A Town Called Malice-bg.png;
#CDTITLE:./CDTITLES/DANCING STAGE UNLEASHED 2.png;
#MUSIC:A Town Called Malice.ogg;
#SAMPLESTART:29.76;
#SAMPLELENGTH:15;
#DISPLAYBPM:102;
#BPMS:0=100.87,20=101.3,28=102.1,36=102.4,44=103,52=102,60=101.69,68=99.21,76=100.57,84=103.31,92=101.72,100=103.31,108=104.99,116=104.8,124=101.89,132=101.95,140=101.89,148=102.9,156=102.4,164=102.65,172=102.54;
#BGCHANGES:3=A Town Called Malice.avi=1=0=0=0;

//---------------dance-single - ----------------
#NOTES:
     dance-single:
     :
     Beginner:
     1:
     :
0000
0000
0000
0000
,
0000
0000
0000
0000
,
0000
0000
0000
0000
,
0000
0000
0000
0000
,
0000
0000
0000
0000
,
0100
0000
0000
0000
,
0100
0000
0000
0000
,
0010
0000
0000
0000
,
0010
0000
0000
0000
,
1000
0000
0100
0000
,
0001
0000
0010
0000
,
1000
0000
0100
0000
,
0001
0000
0010
0000
,
1001
0000
0100
0000
,
1000
0000
1000
0000
,
0010
0000
0100
0000
,
0001
0000
0001
0000
,
0100
0000
0000
0000
,
0001
0000
0000
0000
,
1000
0000
0000
0000
,
0010
0000
0000
0000
,
1000
0000
1000
0000
,
0001
0000
0001
0000
,
0100
0000
1000
0000
,
0100
0000
0001
0000
,
0100
0000
1000
0000
,
0100
0000
0001
0000
,
0010
0000
0000
0000
,
0010
0000
0000
0000
,
0100
0000
0100
0000
,
1000
0000
0000
0000
,
0001
0000
0000
0000
,
1000
0000
0000
0000
,
0001
0000
0000
0000
,
0100
0000
0000
0000
,
0100
0000
0000
0000
,
0010
0000
0000
0000
,
0010
0000
0000
0000
,
1000
0000
1000
0000
,
0001
0000
0001
0000
,
1000
0000
1000
0000
,
0001
0000
0001
0000
,
0100
0000
1000
0000
,
0100
0000
0001
0000
,
0100
0000
0000
0000
;

//---------------dance-single - ----------------
#NOTES:
     dance-single:
     :
     Easy:
     2:
     :
0000
0000
0000
0000
,
0000
0000
0000
0000
,
0000
0000
0000
0000
,
0000
0000
0000
0000
,
0000
0000
0000
0000
,
0100
0000
0000
0000
,
0100
0000
0000
0000
,
0010
0000
0000
0000
,
0010
0000
0000
0000
,
1000
0000
0100
0000
,
0001
0000
0010
0000
,
1000
0000
0100
0000
,
0001
0000
0010
0000
,
1001
0000
0100
0000
,
1000
0001
1000
0000
,
0010
0000
0100
0000
,
0001
1000
0001
0000
,
0200
0000
0000
0300
,
0002
0000
0000
0003
,
2000
0000
0000
3000
,
0020
0000
0000
0030
,
1000
0000
1000
0000
,
0001
0000
0001
0000
,
0100
0000
1000
0000
,
0100
0000
0001
0000
,
0100
0000
1000
0000
,
0100
0000
0001
0000
,
0010
0000
0000
0000
,
0010
0000
0000
0000
,
0100
0000
0100
0000
,
1000
0000
0000
0000
,
0001
0000
0000
0000
,
1000
0000
0000
0000
,
0001
0000
0000
0000
,
0100
0100
0000
0000
,
0100
0100
0000
0000
,
0010
0010
0000
0000
,
0010
0010
0000
0000
,
1000
0000
1000
0000
,
0001
0000
0001
0000
,
1000
0000
1000
0000
,
0001
0000
0001
0000
,
0100
0000
1000
0000
,
0100
0000
0001
0000
,
0200
0000
0000
0300
;

//---------------dance-single - ----------------
#NOTES:
     dance-single:
     :
     Medium:
     4:
     :
0000
0000
0000
0000
,
0000
0000
0000
0000
,
0000
0000
0000
0000
,
0000
0000
0000
0000
,
0000
0000
0000
0000
,
0000
0100
0000
1000
0000
0100
0000
0001
,
0000
0100
0000
1000
0000
0100
0000
0001
,
0000
0010
0000
1000
0000
0010
0000
0001
,
0000
0010
0000
1000
0000
0010
0000
0001
,
1000
0100
1000
0000
0001
0100
0001
0000
,
1000
0100
1000
0000
0001
0100
0001
0000
,
0002
0013
0020
0130
,
0200
1300
2000
3001
,
0000
1000
0100
0010
0000
0001
0010
0100
,
0000
1000
0010
0100
0000
0001
0100
0010
,
0000
1000
0100
0010
0000
0001
0100
0010
,
0000
1000
0010
0100
0000
0001
0100
0010
,
1000
0001
0000
1000
0000
0001
0000
1000
,
0010
0100
0000
0001
0000
0100
0000
0001
,
0100
0010
0000
1000
0000
0010
0000
1000
,
0100
0010
0000
0001
0000
0010
0000
0001
,
1000
0001
1000
0001
,
0100
0010
0100
1001
,
0000
1000
0000
0100
0000
0001
0000
0100
,
0000
1000
0000
0100
0000
0001
0000
0100
,
0020
0000
0000
0030
,
0200
0000
0000
0000
0000
0000
0000
0300
,
0000
0001
0000
0010
0000
0100
0000
1000
,
0000
0010
0000
0100
0000
0001
0000
0100
,
0200
0000
0000
0300
,
0001
1000
0000
0010
0000
1000
0000
0001
,
0000
1001
0000
0001
0000
0010
0000
0001
,
0000
1001
0000
1000
0000
0100
0000
1000
,
0000
1001
0000
0001
0000
0100
0000
0001
,
0010
0100
1000
0000
0001
0000
0001
0000
,
0010
0100
0001
0000
1000
0000
1000
0000
,
0001
0010
0100
1000
,
0001
0000
0010
0000
0100
0000
1000
0001
,
0100
0000
0010
0000
0200
0001
0301
0000
,
0010
0000
0100
0000
0020
0001
0031
1000
,
0100
0000
0010
0000
0200
1000
1300
0000
,
0010
0000
0100
0000
0020
1000
1030
0000
,
0001
0100
1000
0100
,
0001
0100
1000
0200
,
0000
0000
0300
0000
;

//---------------dance-single - ----------------
#NOTES:
     dance-single:
     :
     Hard:
     5:
     :
0000
0000
0000
0000
,
0000
0000
0000
0000
,
0000
0000
0000
0000
,
0000
0000
0000
0000
,
0000
0000
0000
0000
,
0100
1000
0001
0000
0100
0001
1000
0000
,
0001
0010
0100
1000
0200
0000
0300
0000
,
0010
0001
1000
0000
0010
1000
0001
0000
,
1000
0100
0010
0001
0010
0000
1001
0000
,
0100
0100
1000
0000
0001
0001
0100
0000
,
0010
0010
1000
0000
0001
0001
0010
0000
,
0001
0101
1000
1100
,
0001
0101
1000
1100
,
1001
0000
0100
0000
1000
0010
1000
0000
,
1001
0000
0100
0000
0001
0010
0001
0000
,
1000
0000
0001
0000
1000
0001
1000
0000
,
0010
0100
0010
0100
0010
0000
1001
0000
,
2000
0100
0000
0100
0000
3100
0000
0010
,
0002
0100
0000
0100
0000
0103
0000
0010
,
2000
0100
0000
0100
0000
3100
0000
0010
,
0002
0100
0000
0100
0000
0103
0000
0100
,
0001
1000
0001
0000
1000
0001
1000
0000
,
0100
0100
0100
1001
,
0000
1000
0000
0100
0000
0001
0000
0010
,
0000
1000
0000
0100
0000
0001
0000
0010
,
0200
0000
0000
0300
,
0020
0000
0000
0000
0000
0000
0030
0001
,
1000
0100
0000
0010
0000
0100
0000
1000
,
0001
0010
0000
0100
0000
0010
0000
0100
,
0200
0000
0000
0300
,
1001
1001
0000
0100
0000
1000
0000
0100
,
0000
1001
0000
0100
0000
0001
0000
0100
,
0000
1100
0000
0001
0000
0010
0000
0001
,
0000
0101
0000
1000
0000
0010
0000
1000
,
0001
0010
0100
0000
1000
0000
0001
0000
,
1000
0010
0100
0000
0001
0000
1000
0000
,
0001
0100
0010
0000
1000
0000
0001
0000
,
1000
0100
0010
0000
0001
0000
1000
0001
,
1001
0000
0010
0000
0100
1000
0100
0000
,
1001
0000
0010
0000
0100
0001
0100
0000
,
0001
0000
1000
0000
0001
1000
0001
0000
,
0100
0001
0100
0010
1000
0000
0110
0000
,
1000
0000
1000
0000
0001
0001
0100
0000
,
0001
0000
0001
0000
1000
1000
0200
0000
,
0000
0000
0300
0000
;

//---------------dance-double - ----------------
#NOTES:
     dance-double:
     :
     Beginner:
     1:
     :
00000000
00000000
00000000
00000000
,
00000000
00000000
00000000
00000000
,
00000000
00000000
00000000
00000000
,
00000000
00000000
00000000
00000000
,
00000000
00000000
00000000
00000000
,
00000100
00000000
00000000
00000000
,
00010000
00000000
00000000
00000000
,
00001000
00000000
00000000
00000000
,
00010000
00000000
00000000
00000000
,
00001000
00000000
00000100
00000000
,
00000001
00000000
00000010
00000000
,
00001000
00000000
00010000
00000000
,
00100000
00000000
10000000
00000000
,
10010000
00000000
00000000
00000000
,
10000000
00000000
10000000
00000000
,
10010000
00000000
00000000
00000000
,
00010000
00000000
00010000
00000000
,
01000000
00000000
00000000
00000000
,
00001000
00000000
00000000
00000000
,
00010000
00000000
00000000
00000000
,
00000100
00000000
00000000
00000000
,
00001000
00000000
00000001
00000000
,
00001000
00000000
00000001
00000000
,
00000100
00000000
00000010
00000000
,
00000100
00000000
00000010
00000000
,
00010000
00000000
00001000
00000000
,
00010000
00000000
00001000
00000000
,
00100000
00000000
00000000
00000000
,
01000000
00000000
00000000
00000000
,
10000000
00000000
00010000
00000000
,
10000000
00000000
00000000
00000000
,
00010000
00000000
00000000
00000000
,
10000000
00000000
00000000
00000000
,
00010000
00000000
00000000
00000000
,
01000000
00000000
00000000
00000000
,
00010000
00000000
00000000
00000000
,
00001000
00000000
00000000
00000000
,
00000100
00000000
00000000
00000000
,
00000001
00000000
00001000
00000000
,
00000100
00000000
00010000
00000000
,
00001000
00000000
01000000
00000000
,
00010000
00000000
10000000
00000000
,
00010000
00000000
00100000
00000000
,
00001000
00000000
00010000
00000000
,
00011000
00000000
00000000
00000000
;

//---------------dance-double - ----------------
#NOTES:
     dance-double:
     :
     Easy:
     2:
     :
00000000
00000000
00000000
00000000
,
00000000
00000000
00000000
00000000
,
00000000
00000000
00000000
00000000
,
00000000
00000000
00000000
00000000
,
00000000
00000000
00000000
00000000
,
00000100
00000000
00000000
00000000
,
00010000
00000000
00000000
00000000
,
00001000
00000000
00000000
00000000
,
00010000
00000000
00000000
00000000
,
00001000
00000000
00000100
00000000
,
00000001
00000000
00000010
00000000
,
00001000
00000000
00010000
00000000
,
00100000
00000000
10000000
00000000
,
10010000
00000000
00000000
00000000
,
10000000
01000000
10000000
00000000
,
10010000
00000000
00000000
00000000
,
00010000
01000000
00010000
00000000
,
02000000
00000000
00000000
03000000
,
00002000
00000000
00000000
00003000
,
00020000
00000000
00000000
00030000
,
00000200
00000000
00000000
00000300
,
00001000
00000000
00000001
00000000
,
00001000
00000000
00000001
00000000
,
00000100
00000000
00000010
00000000
,
00000100
00000000
00000010
00000000
,
00010000
00000000
00001000
00000000
,
00010000
00000000
00001000
00000000
,
00100000
00000000
00000000
00000000
,
01000000
00000000
00000000
00000000
,
10000000
00000000
00010000
00000000
,
10000000
00000000
00000000
00000000
,
00010000
00000000
00000000
00000000
,
10000000
00000000
00000000
00000000
,
00010000
00000000
00000000
00000000
,
01000000
01000000
00000000
00000000
,
00010000
00010000
00000000
00000000
,
00001000
00001000
00000000
00000000
,
00000100
00000100
00000000
00000000
,
00000001
00000000
00001000
00000000
,
00000100
00000000
00010000
00000000
,
00001000
00000000
01000000
00000000
,
00010000
00000000
10000000
00000000
,
00010000
00000000
00100000
00000000
,
00001000
00000000
00010000
00000000
,
00022000
00000000
00000000
00033000
;

//---------------dance-double - ----------------
#NOTES:
     dance-double:
     :
     Medium:
     4:
     :
00000000
00000000
00000000
00000000
,
00000000
00000000
00000000
00000000
,
00000000
00000000
00000000
00000000
,
00000000
00000000
00000000
00000000
,
00000000
00000000
00000000
00000000
,
00000000
00001000
00000000
01000000
00000000
00001000
00000000
01000000
,
00000000
00010000
00000000
10000000
00000000
00010000
00000000
10000000
,
00000000
00100000
00000000
01000000
00000000
00100000
00000000
01000000
,
00000000
00001000
00000000
00010000
00000000
00001000
00000000
00010000
,
01000000
10000000
01000000
00000000
00100000
00010000
00100000
00000000
,
01000000
00010000
01000000
00000000
00010000
00001000
00010000
00000000
,
00002000
00003100
00000200
00000301
,
00000002
00000013
00000020
00001030
,
00000000
00000010
00000001
00000100
00000000
00000010
00001000
00000100
,
00000000
00000001
00000100
00001000
00000000
00000100
00010000
00001000
,
00000000
00010000
00001000
01000000
00000000
00010000
01000000
10000000
,
00000000
01000000
00010000
00100000
00000000
01000000
10000000
00100000
,
10000000
00010000
00000000
10000000
00000000
00100000
00000000
00010000
,
00001000
00010000
00000000
00001000
00000000
00000010
00000000
00000001
,
00001000
00000001
00000000
00000100
00000000
00001000
00000000
00010000
,
00001000
00010000
00000000
01000000
00000000
10000000
00000000
00010000
,
10000000
00010000
10000000
00010000
,
01000000
00100000
01000000
10010000
,
00000000
01000000
00000000
00001000
00000000
00010000
00000000
00000100
,
00000000
00010000
00000000
00000010
00000000
00001000
00000000
00000001
,
00002000
00000000
00000000
00003000
,
00000002
00000000
00000000
00000000
00000000
00000000
00000000
00000003
,
00000000
00001000
00000000
00000100
00000000
00000010
00000000
00000001
,
00000000
00001000
00000000
00000100
00000000
00000010
00000000
00000001
,
00000200
00000000
00000000
00000300
,
00000001
00001000
00000000
00000001
00000000
00000100
00000000
00001000
,
00000000
00011000
00000000
00010000
00000000
00100000
00000000
10000000
,
00000000
10010000
00000000
10000000
00000000
01000000
00000000
00010000
,
00000000
00011000
00000000
00001000
00000000
00000010
00000000
00000001
,
00000010
00000100
00001000
00000000
00000001
00000000
00000001
00000000
,
00000010
00000010
00000100
00000000
00001000
00000000
00001000
00000000
,
00000010
00010000
00001000
00100000
,
00010000
00000000
00100000
00000000
01000000
00000000
10000000
00010000
,
01000000
00000000
00100000
00000000
02000000
00001000
03001000
00000000
,
00010000
00000000
00000010
00000000
00002000
00000001
00003001
00000100
,
00000010
00000000
00000100
00000000
00000020
00010000
00010030
00000000
,
00001000
00000000
01000000
00000000
00020000
10000000
10030000
00000000
,
00010000
01000000
10000000
01000000
,
00010000
01000000
10000000
02000000
,
00000000
00000000
03000000
00000000
;

//---------------dance-double - ----------------
#NOTES:
     dance-double:
     :
     Hard:
     5:
     :
00000000
00000000
00000000
00000000
,
00000000
00000000
00000000
00000000
,
00000000
00000000
00000000
00000000
,
00000000
00000000
00000000
00000000
,
00000000
00000000
00000000
00000000
,
00000010
00010000
00001000
00000000
00010000
00001000
00100000
00000000
,
00010000
00100000
01000000
10000000
02000000
00000000
03000000
00000000
,
10000000
01000000
00010000
00000000
01000000
00100000
00010000
00000000
,
01000000
00001000
00010000
00001000
01000000
00000000
00011000
00000000
,
00001000
00001000
00000100
00000000
00000100
00000100
00000001
00000000
,
00000001
00000001
00000010
00000000
00000010
00000010
00001000
00000000
,
00010000
00011000
00001000
00001100
,
00000100
00000101
00000001
00000011
,
00000100
00000000
00001001
00000000
00000001
00000100
00000001
00000000
,
00000100
00000000
00001001
00000000
00001000
00000100
00001000
00000000
,
00000100
00000000
00011000
00000000
00010000
01000000
10000000
00000000
,
00100000
01000000
00100000
01000000
00100000
00000000
10010000
00000000
,
20000000
01000000
00000000
01000000
00000000
31000000
00000000
00100000
,
00002000
00010000
00000000
00010000
00000000
00013000
00000000
00000010
,
00000200
00000001
00000000
00000001
00000000
00000301
00000000
00000010
,
00002000
00010000
00000000
00010000
00000000
00013000
00000000
00010000
,
01000000
10000000
00010000
00000000
01000000
00010000
10000000
00000000
,
01000000
00100000
01000000
10010000
,
00000000
00100000
00000000
10000000
00000000
01000000
00000000
00010000
,
00000000
00001000
00000000
00000100
00000000
00000001
00000000
00000010
,
00000200
00000000
00000000
00000300
,
00020000
00000000
00000000
00000000
00000000
00000000
00030000
00001000
,
00010000
00001000
00000000
00100000
00000000
00001000
00000000
00010000
,
00001000
00010000
00000000
00000010
00000000
00010000
00000000
00000100
,
00002000
00000000
00000000
00003000
,
00000001
00001000
00000000
00000001
00000000
00000100
00000000
00001000
,
00000000
00011000
00000000
00010000
00000000
01000000
00000000
10000000
,
00000000
10010000
00000000
10000000
00000000
00100000
00000000
00010000
,
00000000
00011000
00000000
00001000
00000000
00000010
00000000
00000001
,
00000010
00000100
00001000
00000000
00000001
00000000
00001000
00000000
,
00000001
00000100
00001000
00000000
00010000
00000000
00001000
00000000
,
00010000
01000000
10000000
00000000
00010000
00000000
10000000
00000000
,
00010000
01000000
00100000
00000000
10000000
00000000
00010000
10000000
,
10010000
00000000
00100000
00000000
01000000
00010000
01000000
00000000
,
10010000
00000000
00100000
00000000
01000000
10000000
01000000
00000000
,
00100000
00000000
00001000
00000000
00010000
00001000
00010000
00000000
,
00001000
00000100
00000001
00000010
00000100
00000000
00001001
00000000
,
00000100
00000000
00000100
00000000
00000010
00000010
00001000
00000000
,
00000100
00000000
00010000
00000000
00001000
00001000
00020000
00000000
,
00000000
00000000
00030000
00000000
;
