#TITLE:UP THE BRACKET;
#ARTIST:THE LIBERTINES;
#BANNER:UP THE BRACKET.png;
#BACKGROUND:UP THE BRACKET-bg.png;
#CDTITLE:./CDTITLES/DANCING STAGE UNLEASHED.png;
#MUSIC:UP THE BRACKET.ogg;
#SAMPLESTART:6.06;
#SAMPLELENGTH:15;
#DISPLAYBPM:182;
#BPMS:0=181.2,20=181.81,52=182.74,76=181.36,108=183.67,132=181.36,164=182.27,212=181.36,244=182.12,268=182.97,300=182.27;

//---------------dance-single - ----------------
#NOTES:
     dance-single:
     :
     Easy:
     4:
     :
0000
0000
0000
0000
,
0000
0000
0000
0000
,
0000
0000
0000
0000
,
0000
0000
0000
0000
,
0000
0000
0000
0000
,
1000
1000
1000
0000
,
0001
0001
0001
0000
,
1000
0000
0000
0100
0000
0100
0000
0000
,
0001
0000
0000
0100
0000
0100
0000
0000
,
0010
0010
0010
0000
,
0100
0100
0100
0000
,
0001
0000
0000
0010
0000
0010
0000
0000
,
1000
0000
0000
0010
0000
0010
0000
0000
,
1000
0000
0100
0010
,
0001
0000
0000
0010
0000
0000
0001
0000
,
0001
0000
0010
0100
,
1000
0000
0000
0100
0000
0000
0000
0000
,
0001
1000
0010
0100
,
1001
0000
0000
0010
,
1000
0001
1000
0001
,
0100
0010
0100
0010
,
1001
0000
0000
0100
0000
0100
0000
0000
,
1001
0000
0000
0010
0000
0010
0000
0000
,
0010
0010
0100
0100
,
1000
1000
0001
0001
,
0110
0000
0000
0001
0000
1000
0000
0000
,
0110
0001
1000
0001
,
0010
0010
1000
0001
,
0100
0100
0001
1000
,
0001
0001
0100
0010
,
1000
1000
0010
0100
,
1001
1001
0110
0110
,
1001
0000
0000
0100
,
1000
0000
1000
0000
,
0001
0000
0001
0000
,
0010
0000
0100
0000
,
1000
0000
0000
0001
0000
0001
0000
0001
,
0000
0000
1000
0000
,
0001
1000
1000
1000
,
0010
0010
0100
0100
,
1001
0000
0000
0000
,
0020
0030
0200
0300
,
0002
0003
2000
3000
,
0010
0010
0010
0010
,
0100
0000
0000
1000
0000
1000
0000
1000
,
0000
0000
0001
0000
,
1000
1000
1000
1000
,
0010
0010
0100
0100
,
0110
0000
0000
1001
,
0110
0000
1001
0000
,
0110
0000
1001
0000
,
0010
0001
0100
1000
,
0110
0000
0000
0000
0000
0001
1000
0000
,
0001
0001
0010
0010
,
0100
0100
1000
1000
,
0020
0030
0200
0300
,
0002
0003
2000
3000
,
0010
0010
0100
0100
,
0001
0001
1000
1000
,
0200
0300
0002
0003
,
2000
3000
0020
0030
,
1000
1000
1000
1000
,
0001
0000
0000
0001
0000
0000
0000
0000
,
0010
0010
0010
0010
,
0100
0000
0000
0100
0000
0000
0000
0000
,
0001
1000
0001
1000
0001
1000
0001
1000
,
0110
0000
0000
1001
,
0010
0010
0001
0001
,
0100
0100
1000
1000
,
0010
0100
0010
0100
,
2000
0000
3000
0001
0000
0001
0000
0002
,
0000
0000
0000
0003
,
1000
1000
1000
0001
,
0001
0001
0100
0100
,
0010
0010
0100
0100
,
2002
0000
0000
0000
,
0000
0000
0000
3003
;

//---------------dance-single - ----------------
#NOTES:
     dance-single:
     :
     Medium:
     6:
     :
0000
0000
0000
0000
,
0000
0000
0000
0000
,
0000
0000
0000
0000
,
0000
0000
0000
0000
,
0000
0000
0000
0000
,
0001
0001
0001
0001
,
1000
1000
1000
1000
,
0010
0000
0000
0010
0100
0010
0100
0000
,
0010
0000
0000
0010
0100
0010
0100
0000
,
0001
1000
0001
1000
,
0010
0100
0010
0100
,
0001
0000
0000
1000
0001
0001
0001
0000
,
1000
0001
1000
0001
,
0001
0010
0010
0001
,
0100
0000
0000
0100
0000
0000
0100
0000
,
1000
0100
0100
1000
,
0010
0000
0000
0010
0000
0000
0010
0000
,
0001
1000
0001
1000
0001
1000
0001
1000
,
0001
0000
0000
0000
0000
0010
1000
0000
,
0010
0000
0010
0000
0100
0010
0100
0000
,
0010
0000
0010
0000
0100
0010
0100
0000
,
0001
0000
0000
0001
1000
0001
1000
0000
,
1000
0000
0000
0001
1000
0001
1000
0000
,
0001
0000
0001
0000
1000
1000
1000
0000
,
1000
0000
1000
0000
0001
0001
0001
0000
,
0010
0000
0000
1000
1000
1000
1000
0000
,
0100
0000
0000
0001
0001
0001
0001
0000
,
0000
0010
0000
0000
0010
0000
0000
0000
,
0000
0001
0000
0000
0001
0000
0000
0000
,
0000
0100
0000
0000
0100
0000
0000
0000
,
0000
1000
0000
0000
1000
0000
0000
0000
,
0010
0001
0010
0001
0100
1000
0100
1000
,
0010
0000
0000
0000
0000
1000
0100
0000
,
2000
0000
0001
3001
,
0002
0000
1000
1003
,
0020
0000
0100
0130
,
2000
0000
3000
0001
0000
0010
0000
2000
,
0000
0001
0001
3001
,
0010
0001
0100
1000
,
0100
0010
1000
0001
,
1000
0000
0000
0000
0000
0010
0100
0001
,
0020
1000
1000
1030
,
0200
0001
0001
0301
,
0002
0010
0100
0013
,
2000
0100
0010
3100
,
0001
0000
2000
0000
0001
0001
3000
0000
,
0010
0000
0002
0000
0010
0010
0003
0000
,
0100
0000
2000
0000
0100
0100
3000
0000
,
0110
0000
0000
0000
0000
0100
1000
0000
,
0000
0001
0010
0000
0000
1000
0100
0000
,
0000
0010
1000
0000
0000
0100
0001
0000
,
0010
1000
0001
0000
0100
0001
1000
0000
,
0110
0000
0000
0000
0010
0100
0010
0000
,
0001
0001
0001
0000
1000
1000
1000
0000
,
0010
0010
0010
0000
0100
0100
0100
0000
,
0002
1000
1000
0000
0000
0100
0103
0000
,
2000
0001
0001
0000
0000
0010
3010
0000
,
0001
0010
0001
0000
1000
0100
1000
0000
,
0010
0010
1000
0000
0100
0100
0001
0000
,
0020
0000
0000
0100
0000
0000
0130
0000
,
0200
0000
0000
0010
0000
0000
0310
0000
,
0001
1000
1000
0001
,
0020
0000
0000
0100
0000
0000
0030
0000
,
1000
0001
0001
1000
,
0200
0000
0000
0010
0000
0000
0300
0000
,
0001
0010
0100
1000
0001
0010
0100
1000
,
0110
0000
0000
0000
0000
0100
0010
0000
,
0101
0000
0010
0000
1000
1000
0100
0000
,
1010
0000
0100
0000
0001
0001
0100
0000
,
0000
0010
0010
0010
0000
0100
0100
0100
,
0010
0000
0000
0001
0000
2000
0000
0001
,
0000
0001
0001
3001
,
0000
0010
0001
0100
,
1000
0100
1000
0100
,
1010
0000
0000
0000
0010
0100
0001
1000
,
0220
0000
0000
0000
,
0000
0000
0000
0330
;

//---------------dance-single - ----------------
#NOTES:
     dance-single:
     :
     Hard:
     7:
     :
0000
0000
0000
0000
,
0000
0000
0000
0000
,
0000
0000
0000
0000
,
0000
0000
0000
0000
,
0000
0000
0000
0000
0000
0010
1000
0100
,
1000
0100
0010
0000
0001
1000
0010
0000
,
0100
0010
1000
0010
1000
0010
0100
0000
,
0020
0000
0000
0000
0000
1000
1000
0000
,
0000
0000
0000
0000
0030
1000
0010
1000
,
0001
0010
0100
0000
1000
0100
0001
0000
,
1000
0100
0001
0100
0001
0010
1000
0010
,
0200
0000
0300
0200
0000
0001
0001
0000
,
0000
0000
0000
0000
0300
0001
0100
0001
,
1000
1000
0010
1000
,
0020
0000
0000
0200
0000
0000
0330
0000
,
0000
0001
1000
0001
,
0200
0000
0000
0320
0000
2030
0000
3002
,
0000
0000
0000
0003
1000
0001
0010
0001
,
0110
0000
0000
1001
,
0010
0000
0001
0010
0001
0010
0001
0000
,
0100
0000
1000
0100
1000
0100
1000
0000
,
0002
0000
0000
0000
0000
0100
0100
0000
,
0000
0000
0000
0000
0003
0100
0010
0001
,
1000
0000
0000
1000
0000
0010
1000
0010
,
0001
0000
0000
0001
0000
0100
0001
0100
,
0000
0020
0000
0000
,
0000
0000
0000
0000
0030
0001
0100
0001
,
1000
0000
0000
0000
1000
0000
0000
0000
1000
0000
0000
0000
0010
0000
1000
0010
,
0100
0000
0000
0000
0100
0000
0000
0000
0100
0000
0000
0000
0001
0000
0001
0100
,
0010
0000
0000
0000
0010
0000
0000
0000
0010
0000
0000
0000
0001
0000
0010
0001
,
0100
0000
0000
0000
0100
0000
0000
0000
0100
0000
0000
0000
0010
0000
0100
0010
,
1000
0010
1000
0010
0100
0001
0100
0001
,
0110
0000
0000
0000
0000
0100
0001
0100
,
0002
0000
0003
0010
0100
1000
0100
0010
,
0002
0000
0003
0010
0100
2000
0000
0000
,
3000
0100
0001
0010
0002
0000
0003
1000
,
0010
0000
0000
0010
0000
0010
0000
0020
,
0000
0000
0030
0100
,
0010
0000
0010
0100
0001
0000
0001
0000
,
1000
0001
1000
0002
0000
2000
0000
0000
,
0000
0000
0000
0000
3003
0010
1000
0001
,
0000
0000
0000
0010
0100
0000
0100
0000
,
0010
0000
0100
0001
0100
0001
2000
0000
,
3000
0010
1000
0010
2000
0000
0002
0000
,
3003
0000
0000
0110
0000
1001
0000
0120
,
0000
1000
0100
0100
,
0030
0001
0010
0001
0100
0001
0100
0000
,
1000
0001
0010
0100
0010
0001
1000
0010
,
2002
0000
0000
0000
3003
0100
0001
1000
,
0010
0001
0011
0000
0100
1000
1100
0000
,
0010
0100
0101
0000
0100
0010
1010
0000
,
0001
0100
0010
0000
1000
0100
0010
0000
,
1001
0000
0000
0110
,
0001
0010
0100
1000
0001
0010
0100
1000
,
0010
0001
0100
1000
0010
0001
0100
1000
,
0002
0000
0000
2003
0000
0000
3000
0000
,
0020
0000
0000
0230
0000
0000
0300
0000
,
0010
1000
0010
1000
0010
1000
0010
1000
,
0100
0001
0100
0001
0100
0001
0100
0001
,
0020
0000
0000
0230
0000
0000
0300
0000
,
0001
0011
0110
1100
,
2001
0001
0001
3010
,
0102
0000
0000
1000
0000
0000
0103
0000
,
2010
0001
0010
3001
,
0102
0000
0000
0100
0000
0100
0003
0000
,
0010
0100
0010
0100
0001
0010
0100
1000
,
1001
0000
0000
0000
0000
0100
1000
0100
,
0001
0010
0001
0010
0001
0010
0001
0000
,
1000
0100
1000
0100
1000
0100
1000
0000
,
0010
1000
0010
0000
0100
0001
0100
0001
,
2000
0000
0000
3002
0000
2003
0000
0002
,
0000
0000
0000
3003
,
0000
0000
0100
0010
0100
0010
1001
0000
,
0000
0001
0010
0100
1000
0100
0010
0001
,
2000
0000
0000
0000
3000
0000
0010
0100
,
0020
0000
0000
0000
,
0000
0000
0000
0030
;

//---------------dance-double - ----------------
#NOTES:
     dance-double:
     :
     Easy:
     4:
     :
00000000
00000000
00000000
00000000
,
00000000
00000000
00000000
00000000
,
00000000
00000000
00000000
00000000
,
00000000
00000000
00000000
00000000
,
00000000
00000000
00000000
00000000
,
01000000
10000000
01000000
00000000
,
00100000
00010000
00100000
00000000
,
01000000
00000000
00000000
00010000
00000000
00010000
00000000
00000000
,
00001000
00000000
00000000
00000100
00000000
00000100
00000000
00000000
,
00000100
00001000
00000100
00000000
,
00000010
00000001
00000010
00000000
,
00000100
00000000
00000000
00001000
00000000
00001000
00000000
00000000
,
00010000
00000000
00000000
00100000
00000000
00100000
00000000
00000000
,
10000000
00000000
01000000
10000000
,
00010000
00000000
00000000
00100000
00000000
00000000
00010000
00000000
,
00010000
00000000
00100000
00010000
,
10000000
00000000
00000000
01000000
00000000
00000000
00000000
00000000
,
00010000
00001000
00010000
00000100
,
00001010
00000000
00000000
00000001
,
00000010
00000001
00000100
00000001
,
00000010
00000100
00000010
00000100
,
00001001
00000000
00000000
00000100
00000000
00000100
00000000
00000000
,
00001010
00000000
00000000
00000100
00000000
00000100
00000000
00000000
,
00001000
00001000
00000100
00010000
,
00100000
00100000
01000000
10000000
,
01100000
00000000
00000000
00010000
00000000
10000000
00000000
00000000
,
01100000
00010000
10000000
00010000
,
00100000
01000000
10000000
00010000
,
01000000
00100000
00010000
10000000
,
00010000
00010000
01000000
00100000
,
00001000
00001000
00010000
00000100
,
00010010
00010010
00001000
00000001
,
00000110
00000000
00000000
00000010
,
00001000
00000000
00001000
00000000
,
00000001
00000000
00000001
00000000
,
00000010
00000000
00000100
00000000
,
00001000
00000000
00000000
00000010
00000000
00000100
00000000
00001000
,
00000000
00000000
00010000
00000000
,
00001000
00100000
00010000
00100000
,
00001000
00001000
01000000
01000000
,
10010000
00000000
00000000
00000000
,
00200000
00300000
02000000
03000000
,
00020000
00030000
20000000
30000000
,
00100000
00100000
00100000
00100000
,
01000000
00000000
00000000
10000000
00000000
10000000
00000000
10000000
,
00000000
00000000
00010000
00000000
,
10000000
01000000
00100000
00010000
,
00100000
00100000
00001000
00001000
,
00010010
00000000
00000000
00001001
,
00000110
00000000
00001001
00000000
,
00010100
00000000
01100000
00000000
,
00001000
00010000
01000000
10000000
,
01100000
00000000
00000000
00000000
00000000
00010000
10000000
00000000
,
00010000
00010000
01000000
01000000
,
00100000
00100000
10000000
10000000
,
02000000
03000000
00200000
00300000
,
00020000
00030000
00000200
00000300
,
00000001
00000001
00000010
00000010
,
00001000
00001000
00000100
00000100
,
00000020
00000030
00000200
00000300
,
00020000
00030000
00200000
00300000
,
10000000
01000000
01000000
10000000
,
00010000
00000000
00000000
00010000
00000000
00000000
00000000
00000000
,
00100000
00010000
00010000
00100000
,
00001000
00000000
00000000
00001000
00000000
00000000
00000000
00000000
,
00010000
00001000
00010000
00000100
00010000
00000100
00010000
00000001
,
00000110
00000000
00000000
00001001
,
00000010
00000010
00000001
00000001
,
00000100
00000100
00001000
00001000
,
00000010
00000100
00001000
00001000
,
00020000
00000000
00030000
00110000
00000000
01010000
00000000
20000000
,
00000000
00000000
00000000
30000000
,
10000000
10000000
10000000
00010000
,
00010000
00010000
00001000
00001000
,
00000100
00000100
00000010
00000010
,
00002002
00000000
00000000
00000000
,
00000000
00000000
00000000
00003003
;

//---------------dance-double - ----------------
#NOTES:
     dance-double:
     :
     Medium:
     6:
     :
00000000
00000000
00000000
00000000
,
00000000
00000000
00000000
00000000
,
00000000
00000000
00000000
00000000
,
00000000
00000000
00000000
00000000
,
00000000
00000000
00000000
00000000
,
00000001
00000100
00000010
00001000
,
00000010
00001000
00010000
01000000
,
00100000
00000000
00000000
00100000
01000000
00100000
01000000
00000000
,
00100000
00000000
00000000
10000000
01000000
10000000
01000000
00000000
,
00100000
10000000
01000000
00010000
,
00001000
00010000
00000100
00000010
,
00001000
00000000
00000000
00000001
00000100
00000100
00000100
00000000
,
00000001
00001000
00000001
00011000
,
00001000
00000100
00000100
00001000
,
00000010
00000000
00000000
00000010
00000000
00000000
00000010
00000000
,
00000001
00000010
00000010
00000001
,
00000100
00000000
00000000
00000100
00000000
00000000
00000100
00000000
,
00001000
00000100
00001000
00000100
00010000
00000100
00010000
00000100
,
00010000
00000000
00000000
00000000
00000000
00100000
10000000
00000000
,
00100000
00000000
00100000
00000000
01000000
00100000
01000000
00000000
,
00100000
00000000
00100000
00000000
10000000
00100000
10000000
00000000
,
00010000
00000000
00000000
00010000
01000000
00010000
01000000
00000000
,
00001000
00000000
00000000
00010000
00000010
00010000
00000010
00000000
,
00000100
00000000
00000100
00000000
00000010
00000010
00000010
00000000
,
00000010
00000000
00000010
00000000
00000100
00000100
00000100
00000000
,
00000001
00000000
00000000
00001000
00000010
00001000
00000010
00001000
,
00010000
00000000
00000000
00010000
01000000
00010000
01000000
00000000
,
00000000
00100000
00000000
00000000
00100000
00000000
00000000
00000000
,
00000000
00010000
00000000
00000000
00010000
00000000
00000000
00000000
,
00000000
00000010
00000000
00000000
00000010
00000000
00000000
00000000
,
00000000
00001000
00000000
00000000
00001000
00000000
00000000
00000000
,
00000010
00000001
00000010
00000001
00000100
00001000
00000100
00001000
,
00000010
00000000
00000000
00000000
00000000
00001000
00000100
00000000
,
00002000
00000000
00000001
00003001
,
00000200
00000000
00000010
00000310
,
00020000
00000000
00100000
00130000
,
20000000
00000000
30000000
00010000
00000000
00100000
00000000
20000000
,
00000000
00010000
00010000
30010000
,
00100000
10000000
01000000
00010000
,
00000100
00010000
00001000
00000010
,
00000001
00000000
00000000
00000000
00000000
00000100
00000010
00000000
,
00000200
00000001
00000001
00000301
,
00000020
00001000
00001000
00001030
,
00002000
00000100
00000010
00003100
,
00020000
01000000
00100000
01030000
,
00010000
00000000
20000000
00000000
00010000
00010000
30000000
00000000
,
00100000
00000000
00020000
00000000
00100000
00100000
00030000
00000000
,
01000000
00000000
20000000
00000000
01000000
01000000
30000000
00000000
,
01100000
00000000
00000000
00000000
00000000
00010000
00001000
00000000
,
00000000
00001000
00100000
00000000
00000000
00010000
00000010
00000000
,
00000000
00001000
01000000
00000000
00000000
00010000
00000100
00000000
,
00000010
00001000
00000001
00000000
00000100
00000001
00001000
00000000
,
00000110
00000000
00000000
00000000
00000010
00000100
00000010
00000000
,
00000001
00000001
00000001
00000000
00001000
00001000
00001000
00000000
,
00000010
00000010
00000010
00000000
00000100
00000100
00000000
00000100
,
00000002
00001000
00001000
00000000
00000000
00000100
00000103
00000000
,
00002000
00000001
00000001
00000000
00000000
00000010
00003010
00000000
,
00001000
00000100
00001000
00000000
00010000
00100000
00010000
00000000
,
00100000
00100000
10000000
00000000
01000000
01000000
00010000
00000000
,
00200000
00000000
00000000
01000000
00000000
00000000
01300000
00000000
,
02000000
00000000
00000000
00100000
00000000
00000000
03100000
00000000
,
00010000
10000000
10000000
00010000
,
00020000
00000000
00000000
01000000
00000000
00000000
00030000
00000000
,
00001000
00000010
00000100
00000001
,
00000200
00000000
00000000
00000010
00000000
00000000
00000300
00000000
,
00000001
00000010
00000100
00001000
00000001
00000010
00000100
00001000
,
00000110
00000000
00000000
00000000
00000000
00000010
00000100
00000000
,
00001010
00000000
00000100
00000000
00001000
00001000
00000100
00000000
,
00101000
00000000
01000000
00000000
10000000
10000000
01000000
00000000
,
00000000
00100000
00100000
00100000
00000000
01000000
01000000
01000000
,
00100000
00000000
00000000
00010000
00000000
20000000
00000000
00010000
,
00000000
00010000
00010000
30010000
,
00000000
00100000
00010000
00000100
,
00001000
00000100
00000010
00000001
,
00001010
00000000
00000000
00000000
00000010
00000100
00000001
00001000
,
00000220
00000000
00000000
00000000
,
00000000
00000000
00000000
00000330
;

//---------------dance-double - ----------------
#NOTES:
     dance-double:
     :
     Hard:
     8:
     :
00000000
00000000
00000000
00000000
,
00000000
00000000
00000000
00000000
,
00000000
00000000
00000000
00000000
,
00000000
00000000
00000000
00000000
,
00000000
00000000
00000000
00000000
00000000
00100000
10000000
01000000
,
10000000
01000000
00100000
00000000
00010000
00001000
00000100
00000000
,
00000010
00000001
00001000
00000010
00001000
00000010
00000100
00000000
,
00000020
00000000
00000000
00000000
00000000
00001000
00001000
00000000
,
00000000
00000000
00000000
00000000
00000030
00001000
00000010
00001000
,
00000001
00000010
00000100
00000000
00001000
01000000
00010000
00000000
,
10000000
01000000
00010000
01000000
00010000
00100000
10000000
00100000
,
02000000
00000000
03000000
02000000
00000000
00010000
00010000
00000000
,
00000000
00000000
00000000
00000000
03000000
00010000
01000000
00010000
,
10000000
00100000
00100000
00010000
,
00002000
00000000
00000000
00000200
00000000
00000000
00003300
00000000
,
00000000
00010000
00000010
00000001
,
00000200
00000000
00000000
00000320
00000000
00002030
00000000
00003002
,
00000000
00000000
00000000
00000003
00000100
00001000
00000100
00001000
,
00000110
00000000
00000000
00001001
,
00000010
00000000
00000001
00000010
00000001
00000010
00000001
00000000
,
00000100
00000000
00001000
00000100
00001000
00000100
00001000
00000000
,
00020000
00000000
00000000
00000000
00000000
00001000
00001000
00000000
,
00000000
00000000
00000000
00000000
00030000
00000010
00001000
00000100
,
00010000
00000000
00000000
00001000
00000000
00010000
00001000
00100000
,
01000000
00000000
00000000
00100000
00000000
01000000
00010000
01000000
,
00000000
00200000
00000000
00000000
,
00000000
00000000
00000000
00000000
00300000
00010000
01000000
00010000
,
10000000
00000000
00000000
00000000
10000000
00000000
00000000
00000000
10000000
00000000
00000000
00000000
00100000
00000000
10000000
00100000
,
01000000
00000000
00000000
00000000
01000000
00000000
00000000
00000000
01000000
00000000
00000000
00000000
00001000
00000000
00001000
01000000
,
00100000
00000000
00000000
00000000
00100000
00000000
00000000
00000000
00100000
00000000
00000000
00000000
00000010
00000000
00100000
00000010
,
00001000
00000000
00000000
00000000
00001000
00000000
00000000
00000000
00001000
00000000
00000000
00000000
00000100
00000000
00001000
00000100
,
00000010
00000001
00000010
00000001
00001000
00000100
00001000
00000100
,
00001001
00000000
00000000
00000000
00000000
00000100
00000010
00000100
,
00000002
00000000
00000003
00000010
00000100
00001000
00000100
00000010
,
00000002
00000000
00000003
00000010
00000100
00002000
00000000
00000000
,
00003000
00000010
00010000
00000010
00020000
00000000
00030000
00001000
,
00100000
00000000
00000000
00100000
00000000
00100000
00000000
00200000
,
00000000
00000000
00300000
01000000
,
00010000
00000000
00010000
01000000
00100000
00000000
10000000
00000000
,
10000000
00010000
10000000
00020000
00000000
20000000
00000000
00000000
,
00000000
00000000
00000000
00000000
30030000
00100000
10000000
00001000
,
00000000
00000000
00000000
00010000
00000100
00000000
00000100
00000000
,
00000100
00000000
00000010
00000001
00000010
00000001
00002000
00000000
,
00003000
00000010
00001000
00000010
00002000
00000000
00000002
00000000
,
00003003
00000000
00000000
00000110
00000000
00011000
00000000
00201000
,
00000000
00000100
00000100
00010000
,
00300000
00010000
00100000
00010000
01000000
00010000
01000000
00000000
,
10000000
00010000
00100000
01000000
10000000
00010000
00100000
01000000
,
20020000
00000000
00000000
00000000
30030000
01000000
00010000
10000000
,
00100000
00010000
00110000
00000000
01000000
00001000
01001000
00000000
,
00010000
00000010
00010010
00000000
00000100
00000010
00001010
00000000
,
00010001
00000100
00000010
00000000
00001000
00000100
00000010
00000000
,
00001001
00000000
00000000
00000110
,
00000001
00000010
00000001
00000010
00000001
00000100
00000001
00000100
,
00000001
00001000
00000001
00001000
00000100
00001000
00000100
00001000
,
00000200
00000000
00000000
00020300
00000000
00000000
00030000
00000000
,
00002000
00000000
00000000
02003000
00000000
00000000
03000000
00000000
,
00100000
10000000
00100000
10000000
00100000
10000000
00100000
10000000
,
01000000
00010000
01000000
00010000
01000000
00010000
01000000
00010000
,
00002000
00000000
00000000
00023000
00000000
00000000
00030000
00000000
,
00011000
00001010
00000011
00000101
,
00001002
00001000
00001000
00000103
,
00002010
00000000
00000000
00000001
00000000
00000000
00003010
00000000
,
00000102
00001000
00000100
00001003
,
00002010
00000000
00000000
00000010
00000000
00000010
00003000
00000000
,
00000010
00001000
00000010
00001000
00000100
00010000
00000100
00010000
,
00101000
00000000
00000000
00000000
00000000
01000000
00100000
01000000
,
00010000
00100000
00010000
00100000
00010000
00100000
00010000
00100000
,
01000000
10000000
01000000
10000000
01000000
10000000
01000000
10000000
,
00100000
10000000
00100000
00000000
01000000
00010000
01000000
00010000
,
20000000
00000000
00000000
30002000
00000000
00023000
00000000
00000020
,
00000000
00000000
00000000
00030030
,
00000000
00000000
00000100
00000010
00000100
00000010
00001001
00000000
,
00000000
00000001
00000010
00000100
00001000
00000100
00000010
00000000
,
00002001
00000000
00000000
00000000
00003000
00000000
00010000
00001000
,
00020000
00000000
00000000
00000000
,
00000000
00000000
00000000
00030000
;
