#TITLE:SIZE OF A COW;
#ARTIST:THE WONDERSTUFF;
#BANNER:SIZE OF A COW.png;
#BACKGROUND:SIZE OF A COW-bg.png;
#CDTITLE:./CDTITLES/DANCING STAGE UNLEASHED.png;
#MUSIC:SIZE OF A COW.ogg;
#SAMPLESTART:43.36;
#SAMPLELENGTH:15;
#DISPLAYBPM:148;
#BPMS:0=151.26,12=149.28,40=146.34,44=149.37,76=149.22,108=149.37,124=148.76,156=149.22,188=148.76,192=149.48,221=148.45,237=145.16,238=150,244=148.45,260=150,264=142.4,266.5=135;

//---------------dance-single - ----------------
#NOTES:
     dance-single:
     :
     Easy:
     4:
     :
0000
0000
0000
0000
,
0000
0000
0000
0000
,
0000
0000
0000
0000
,
1000
0000
0100
0010
,
0100
0000
1000
0001
,
0010
0000
0100
0000
,
0010
0001
0010
0100
,
0010
0000
0001
1000
,
0010
0000
0010
1000
,
0100
0000
0010
0001
,
1001
0000
0001
1000
,
0100
0000
0010
0010
,
0001
0000
0001
1000
,
1000
0000
0001
0010
,
0001
0000
0100
0010
,
0100
0000
0010
0100
,
0001
0000
0010
0010
,
0100
0000
0100
0010
,
0020
0000
0000
0030
,
1000
0100
0000
0100
,
0010
0000
0100
1000
,
0000
0000
2000
0000
0000
3000
0002
0000
,
0000
0003
0200
0000
0000
0300
0020
0000
,
1000
1030
0000
0010
,
1000
0010
0100
0100
,
0010
0000
0100
0010
,
1000
0000
0100
1000
,
0010
0000
0100
0001
,
0010
0000
0100
1000
,
0100
0000
0010
0001
,
0110
0000
0010
0100
,
0000
0010
1001
0000
,
0100
0000
0100
0010
,
1000
0000
0010
0100
,
1010
0000
0001
0100
,
0010
0000
1001
1001
,
0100
0000
0010
0100
,
1000
0000
0001
0010
,
0100
1000
1001
0000
,
2000
0000
3200
0000
,
0320
0000
0032
0000
,
0203
0000
0320
0000
,
2030
0000
3002
0000
,
0023
0000
0230
0000
,
2300
0000
3200
0000
,
0320
0000
0032
0000
,
2000
0000
0000
3003
,
1001
0100
0010
0001
,
0010
0100
1000
0001
,
0000
0000
2000
0000
0000
3000
0002
0000
,
0000
0003
0200
0000
0000
0300
0020
0000
,
1000
1030
0000
0010
,
1000
0010
0100
0100
,
0010
0000
0100
0010
,
1000
0000
0100
0010
,
1001
0000
0100
0001
,
0010
0000
0100
1000
,
0100
0000
0010
0001
,
0110
0000
0010
0100
,
0000
1000
0001
0000
,
0100
0000
0010
0000
,
1000
0001
0010
0100
,
1001
1000
0001
0100
,
0010
1000
0001
0010
,
0100
0000
0010
0100
,
1000
0000
0001
0010
,
0110
0000
0000
0000
0000
0000
0000
0000
0000
0000
0000
0000
0000
0000
0000
0100
0000
0000
0000
0000
0010
0000
0000
0000
0000
0000
0000
0000
0000
0000
0000
0000
,
1001
0000
0000
0000
;

//---------------dance-single - ----------------
#NOTES:
     dance-single:
     :
     Medium:
     5:
     :
0000
0000
0000
0000
,
0000
0000
0000
0000
,
0000
0000
0000
0000
,
1000
0000
0000
0100
0000
0000
0010
0000
0000
0001
0000
0010
,
0001
0000
0000
0100
0000
0000
0010
0000
0000
1000
0000
0001
,
1000
0000
0100
0000
,
0010
1000
0010
0100
,
0001
0000
0000
0100
0000
0000
0010
0000
0000
1000
0000
0010
,
1000
0000
0000
0100
0000
0000
0010
0000
0000
0001
0000
1000
,
0001
0000
0010
0001
,
2002
0000
0000
3003
,
1000
0100
0010
0001
,
1000
0000
0000
0001
0000
0000
1000
0000
0001
1000
0000
0000
,
0001
0000
0010
0001
,
1000
0000
0000
0000
0000
0000
0010
0000
0100
0010
0000
0000
,
0100
0000
0010
0100
,
1000
0000
0000
0001
0000
0000
0100
0000
0010
0100
0000
0000
,
0010
0000
0100
0010
,
0020
0000
0000
0030
,
0001
0100
0010
1000
,
0100
0010
0001
1000
,
1001
2000
3100
0002
,
0103
2000
3100
0020
,
1000
1030
0010
1000
,
0001
0010
0100
1000
,
0010
0000
1001
0000
,
0001
0010
0100
1001
,
0010
0001
0100
0001
,
0010
0100
1000
0100
,
0010
0001
0010
0001
,
1001
0000
0000
0000
0000
0000
1000
0000
0001
0001
0000
0001
,
0001
0010
2002
0000
,
3003
1000
0100
0010
,
0001
0000
0000
0010
0000
0000
0100
0000
0000
1000
0000
0100
,
0100
1000
0001
0100
,
0010
1000
2001
0001
,
3002
0000
0100
0100
,
0203
0000
0001
0301
,
0110
0000
0000
0010
0000
0100
0010
0000
0000
0000
0000
0000
,
1000
0000
0000
0000
0100
0000
0001
0000
0000
0000
0100
0000
,
0010
0000
0000
0000
1000
0000
0100
0000
0000
0000
1000
0000
,
0001
0000
0000
0000
0100
0000
1000
0000
0000
0000
0100
0000
,
0010
0000
0000
0000
0001
0000
0100
0000
0000
0000
0001
0000
,
1000
0000
0000
0000
0100
0000
0001
0000
0000
0000
0100
0000
,
0010
0000
0000
0000
1000
0000
0100
0000
0000
0000
1000
0000
,
0001
0000
0000
0000
0100
0000
1000
0000
0000
0000
0100
0000
,
0010
0000
0000
0000
0001
0000
0100
0000
0000
0000
0001
0000
,
1000
0100
1000
0100
,
0010
0001
0100
1000
,
1001
2000
3100
0002
,
0103
2000
3100
0020
,
1000
1030
0010
1000
,
0001
0010
0100
0100
,
0010
0000
0100
0010
,
0001
0010
0100
1001
,
0010
0001
0100
0010
,
1000
0100
0010
0001
,
0200
0000
0010
0301
,
0101
1000
0100
0010
,
0001
1000
0002
0000
,
0003
0010
0100
1000
,
0001
0000
0000
0000
0000
0000
0100
0000
0000
0010
0000
0100
,
0010
0000
1000
0100
,
0010
0000
2001
0001
,
3002
0000
0100
0100
,
0203
0000
0001
0301
,
0110
0000
0000
0000
0000
0000
0000
0000
0010
0000
0000
0000
0000
0000
0000
0100
0000
0000
0000
0000
0010
0000
0000
0000
0000
0000
0000
0000
0000
0000
0000
0000
,
1001
0000
0000
0000
;

//---------------dance-single - ----------------
#NOTES:
     dance-single:
     :
     Hard:
     6:
     :
0000
0000
0000
0000
,
0000
0000
0000
0000
,
0000
0000
0000
0000
,
1000
0000
0000
0001
0000
0000
1000
0000
0100
0010
0000
0001
,
0100
0000
0000
0010
0000
0000
1001
0000
0000
0001
0000
1000
,
0001
0010
0100
1000
,
0010
0000
0000
1000
0000
0001
1000
0000
0000
0100
0000
0000
,
0010
0000
0000
0001
0000
0000
1000
0000
0000
0001
0000
1000
,
0001
0000
0000
0100
0000
0000
0010
0000
0000
0100
0000
0001
,
0100
0000
0000
0001
0000
0000
0010
0000
0000
0001
0000
0010
,
0000
0000
0000
1000
0000
0001
0000
0000
0001
0000
0000
0000
,
1000
0000
0001
1000
0000
0001
0010
0000
0001
0010
0000
0001
,
0000
0000
0010
0100
0000
0000
1000
0000
0001
1000
0000
0001
,
0000
0000
0000
0011
0000
0000
1000
0000
0100
0000
0000
0000
,
1100
0000
0000
0000
0000
0000
0001
0000
0100
0000
0000
0000
,
0100
0001
0010
0100
,
1000
0000
0000
0011
0000
0000
0100
0000
0010
0100
0000
0000
,
1000
0000
0010
1000
0000
0000
0100
0000
0000
0011
0000
0000
,
0020
0000
0001
0031
,
1000
0000
0000
0100
0000
0010
0001
0000
0000
0100
0000
0000
,
0010
0000
0000
1000
0000
0000
0100
0000
0010
0001
0000
0000
,
1001
0000
1002
0000
0000
0003
2001
0000
,
0000
3000
0210
0000
0000
0300
0120
0000
,
0001
0031
0101
0010
,
1000
0100
0010
0001
,
0010
0000
0000
0000
0000
0000
0000
0000
0100
0000
0000
0000
0000
0000
0000
0000
0010
0000
0000
0100
0000
0000
0000
0000
0010
0000
0000
0000
0000
0000
0000
0000
,
0001
0000
0000
0000
0000
0000
0000
0000
0100
0000
0000
0010
0000
0000
0000
0000
0100
0000
0000
0010
0000
0000
0000
0000
0100
0000
0000
0000
0000
0000
0000
0000
,
1001
0220
0330
1001
,
1010
0101
0110
1010
,
0100
0000
0000
0001
0000
0000
0000
0000
0100
0000
0000
0000
0000
0000
0000
0000
0010
0000
0000
0000
0000
0000
0000
0000
0001
0000
0000
0000
0000
0000
0000
0000
,
0110
0000
0000
1000
0000
0000
0001
0000
0100
0100
0000
0100
,
0100
0000
0000
0000
0000
0000
0000
0000
0000
0000
0000
0000
0000
0000
0000
0000
0000
0000
0000
0000
0000
0000
0000
0000
0000
0000
0000
0000
0000
0000
0000
0000
0000
0000
0000
0000
0000
0000
0000
0000
0000
0000
0000
0000
0000
0000
0000
0000
1000
0000
0000
0000
0000
0000
0000
0000
0000
0000
0000
0000
0000
0000
0000
0000
0000
0000
0000
0000
0000
0000
0000
0000
0000
0000
0000
0000
0000
0000
0000
0000
0000
0000
0000
0000
0000
0000
0000
0000
0000
0000
0000
0000
0000
0000
0000
0000
1000
0000
0000
0000
0000
0000
0000
0000
0000
0000
0000
0000
0000
0000
0000
0000
0000
0000
0000
0000
0000
0000
0000
0000
0000
0000
0000
0000
0000
0000
0000
0000
0001
0000
0000
0000
0000
0000
0000
0000
0000
0000
0000
0000
0000
0000
0000
0000
1000
0000
0000
0000
0000
0000
0000
0000
0000
0000
0000
0000
0000
0000
0000
0000
0000
0000
0001
0000
0000
0000
0000
0000
0000
0000
0000
0000
0000
0000
0000
0000
0000
0000
0000
0000
0000
0000
0000
0000
0000
0000
0000
0000
0000
0000
0000
0000
,
1000
0000
0000
0000
0000
0001
1000
0010
,
0100
0000
0000
0001
0000
0000
1000
0000
0000
0000
0000
0000
0010
0000
0000
0000
0000
0000
0010
0000
0000
0000
0100
0000
,
0100
0100
1000
0100
,
1010
0100
1001
1001
,
1000
0100
0010
0001
,
0011
0110
1100
1001
,
0110
0000
0000
0010
0000
1000
0100
0000
0000
0000
0000
0000
,
1000
0000
0100
0000
0100
0000
0001
0000
0100
0000
0100
0000
,
0010
0000
1000
0000
1000
0000
0100
0000
1000
0000
1000
0000
,
0001
0000
0100
0000
0100
0000
1000
0000
0100
0000
0100
0000
,
0010
0000
0001
0000
0001
0000
0100
0000
0001
0000
0001
0000
,
1000
0000
0100
0000
0100
0000
0001
0000
0100
0000
0100
0000
,
0010
0000
1000
0000
1000
0000
0100
0000
1000
0000
1000
0000
,
0001
0000
0100
0000
0100
0000
1000
0000
0100
0000
0100
0000
,
0010
0000
0001
0000
0001
0000
0100
0000
0001
0000
0001
0000
,
1000
0100
0010
1001
,
0010
0100
1000
1001
,
0100
0000
2001
0000
0000
3000
1002
0000
,
0000
0003
0210
0000
0000
0300
0120
0000
,
1000
1030
0200
0320
,
0032
0023
0230
2300
,
3001
1001
0200
0320
,
0032
0000
0000
0000
0013
0000
0000
0000
0100
0010
0100
0010
0100
0010
0000
0000
,
0010
1001
0110
1000
,
0010
0000
0000
1000
0000
0010
0100
0000
0000
0001
0000
0010
,
0100
1000
0010
0100
,
0101
0110
1010
2002
,
3003
0110
1001
0001
,
1000
0000
0001
1000
0000
0001
0000
0000
0000
0000
0000
0000
,
1000
0000
0000
0010
0000
0000
1010
0000
0000
0001
0000
0100
,
0100
0100
1001
0100
,
0010
0100
1001
2001
,
3200
0320
0031
0101
,
1002
0000
0000
0023
0000
0000
0031
0000
0000
0010
0000
0100
,
0010
0000
0000
0000
0000
0000
0000
0000
0001
0000
0000
0000
0000
0000
0000
0100
0000
0000
0000
0000
0010
0000
0000
0000
1000
0000
0000
0000
0000
0000
0000
0000
,
0101
0000
0000
0000
;

//---------------dance-double - ----------------
#NOTES:
     dance-double:
     :
     Easy:
     4:
     :
00000000
00000000
00000000
00000000
,
00000000
00000000
00000000
00000000
,
00000000
00000000
00000000
00000000
,
10000000
00000000
01000000
00100000
,
01000000
00000000
00100000
00001000
,
00010000
00000000
00000100
00000000
,
00000010
00000001
00000010
00000100
,
00010000
00000000
00001000
01000000
,
00100000
00000000
10000000
00010000
,
01000000
00000000
00001000
00010000
,
00011000
00000000
01000000
00010000
,
01000000
00000000
00100000
10000000
,
00010000
00000000
01000000
00001000
,
00010000
00000000
00000100
00000010
,
00000001
00000000
00000100
00000010
,
00010000
00000000
00001000
01000000
,
00010000
00000000
00100000
00100000
,
01000000
00000000
01000000
00100000
,
00200000
00000000
00000000
00300000
,
00001000
00010000
00000000
00000100
,
00000010
00000000
00000100
00001000
,
00000000
00000000
00002000
00000000
00000000
00003000
00000002
00000000
,
00000000
00000003
00000200
00000000
00000000
00000300
00000020
00000000
,
00001000
00001030
00000000
00000010
,
00001000
00000010
00000100
00000100
,
00000010
00000000
00000100
00000010
,
00010000
00000000
00001000
01000000
,
00100000
00000000
01000000
00010000
,
00100000
00000000
01000000
10000000
,
01000000
00000000
00100000
00010000
,
01100000
00000000
00100000
01000000
,
00000000
00100000
10010000
00000000
,
01000000
00000000
01000000
00100000
,
10000000
00000000
00100000
01000000
,
00011000
00000000
00010000
00000100
,
00000010
00000000
00001001
00001001
,
00000100
00000000
00000010
00000100
,
00001000
00000000
00000100
00010000
,
00001000
00100000
00010000
00000000
,
20000000
00000000
32000000
00000000
,
03200000
00000000
00320000
00000000
,
02030000
00000000
03002000
00000000
,
00023000
00000000
00030200
00000000
,
00000320
00000000
00000230
00000000
,
00002300
00000000
00003200
00000000
,
00000320
00000000
00000032
00000000
,
00002000
00000000
00000000
00003003
,
00001001
00000100
00000010
00000001
,
00000010
00000100
00001000
00000001
,
00000000
00000000
00002000
00000000
00000000
00003000
00000002
00000000
,
00000000
00000003
00000200
00000000
00000000
00000300
00000020
00000000
,
00001000
00001030
00000000
00000100
,
00010000
00001000
01000000
01000000
,
00100000
00000000
01000000
00100000
,
10000000
00000000
01000000
00100000
,
10010000
00000000
01000000
00010000
,
00100000
00000000
01000000
10000000
,
01000000
00000000
00100000
00010000
,
00011000
00000000
00000010
00000100
,
00000000
00001000
00000001
00000000
,
00000100
00000000
00000010
00000000
,
00001000
00000001
00000010
00000100
,
00001001
00000001
00000010
00000100
,
00010000
00001000
01000000
00100000
,
01000000
00000000
00001000
00010000
,
00000100
00000000
00001000
00000010
,
00000110
00000000
00000000
00000000
00000000
00000000
00000000
00000000
00000000
00000000
00000000
00000000
00000000
00000000
00000000
00000100
00000000
00000000
00000000
00000000
00000010
00000000
00000000
00000000
00000000
00000000
00000000
00000000
00000000
00000000
00000000
00000000
,
00001001
00000000
00000000
00000000
;

//---------------dance-double - ----------------
#NOTES:
     dance-double:
     :
     Medium:
     6:
     :
00000000
00000000
00000000
00000000
,
00000000
00000000
00000000
00000000
,
00000000
00000000
00000000
00000000
,
10000000
00000000
00000000
01000000
00000000
00000000
00100000
00000000
00000000
00010000
00000000
00100000
,
00010000
00000000
00000000
01000000
00000000
00000000
00100000
00000000
00000000
10000000
00000000
00010000
,
10000000
00000000
01000000
00000000
,
00001000
00010000
00000010
00000100
,
00000001
00000000
00000000
00000100
00000000
00000000
00000010
00000000
00000000
00010000
00000000
00001000
,
00010000
00000000
00000000
01000000
00000000
00000000
00100000
00000000
00000000
10000000
00000000
00010000
,
10000000
00000000
00100000
00010000
,
20020000
00000000
00000000
30030000
,
10000000
01000000
00100000
00001000
,
00010000
00000000
00000000
00000100
00000000
00000000
00001000
00000000
00000001
00001000
00000000
00000000
,
00000001
00000000
00000010
00000001
,
00001000
00000000
00000000
00000000
00000000
00000000
00000010
00000000
00000100
00000010
00000000
00000000
,
00000100
00000000
00000010
00000100
,
00001000
00000000
00000000
00000001
00000000
00000000
00000100
00000000
00000010
00000100
00000000
00000000
,
00000010
00000000
00000100
00000010
,
00020000
00000000
00000000
00030000
,
00001000
01000000
00100000
10000000
,
01000000
00100000
00001000
00010000
,
00001100
00002000
00003100
00000002
,
00000103
00002000
00003100
00000020
,
00001000
00001030
00000010
00010000
,
00001000
00100000
01000000
10000000
,
00100000
00000000
10010000
00000000
,
00010000
00100000
01000000
10010000
,
00100000
00010000
01000000
00010000
,
00100000
01000000
10000000
01000000
,
00100000
00001000
00010000
00000100
,
00001001
00000000
00000000
00000000
00000000
00000000
00001000
00000000
00000001
00000001
00000000
00000001
,
00000001
00000010
00002002
00000000
,
00003003
00001000
00000100
00000010
,
00000001
00000000
00000000
00000010
00000000
00000000
00000100
00000000
00000000
00001000
00000000
00000100
,
00000100
00010000
00001000
01000000
,
00100000
10000000
20010000
00010000
,
30020000
00000000
01000000
01000000
,
02030000
00000000
00010000
03010000
,
01100000
00000000
00000000
00100000
00000000
01000000
00100000
00000000
00000000
00000000
00000000
00000000
,
10000000
00000000
00000000
00000000
01000000
00000000
00010000
00000000
00000000
00000000
01000000
00000000
,
00100000
00000000
00000000
00000000
10000000
00000000
01000000
00000000
00000000
00000000
00100000
00000000
,
00001000
00000000
00000000
00000000
00010000
00000000
00000100
00000000
00000000
00000000
00001000
00000000
,
00000010
00000000
00000000
00000000
00001000
00000000
00000001
00000000
00000000
00000000
00000100
00000000
,
00000010
00000000
00000000
00000000
00001000
00000000
00000100
00000000
00000000
00000000
00010000
00000000
,
00001000
00000000
00000000
00000000
00100000
00000000
01000000
00000000
00000000
00000000
10000000
00000000
,
00010000
00000000
00000000
00000000
01000000
00000000
10000000
00000000
00000000
00000000
01000000
00000000
,
00100000
00000000
00000000
00000000
00010000
00000000
01000000
00000000
00000000
00000000
00010000
00000000
,
10000000
01000000
10000000
01000000
,
00100000
00001000
00010000
00000100
,
00001001
00002000
00003100
00000002
,
00000103
00002000
00003100
00000020
,
00001000
00001030
00000010
00001000
,
00000001
00000010
00000100
00000100
,
00000010
00000000
00000100
00000010
,
00000001
00000010
00000100
00001001
,
00000010
00010000
00001000
00100000
,
00010000
01000000
00100000
10000000
,
02000000
00000000
00100000
13000000
,
11000000
10000000
01000000
00100000
,
00010000
10000000
20000000
00000000
,
30000000
01000000
00100000
00001000
,
00010000
00000000
00000000
00000000
00000000
00000000
00000100
00000000
00000000
00000010
00000000
00000100
,
00000010
00000000
00001000
00000100
,
00000010
00000000
00002001
00000001
,
00003002
00000000
00000100
00000100
,
00000203
00000000
00000001
00000301
,
00000110
00000000
00000000
00000000
00000000
00000000
00000000
00000000
00000010
00000000
00000000
00000000
00000000
00000000
00000000
00000100
00000000
00000000
00000000
00000000
00000010
00000000
00000000
00000000
00000000
00000000
00000000
00000000
00000000
00000000
00000000
00000000
,
00001001
00000000
00000000
00000000
;

//---------------dance-double - ----------------
#NOTES:
     dance-double:
     :
     Hard:
     8:
     :
00000000
00000000
00000000
00000000
,
00000000
00000000
00000000
00000000
,
00000000
00000000
00000000
00000000
,
10000000
00000000
00000000
00010000
00000000
00000000
10000000
00000000
01000000
00100000
00000000
00010000
,
01000000
00000000
00000000
00100000
00000000
00000000
10010000
00000000
00000000
00010000
00000000
10000000
,
00010000
00100000
01000000
10000000
,
00100000
00000000
00000000
10000000
00000000
00010000
10000000
00000000
00000000
01000000
00000000
00000000
,
00100000
00000000
00000000
00001000
00000000
00000000
00010000
00000000
00000000
00000010
00000000
00001000
,
00000010
00000000
00000000
00000100
00000000
00000000
00000010
00000000
00000000
00000100
00000000
00000001
,
00000100
00000000
00000000
00000001
00000000
00000000
00000010
00000000
00000000
00000001
00000000
00000010
,
00000000
00000000
00000000
00001000
00000000
00000001
00000000
00000000
00000001
00000000
00000000
00000000
,
00000100
00000000
00010000
00001000
00000000
00010000
00001000
00000000
00010000
00001000
00000000
00010000
,
00000000
00000000
00000010
00000100
00000000
00000000
00000010
00000000
00010000
00000010
00000000
00010000
,
00000000
00000000
00000000
00011000
00000000
00000000
00001000
00000000
01000000
00000000
00000000
00000000
,
10010000
00000000
00000000
00000000
00000000
00000000
00010000
00000000
01000000
00000000
00000000
00000000
,
01000000
00010000
00100000
01000000
,
10000000
00000000
00000000
00110000
00000000
00000000
01000000
00000000
00100000
01000000
00000000
00000000
,
10000000
00000000
00100000
10000000
00000000
00000000
01000000
00000000
00000000
00110000
00000000
00000000
,
00002000
00000000
00010000
00013000
,
00000010
00000000
00000000
00000100
00000000
00000010
00000001
00000000
00000000
00000100
00000000
00000000
,
00000010
00000000
00000000
00001000
00000000
00000000
00000100
00000000
00000010
00000001
00000000
00000000
,
00001001
00000000
00001002
00000000
00000000
00000003
00002001
00000000
,
00000000
00003000
00000210
00000000
00000000
00000300
00000120
00000000
,
00000001
00000031
00000101
00000010
,
00010000
00001000
00100000
00010000
,
00100000
00000000
00000000
00000000
00000000
00000000
00000000
00000000
01000000
00000000
00000000
00000000
00000000
00000000
00000000
00000000
00100000
00000000
00000000
01000000
00000000
00000000
00000000
00000000
00100000
00000000
00000000
00000000
00000000
00000000
00000000
00000000
,
00010000
00000000
00000000
00000000
00000000
00000000
00000000
00000000
01000000
00000000
00000000
00100000
00000000
00000000
00000000
00000000
01000000
00000000
00000000
00100000
00000000
00000000
00000000
00000000
01000000
00000000
00000000
00000000
00000000
00000000
00000000
00000000
,
10010000
02200000
03300000
10010000
,
10100000
01010000
01100000
10100000
,
01000000
00000000
00000000
00010000
00000000
00000000
00000000
00000000
01000000
00000000
00000000
00000000
00000000
00000000
00000000
00000000
00100000
00000000
00000000
00000000
00000000
00000000
00000000
00000000
00010000
00000000
00000000
00000000
00000000
00000000
00000000
00000000
,
00011000
00000000
00000000
00000010
00000000
00000000
00001000
00000000
00000100
00000100
00000000
00000100
,
00000100
00000000
00000000
00000000
00000000
00000000
00000000
00000000
00000000
00000000
00000000
00000000
00000000
00000000
00000000
00000000
00000000
00000000
00000000
00000000
00000000
00000000
00000000
00000000
00000001
00000000
00000000
00000000
00000000
00000000
00000000
00000000
00000000
00000000
00000000
00000000
00000000
00000000
00000000
00000000
00000000
00000000
00000000
00000000
00000000
00000000
00000000
00000000
00001000
00000000
00000000
00000000
00000000
00000000
00000000
00000000
00000000
00000000
00000000
00000000
00000000
00000000
00000000
00000000
00000001
00000000
00000000
00000000
00000000
00000000
00000000
00000000
00001000
00000000
00000000
00000000
00000000
00000000
00000000
00000000
00000000
00000001
00000000
00000000
00000000
00000000
00000000
00000000
00000000
00000000
00000000
00000000
00000000
00000000
00000000
00000000
,
00001000
00000000
00000000
00000000
00000000
00000001
00001000
00000010
,
00000100
00000000
00000000
00000001
00000000
00000000
00001000
00000000
00000000
00000000
00000000
00000000
00000010
00000000
00000000
00000000
00000000
00000000
00000010
00000000
00000000
00000000
00000100
00000000
,
00000100
00000100
00001000
00000100
,
00001010
00000100
00011000
00011000
,
00001000
01000000
00100000
10000000
,
11000000
01100000
01010000
10010000
,
01100000
00000000
00000000
00100000
00000000
10000000
01000000
00000000
00000000
00000000
00000000
00000000
,
10000000
00000000
01000000
00000000
01000000
00000000
00010000
00000000
01000000
00000000
01000000
00000000
,
00100000
00000000
10000000
00000000
10000000
00000000
01000000
00000000
10000000
00000000
10000000
00000000
,
00010000
00000000
01000000
00000000
01000000
00000000
10000000
00000000
01000000
00000000
01000000
00000000
,
00100000
00000000
00010000
00000000
00010000
00000000
01000000
00000000
00001000
00000000
00001000
00000000
,
00010000
00000000
00000100
00000000
00000100
00000000
00001000
00000000
00000100
00000000
00000100
00000000
,
00000010
00000000
00000001
00000000
00000001
00000000
00000100
00000000
00001000
00000000
00001000
00000000
,
00000001
00000000
00000100
00000000
00000100
00000000
00001000
00000000
00000100
00000000
00000100
00000000
,
00000010
00000000
00000001
00000000
00000001
00000000
00000100
00000000
00000001
00000000
00000001
00000000
,
00001000
00000100
00010000
00011000
,
00100000
01000000
10000000
10010000
,
01000000
00000000
20010000
00000000
00000000
30000000
10020000
00000000
,
00000000
00030000
00012000
00000000
00000000
00003000
00000120
00000000
,
00001000
00001030
00000200
00020300
,
00032000
00203000
02300000
23000000
,
30010000
10010000
02000000
03200000
,
00320000
00000000
00000000
00000000
00130000
00000000
00000000
00000000
01000000
00100000
01000000
00100000
01000000
00100000
00000000
00000000
,
00100000
00011000
00001100
00000001
,
00000010
00000000
00000000
00000001
00000000
00000010
00000100
00000000
00000000
00001000
00000000
00000010
,
00000100
00000001
00000010
00000100
,
00001100
00000110
00000011
00002002
,
00003003
00000110
00001001
00000001
,
00001000
00000000
00000001
00001000
00000000
00000001
00000000
00000000
00000000
00000000
00000000
00000000
,
00000100
00000000
00000000
00010000
00000000
00000000
00011000
00000000
00000000
00010000
00000000
00010000
,
00010000
00001000
00011000
01000000
,
00100000
01000000
10010000
20010000
,
32000000
03200000
00310000
00011000
,
00000200
00000000
00000000
00000320
00000000
00000000
00000031
00000000
00000000
00000010
00000000
00000100
,
00000010
00000000
00000000
00000000
00000000
00000000
00000000
00000000
00000001
00000000
00000000
00000000
00000000
00000000
00000000
00000100
00000000
00000000
00000000
00000000
00000010
00000000
00000000
00000000
00001000
00000000
00000000
00000000
00000000
00000000
00000000
00000000
,
00000101
00000000
00000000
00000000
;
