#TITLE:NU FLOW;
#ARTIST:BIG BROVAZ;
#BANNER:NU FLOW.png;
#BACKGROUND:NU FLOW-bg.png;
#CDTITLE:./CDTITLES/DANCING STAGE UNLEASHED.png;
#MUSIC:NU FLOW.ogg;
#SAMPLESTART:20.94;
#SAMPLELENGTH:15;
#BPMS:0=148;

//---------------dance-single - ----------------
#NOTES:
     dance-single:
     :
     Easy:
     5:
     :
0000
0000
0000
0000
,
0000
0000
0000
0000
,
0000
0000
0000
0000
,
0000
0000
0000
0000
,
0000
0000
0000
0000
,
2002
0000
0003
0000
,
0020
0000
3030
0000
,
2002
0000
3000
0000
,
0200
0000
0303
0000
,
0220
0000
0030
0000
,
0002
0000
0303
0000
,
0220
0000
0300
0000
,
2000
0000
3030
0000
,
0010
1000
0001
0100
,
0100
0001
1000
0100
,
1000
0000
1000
1000
,
0201
0000
0001
0301
,
1000
0100
0000
0010
,
0002
1000
0103
0000
,
0002
1000
0203
0000
,
0310
0100
0010
0100
,
2002
0000
0000
3003
,
0220
0000
0000
0000
0000
0000
0330
0001
,
2000
0000
0000
0000
0100
0000
3000
0001
,
0010
0000
0000
0000
0010
0000
0000
0001
,
0200
0000
0000
0000
0301
0000
0000
1000
,
0001
2000
0100
3000
,
0010
0000
0000
0100
,
2000
0000
3002
0000
,
0203
0000
0301
1000
,
0100
0010
0000
0001
,
0220
0000
0330
1000
,
0200
0000
0000
1000
2300
0000
0000
0000
,
3020
0000
0000
0000
0030
0000
0000
1000
,
0002
0000
0013
0000
,
2001
0000
0100
3000
,
0002
0000
2003
0000
,
3002
0000
0000
0000
,
0000
0000
0003
0000
,
2000
0010
0001
3000
,
0010
0100
0001
0000
,
0002
0000
2003
0000
,
3020
0000
0030
0000
,
2002
0000
3003
0100
,
1001
0020
0000
0030
,
0200
0000
0301
1000
,
0010
0100
0010
0100
,
0020
0000
1000
0030
,
1000
0001
0100
0100
,
0010
0100
0002
0003
,
0100
0000
0000
1000
1000
0000
0000
0001
,
0001
0000
0002
0000
0000
0000
0003
0100
,
0100
0001
1000
1000
,
0001
0100
0001
0100
,
0001
0000
1000
0000
,
0200
0000
0000
0000
,
0000
0000
0000
0300
,
1000
0000
0000
1000
0100
0000
0000
0000
,
0001
0000
0000
0001
0100
0000
0000
0000
,
1000
0000
0000
0001
0100
0000
0000
0000
,
0020
0000
0100
0000
,
0030
0000
0000
0001
0010
0000
0000
0000
,
0001
0000
0000
1000
0100
0000
0000
0000
,
0001
0000
0000
1000
1000
0000
0000
0000
,
2002
0000
0000
0000
,
3003
0000
0000
0000
;

//---------------dance-single - ----------------
#NOTES:
     dance-single:
     :
     Medium:
     6:
     :
0000
0000
0000
0000
,
0000
0000
0000
0000
,
0000
0000
0000
0000
,
0000
0000
0000
0000
,
0000
0000
0000
0000
,
2002
0000
0000
0000
0003
0000
0000
0010
,
0020
0000
0000
0000
3030
0000
0000
1000
,
2002
0000
0000
0000
3000
0000
0000
0100
,
0200
0000
0000
0000
0303
0000
0000
0010
,
0220
0000
0000
0000
0030
0000
0000
0001
,
0002
0000
0000
0000
0303
0000
0000
0100
,
0220
0000
0000
0000
0300
0000
0000
1000
,
2000
0000
0000
0000
3030
0000
0000
1000
,
0010
0000
1000
0000
0001
0000
0100
0010
,
0100
0000
0001
0000
1000
0000
0100
1000
,
0001
0000
0000
0000
1000
0000
1000
0010
,
0200
0000
0001
0301
,
1000
0000
0100
0000
0000
0000
0010
0001
,
2000
0000
0001
0000
3100
0000
0000
0010
,
0002
1000
0203
0000
,
0310
0000
0100
0000
0010
0000
0100
0010
,
2002
0000
0000
0000
0000
0000
3003
0100
,
0220
0000
0000
0000
0000
0000
0330
0001
,
2000
0000
0000
0000
0100
0000
3001
0001
,
0010
0000
0000
0001
0010
0000
0001
1000
,
0200
0000
0000
0000
1300
0000
0000
0010
,
1000
0000
2000
0000
0100
0000
3001
0100
,
0010
0000
0000
0000
0000
0000
0100
0001
,
2000
0000
0000
0001
3002
0000
0000
0100
,
0203
0000
0000
0000
0301
0000
1000
0010
,
0100
0010
1000
0001
,
0220
0000
0330
1000
,
0210
0000
0000
0001
0302
0000
0000
0010
,
0023
0000
0030
0000
0100
0000
0010
0001
,
1002
0000
0013
0100
,
2001
0000
0100
3010
,
1002
0000
0000
0010
0023
0000
0000
0001
,
0032
0000
0000
1000
,
0000
0000
1000
0000
0003
0000
1000
0001
,
2000
0000
0010
0000
0001
0000
3000
0001
,
0010
0000
0100
1000
0001
0000
0000
0100
,
0002
0000
2003
0000
,
3100
0000
0010
0001
0010
0001
0010
0001
,
2002
0000
0000
0000
3003
0000
0100
0001
,
1000
0000
0010
1000
0010
1000
0010
1000
,
0200
0000
0000
0000
1300
0000
0001
1000
,
0010
0000
0100
0000
0010
0000
0100
0001
,
0020
0000
0000
0000
0001
0000
0130
0001
,
1000
0000
0001
1000
0100
0000
0010
0001
,
0010
0000
0100
1000
0002
0000
0103
1000
,
0001
0000
1000
0100
1000
0000
0010
0100
,
0001
0000
0002
0000
0000
0000
1003
0001
,
0100
0000
0100
0001
1000
0000
1001
0000
,
1000
0000
0100
0000
1000
0000
0100
0010
,
0001
0000
0001
0010
0100
0000
1000
0010
,
0200
0000
0000
0000
,
0002
0000
0000
0000
0003
0000
0300
0001
,
1000
0000
0000
1000
0100
0000
0000
0010
,
0001
0000
0000
0001
0100
0000
0000
0100
,
0001
0000
0000
0001
0100
0000
0000
0100
,
0020
0000
0000
1000
1000
0000
0000
1000
,
1030
0000
0000
0001
0010
0000
0000
0100
,
1000
0000
0000
1000
0100
0000
0000
0010
,
0001
0000
0000
1000
1001
0000
0000
0000
,
2002
0000
0000
0000
,
3003
0000
0000
0000
;

//---------------dance-single - ----------------
#NOTES:
     dance-single:
     :
     Hard:
     7:
     :
0000
0000
0000
0000
,
0000
0000
0000
0000
,
0000
0000
0000
0000
,
0000
0000
0000
0000
,
0000
0000
0000
0000
,
2002
0000
0000
0000
0003
0000
0000
0010
,
0020
0000
0000
0000
3030
0000
0000
1000
,
2002
0000
0000
0000
3000
0000
0000
0100
,
0200
0000
0000
0000
0303
0000
0000
0010
,
0220
0000
0000
0000
0030
0000
0000
0001
,
0002
0000
0000
0000
0303
0000
0000
0100
,
0220
0000
0000
0000
0300
0000
0000
1000
,
2000
0000
0000
0000
3030
0000
0000
1000
,
0110
0000
1000
0100
2000
0000
3100
0010
,
0200
0000
1300
0001
1000
0001
0100
0001
,
2000
0000
3000
0001
0001
1000
1000
0010
,
0200
0000
0000
0001
0001
0000
0301
0010
,
0002
0000
0203
0000
0000
0000
0310
0001
,
2000
0000
0001
0001
3100
0000
0100
0010
,
0002
0000
1000
0000
0203
0000
0000
0010
,
0310
0000
0100
0001
0010
0000
0100
0010
,
0002
0000
2000
0000
0000
0000
3003
0100
,
0220
0000
0000
0000
0000
0000
0330
0001
,
2000
0000
0001
0000
0200
0000
3300
0100
,
1000
0000
0001
1000
0010
1000
0001
1000
,
0200
0000
0000
1000
1300
0000
0000
0010
,
1020
0000
2030
0000
0100
0000
3001
0100
,
0020
0000
0000
0000
0030
0000
0100
0010
,
2000
0000
0000
0001
3002
0000
0000
0100
,
0103
0000
1000
0001
1000
0010
1000
0010
,
0200
0000
0010
0000
0300
0000
0001
1000
,
0020
0000
0200
0000
0330
0000
1000
1000
,
0220
0000
0030
0001
0302
0000
0000
0010
,
0013
0000
0000
1000
0100
1000
0010
1000
,
0002
0000
0000
0000
0023
0000
0030
0001
,
2000
0000
0200
0000
0300
0000
3010
1000
,
0002
0000
0000
0010
0023
0000
0000
0001
,
0032
0000
0000
1000
,
0000
2000
0003
3000
,
0000
0000
0000
1000
0001
0000
1000
0000
0010
0000
1000
0000
0001
0000
1000
0000
,
0100
0000
0100
1000
0002
0000
0003
0100
,
0000
0000
0000
1000
0001
0000
1000
0000
0010
0000
1000
0000
0001
0000
1000
0000
,
0100
0000
0100
1000
0002
0000
0003
1000
,
0002
0000
2000
0000
3003
0000
0100
0001
,
1000
0000
0010
1000
0010
1000
0010
1000
,
0002
0000
0203
0000
0301
0000
1000
0010
,
0100
0000
0100
0000
0010
0000
0010
1000
,
0020
0000
0000
0000
1000
0000
0130
0001
,
2000
0000
3001
0001
0100
0000
0100
0001
,
0100
0000
0010
1000
0002
0000
0103
0001
,
1000
0000
1000
0100
1100
0000
0010
0100
,
0110
0000
1002
0000
0000
0000
1003
0001
,
1001
0000
0100
0001
1001
0000
0001
0100
,
0001
0000
0100
0001
2000
0000
3100
0010
,
0001
0000
0001
0010
0100
0000
1000
0010
,
0200
0000
0000
0300
,
1000
0001
0100
0001
1000
0001
0010
0001
1000
0001
0100
0001
1000
0000
0001
0000
,
1000
0000
0010
1000
0100
0000
1000
0010
,
1000
0000
0010
1000
0100
0000
1000
0100
,
1000
0000
0010
1000
0010
0000
0000
0100
,
0200
0000
0000
0001
0001
0000
0000
0010
,
0310
0000
0100
0001
0010
0000
0001
0100
,
0001
0000
0010
0001
0100
0000
0001
0010
,
0001
0000
0000
1000
0001
0000
0000
0000
,
2002
0000
0000
0000
,
3003
0000
0000
0000
;

//---------------dance-double - ----------------
#NOTES:
     dance-double:
     :
     Easy:
     4:
     :
00000000
00000000
00000000
00000000
,
00000000
00000000
00000000
00000000
,
00000000
00000000
00000000
00000000
,
00000000
00000000
00000000
00000000
,
00000000
00000000
00000000
00000000
,
20020000
00000000
30000000
00000000
,
00200000
00000000
00330000
00000000
,
00022000
00000000
00003000
00000000
,
00002000
00000000
00033000
00000000
,
00002020
00000000
00000030
00000000
,
00000002
00000000
00003003
00000000
,
00000220
00000000
00000030
00000000
,
00000002
00000000
00000303
00000000
,
00000010
00010000
00001000
01000000
,
00100000
10000000
00010000
01000000
,
00001000
00000000
00010000
00000100
,
00002000
00000000
00000001
00003001
,
00001000
00000100
00000000
00000010
,
00020000
00001000
00031000
00000000
,
00200000
00010000
00320000
00000000
,
10030000
01000000
00010000
00100000
,
00022000
00000000
00000000
00033000
,
02020000
00000000
00000000
03030000
,
20000000
00000000
00000000
00000000
01000000
00000000
30000000
00010000
,
00100000
00000000
00000000
00000000
00001000
00000000
00000000
00010000
,
00002000
00000000
00000000
00000000
00013000
00000000
00000000
00000010
,
00001000
00002000
00000100
00003000
,
00010000
00000000
00000000
00001000
,
00200000
00000000
00320000
00000000
,
02030000
00000000
03000000
00001000
,
00010000
00000010
00000000
00001000
,
00002020
00000000
00003030
00000100
,
00020000
00000000
00000000
00001000
00032000
00000000
00000000
00000000
,
00023000
00000000
00000000
00000000
00030000
00000000
00000000
00000010
,
00000200
00000000
00000310
00000000
,
00020000
00000000
00001000
00030000
,
00200000
00000000
02300000
00000000
,
03200000
00000000
00000000
00000000
,
00000000
00000000
00300000
00000000
,
00020000
00100000
00100000
00030000
,
00001000
00010000
00000010
00000000
,
00002000
00000000
00003002
00000000
,
00000203
00000000
00000300
00000000
,
00002020
00000000
00003030
00010000
,
00001000
02000000
00000000
03000000
,
00020000
00000000
00030000
00100000
,
00001000
00010000
00000010
00001000
,
00000002
00000000
00001000
00000003
,
00000100
00010000
00001000
01000000
,
00100000
01000000
00020000
00030000
,
01000000
00000000
00000000
00001000
00010000
00000000
00000000
00000010
,
00000010
00000000
00002000
00000000
00000000
00000000
00003000
00000100
,
00000100
00000010
00000001
00001000
,
00000100
00010000
00001000
01000000
,
00010000
00000000
00010000
00000000
,
02000000
00000000
00000000
00000000
,
00000000
00000000
00000000
03000000
,
00001000
00000000
00000000
00010000
00001000
00000000
00000000
00000000
,
00010000
00000000
00000000
00000100
00001000
00000000
00000000
00000000
,
00010000
00000000
00000000
00001000
00010000
00000000
00000000
00000000
,
02000000
00000000
00010000
00000000
,
03000000
00000000
00000000
00001000
00010000
00000000
00000000
00000000
,
00000010
00000000
00000000
00001000
00000001
00000000
00000000
00000000
,
00000100
00000000
00000000
00000001
00001000
00000000
00000000
00000000
,
00002002
00000000
00000000
00000000
,
00003003
00000000
00000000
00000000
;

//---------------dance-double - ----------------
#NOTES:
     dance-double:
     :
     Medium:
     7:
     :
00000000
00000000
00000000
00000000
,
00000000
00000000
00000000
00000000
,
00000000
00000000
00000000
00000000
,
00000000
00000000
00000000
00000000
,
00000000
00000000
00000000
00000000
,
20020000
00000000
00000000
00000000
30000000
00000000
00000000
00100000
,
00200000
00000000
00000000
00000000
00330000
00000000
00000000
00002000
,
00020000
00000000
00000000
00000000
00003000
00000000
00000000
00001000
,
00002000
00000000
00000000
00000000
00033000
00000000
00000000
02000000
,
00200000
00000000
00000000
00000000
00300000
00000000
00000000
00010000
,
00020000
00000000
00000000
00000000
03030000
00000000
00000000
00002000
,
00020000
00000000
00000000
00000000
00003000
00000000
00000000
00001000
,
00002000
00000000
00000000
00000000
00033000
00000000
00000000
00010000
,
00001000
00000000
01000000
00000000
00100000
00000000
01000000
00100000
,
01000000
00000000
00010000
00000000
00010000
00000000
01000000
00010000
,
01000000
00000000
00000000
00000000
00011000
00000000
00010000
00000010
,
00002000
00000000
00000001
00003100
,
00000100
00000000
00010000
00000000
00001000
00000000
00100000
00010000
,
20000000
00000000
00010000
00000000
31000000
00000000
00000000
00100000
,
00020000
10030000
02000000
00000000
,
03100000
00000000
00001000
00000000
00010000
00000000
00000010
00002000
,
00000002
00000000
00000000
00000000
00000000
00000000
00003003
00002000
,
00000002
00000000
00000000
00000000
00000000
00000000
00003003
00001000
,
00000002
00000000
00000000
00000000
00000000
00000000
00001003
00001000
,
00000100
00000000
00000000
00010000
00001000
00000000
00010000
00001000
,
00020000
00000000
00000000
00000000
00030000
00000000
00001000
00100000
,
00010000
00000000
20000000
00000000
00010000
00000000
30010000
10000000
,
00010000
00000000
00000000
00000000
00000000
00000000
01000000
00010000
,
02000000
00000000
00000000
00010000
03020000
00000000
00000000
10000000
,
20030000
00000000
00000000
00000000
30010000
00000000
01000000
00001000
,
00010000
00000010
00010000
00001000
,
00022000
00000000
00033000
00110000
,
20000000
00000000
00000000
00100000
30200000
00000000
00000000
01000000
,
02300000
00000000
03000000
00000000
00001000
00000000
00010000
00010000
,
00002000
00000000
00003000
01000000
,
00200000
00000000
01000000
10300000
,
01020000
00000000
00000000
00100000
00230000
00000000
00000000
00010000
,
00320000
00000000
00000000
00100000
,
00000000
00000000
00100000
00000000
00030000
00000000
00001000
00010000
,
00002000
00000000
00010000
00000000
00010000
00000000
00003000
00010000
,
00001000
00000000
00000100
00001000
00000001
00000000
00000000
00000100
,
00000002
00000000
00002003
00000000
,
00003100
00000000
00010000
00001000
01000000
00010000
10000000
00100000
,
02000000
00000000
00200000
00000000
03300000
00000000
00001000
00010000
,
00001000
00000000
00000010
00001000
00000001
00000100
00000010
00001000
,
00000002
00000000
00000000
00000000
00000103
00000000
00000010
00010000
,
00001000
00000000
01000000
00000000
00100000
00000000
01000000
00100000
,
00020000
00000000
00000000
00000000
10000000
00000000
01030000
00010000
,
01000000
00000000
00001000
00010000
00000100
00000000
00001000
00000100
,
00000010
00000000
00000100
00001000
00000200
00000000
00001300
00001000
,
00000010
00000000
00001000
00000100
00010000
00000000
00001000
00010000
,
00001000
00000000
00200000
00000000
00000000
00000000
00310000
00010000
,
01000000
00000000
01000000
00010000
01000000
00000000
00011000
00000000
,
00000010
00000000
00000100
00000000
00000001
00000000
00001000
00000010
,
00000100
00000000
00000001
00001000
00000100
00000000
00010000
00001000
,
00020000
00000000
00000000
00000000
,
00002000
00000000
00000000
00000000
00030000
00000000
00003000
00100000
,
00010000
00000000
00000000
10000000
01000000
00000000
00000000
00100000
,
00010000
00000000
00000000
00001000
00010000
00000000
00000000
00000100
,
00001000
00000000
00000010
00000000
00001000
00000000
00000000
00010000
,
00002000
00000000
00000000
00010000
00010000
00000000
00000000
00010000
,
00013000
00000000
00000000
00001000
00100000
00000000
00000000
01000000
,
00100000
00000000
00000000
00001000
00010000
00000000
00000000
00001000
,
01000000
00000000
00000000
00100000
10000000
00000000
00000000
00000000
,
20020000
00000000
00000000
00000000
,
30030000
00000000
00000000
00000000
;

//---------------dance-double - ----------------
#NOTES:
     dance-double:
     :
     Hard:
     9:
     :
00000000
00000000
00000000
00000000
,
00000000
00000000
00000000
00000000
,
00000000
00000000
00000000
00000000
,
00000000
00000000
00000000
00000000
,
00000000
00000000
00000000
00000000
,
00020000
00000000
20000000
00000000
30000000
00000000
00000000
00100000
,
00200000
00000000
00000000
00000000
00330000
00000000
00000000
00001000
,
00020000
00000000
00002000
00000000
00003000
00000000
00000000
00001000
,
00002000
00000000
00000000
00000000
00033000
00000000
00000000
00100000
,
02000000
00000000
00200000
00000000
00300000
00000000
00000000
00010000
,
00020000
00000000
00000000
00000000
03030000
00000000
00000000
00001000
,
00020000
00000000
00002000
00000000
00003000
00000000
00000000
00001000
,
00002000
00000000
00000000
00000000
00033000
00000000
00000000
00010000
,
00000100
00000000
00001000
00001000
00000002
00000000
00000103
00000010
,
00000200
00000000
00000301
00001000
00000100
00010000
00001000
00100000
,
00020000
00000000
00030000
10000000
00010000
10000000
10000000
00100000
,
02000000
00000000
00000000
00010000
00010000
00000000
03010000
00100000
,
00002000
00000000
00023000
00000000
00000000
00000000
00030000
00000010
,
00002000
00000000
00000001
00000001
00003100
00000000
00010000
00001000
,
00002000
00000000
00010000
00000000
00023000
00000000
00000000
00001000
,
00031000
00000000
01000000
00010000
00100000
00000000
01000000
00100000
,
00002000
00000000
00020000
00000000
00000000
00000000
00033000
01000000
,
00200000
00000000
02000000
00000000
00000000
00000000
03300000
00010000
,
20000000
00000000
00010000
00000000
02000000
00000000
33000000
00010000
,
00100000
00000000
00001000
00010000
00001000
00010000
00001000
00000000
,
02000000
00000000
03000000
00000000
00001000
00010000
00000000
00000010
,
00001000
00000000
00002000
00000000
00000100
00000000
00003001
00000100
,
00000020
00000000
00000000
00000000
00000030
00000000
00001000
00000100
,
00010000
00000000
00002000
00010000
00023000
00000000
00000000
00001000
,
00031000
00000000
00100000
00010000
10000000
00100000
10000000
00100000
,
02000000
00000000
00010000
00000000
03000000
00000000
00001000
00010000
,
00000200
00000000
00002000
00000000
00003300
00000000
00000010
00000010
,
00000200
00000000
00000000
00000001
00000302
00000000
00000000
00000010
,
00000013
00000000
00000000
00000100
00010000
00001000
00100000
00001000
,
00020000
00000000
00000000
00000000
00031000
00000000
01000000
00010000
,
00020000
00000000
20000000
00000000
30000000
00000000
00130000
00100000
,
00001000
00000000
00020000
00001000
00032000
00000000
00000000
00010000
,
00023000
00000000
00000000
00001000
,
00000000
00002000
00033000
00000010
,
00000000
00000000
00000000
00001000
00000001
00000000
00001000
00000000
00000010
00000000
00001000
00000000
00000001
00000000
00001000
00000000
,
00000100
00000000
00000100
00010000
00002000
00000000
00003000
01000000
,
00000000
00000000
00000000
00010000
10000000
00000000
00010000
00000000
00100000
00000000
00010000
00000000
20000000
00000000
00010000
00000000
,
31000000
00000000
01000000
00010000
20000000
00000000
30000000
00010000
,
00200000
00000000
00302000
00000000
00003000
00000000
00010000
00000100
,
00001000
00000000
00000001
00001000
00000010
00010000
00001000
01000000
,
00020000
00000000
02030000
00000000
03010000
00000000
00010000
10000000
,
01000000
00000000
00100000
00000000
00001000
00000000
00010000
00011000
,
00200000
00000000
00000000
00000000
00010000
00000000
01300000
00010000
,
20000000
00000000
30100000
00100000
01000000
00000000
01000000
00010000
,
02000000
00000000
03000000
00001000
00020000
00000000
00031000
00010000
,
00000010
00000000
00001000
00000100
00001100
00000000
00000010
00001000
,
00001010
00000000
00010000
00000000
00002000
00000000
00003000
01000000
,
01010000
00000000
01000000
00001000
00010000
00000000
00001000
01000000
,
00010000
00000000
01000000
00010000
20000000
00000000
30010000
00100000
,
00001000
00000000
00100000
00010000
01000000
00000000
00010000
10000000
,
00020000
00000000
00000000
00030000
,
10000000
00010000
01000000
00010000
10000000
00010000
00100000
00010000
10000000
00010000
01000000
00010000
10000000
00000000
00010000
00000000
,
10000000
00000000
01000000
00100000
00001000
00000000
00010000
00000010
,
00001000
00000000
00000100
00000010
00000100
00000000
00010000
00001000
,
01000000
00000000
00100000
10000000
01000000
00000000
00000000
10000000
,
20000000
00000000
00000000
00100000
00100000
00000000
00000000
00010000
,
30010000
00000000
00100000
00001000
00010000
00000000
00000010
00000100
,
00000001
00000000
00000010
00000001
00000100
00000000
00000001
00001000
,
00000100
00000000
00000000
00000010
00000011
00000000
00000000
00000000
,
00002002
00000000
00000000
00000000
,
00003003
00000000
00000000
00000000
;
