#TITLE:HEART OF GLASS;
#ARTIST:Blondie;
#BANNER:HEART OF GLASS.png;
#BACKGROUND:HEART OF GLASS-bg.png;
#CDTITLE:./CDTITLES/DANCING STAGE UNLEASHED.png;
#MUSIC:HEART OF GLASS.ogg;
#SAMPLESTART:18.62;
#SAMPLELENGTH:15;
#DISPLAYBPM:114;
#BPMS:0=114.46,68=119.2,72=114.44,100=114.4,103=114.21,108=113.2,112=114.47,157=114.65,181=113.79;

//---------------dance-single - ----------------
#NOTES:
     dance-single:
     :
     Easy:
     3:
     :
0000
0000
0000
0000
,
0000
0000
0000
0000
,
0000
0000
0000
0000
,
0000
0000
0000
0000
,
0000
0000
0000
0000
,
1000
0010
0000
0001
,
1000
0010
0000
0100
,
1000
0010
0000
0001
,
1000
0010
0000
0110
,
1000
0010
0000
0001
,
2000
0010
0000
3100
,
0000
0010
1000
0010
,
1000
0010
0000
0001
,
1000
0010
0000
0001
,
2000
0010
0000
3100
,
0010
1000
0000
0000
,
2002
0000
0000
0000
,
0000
0000
0000
3003
,
0010
0100
0001
1000
,
0000
0000
0001
0100
,
0010
1000
0001
0100
,
0001
0000
1000
0000
,
0010
0000
0100
0001
,
1000
0000
0010
1000
,
0002
0000
0000
0000
,
0000
0000
0000
0003
,
0010
1000
0001
0100
,
0010
0000
1000
0100
,
1000
0000
0001
0000
,
1000
0000
0100
0000
,
0010
0000
0001
0000
,
1000
0010
0100
0000
,
0100
0001
1000
0010
,
0010
1000
0000
0001
,
0010
0001
0000
1000
,
0100
0010
0000
0001
,
0100
0110
0000
0000
,
1000
0010
0000
0000
,
0010
1000
0000
0001
,
0010
0001
0000
1000
,
0100
0010
0002
0000
,
0000
2003
0000
0000
,
0000
0000
0000
0000
,
0000
3000
0001
1000
,
0010
1000
0001
0100
,
0001
1000
0000
0000
;

//---------------dance-single - ----------------
#NOTES:
     dance-single:
     :
     Medium:
     5:
     :
0000
0000
0000
0000
,
0000
0000
0000
0000
,
0000
0000
0000
0000
,
0000
0000
0000
0000
,
0000
0000
0000
0000
,
1000
0010
1000
0001
,
1000
0000
0010
0000
1000
0001
0100
0000
,
1000
0010
1000
0001
,
1000
0000
0010
0000
0100
0001
1000
0000
,
1001
0010
1000
0001
,
2000
0010
0001
3100
,
1000
0100
0010
0000
0001
0000
0001
0000
,
1000
0010
1000
0100
,
1000
0001
0010
0000
1000
0000
0001
0000
,
2000
0010
0001
3100
,
0010
0100
0001
1000
,
2002
0000
0000
0000
,
0003
0010
0010
0100
,
3001
1000
0010
1000
,
0100
1000
0001
0000
1000
0000
0100
0000
,
0010
1000
0001
0100
,
0001
1000
0010
0000
0010
0000
0100
0000
,
0010
1000
0100
0010
,
0001
1000
0100
0000
0010
0000
1000
0000
,
0002
0010
0000
0010
,
0010
1000
0100
0103
,
0010
1000
0001
0100
,
0010
0000
0000
0000
1000
0000
0000
0000
0001
0100
0000
0000
0100
0000
0000
0000
,
0001
0010
0001
1000
,
0100
0000
0000
0000
1000
0001
0000
0000
0100
0000
0000
0000
0010
0000
0000
0000
,
0010
1000
0001
1000
,
0001
0010
0000
0000
0100
0000
0000
0000
1000
0000
0000
0000
0000
0000
0000
0000
,
0100
0000
1000
0010
1000
0100
0010
0001
,
0010
0100
1000
0001
,
0010
0001
1000
0010
,
0100
0010
1000
0001
,
0100
0110
0010
0110
,
1000
0010
1000
0100
,
0010
0000
0001
1000
0010
0100
0001
0000
,
1000
0001
1000
0010
,
0100
1000
0002
1000
,
1000
2003
0010
0010
,
0001
0200
0000
0000
,
0000
3300
0001
1000
,
0010
1000
0001
0100
,
0001
1001
0000
0000
;

//---------------dance-single - ----------------
#NOTES:
     dance-single:
     :
     Hard:
     6:
     :
0000
0000
0000
0000
,
0000
0000
0000
0000
,
0000
0000
0000
0000
,
0000
0000
0000
0000
,
0000
0000
0000
0000
,
1000
0000
0000
1000
0010
0000
0000
0000
1000
0000
0000
0000
0100
0010
0000
0000
,
0001
0000
0000
0000
0010
0000
0000
0000
0001
0000
1000
0000
0100
0010
0000
0000
,
0001
0000
0000
0001
0010
0000
0000
0000
0001
0000
0000
0000
0100
0010
0000
0000
,
1000
0000
0000
0000
0100
0000
0000
0000
1000
0001
0000
0000
0100
0000
0010
0000
,
1000
0010
1000
0001
,
2000
0010
0100
3100
,
1000
0100
0010
0000
1000
0000
0011
0000
,
0100
1000
0001
0000
1000
0000
1100
0000
,
0001
1000
0010
0000
1000
0000
0001
0000
,
2000
0010
0001
3100
,
0010
0001
1000
0000
0001
0000
0010
0000
,
2002
0000
0000
0000
,
0003
0010
0010
3100
,
1001
0010
0001
1000
,
0100
1000
0001
0010
0100
1000
0001
0000
,
0010
1000
0001
0100
,
0001
1000
0010
0100
0001
1000
0100
0000
,
0010
1000
0100
0010
,
0001
1000
0010
0000
0010
0000
1000
0000
,
0002
0010
0100
0010
,
1000
0010
0010
1003
,
0001
0000
1000
0100
0010
0000
0100
0010
,
0100
0000
0010
0000
0001
0000
0000
0000
1000
0100
0000
0000
1000
0000
0000
0000
,
0001
0000
0010
0000
0001
1000
1000
0010
,
0100
0010
1000
0001
0100
0000
0010
0000
,
0010
0000
1000
0001
0001
0100
0001
0000
,
1000
0010
0000
0000
0200
0000
0000
0000
0001
0000
0000
0000
0310
0000
0000
0000
,
0100
0000
1000
0010
1000
0100
0010
0001
,
0010
0100
0100
0000
1000
1000
0001
0000
,
0010
0100
1000
0001
0100
0001
0010
0100
,
0100
0000
1000
0001
0100
0000
0010
0000
,
0100
0110
0001
0110
,
1000
0001
0100
0000
1000
0000
0100
0010
,
0100
1000
0001
0010
0100
0000
1000
0000
,
0001
1001
1000
0110
,
0100
0000
0000
0000
1000
0000
0000
0000
0002
0000
0100
0000
0000
0100
0000
0000
,
0000
0100
2003
0000
0010
0000
0010
0000
,
0001
0200
0000
0000
,
0000
0000
0000
0000
3300
0000
0000
0000
0001
0001
0000
0000
1000
1000
0000
0000
,
0010
0010
0000
0000
1000
1000
0000
0000
0001
0001
0000
0000
0100
0100
0000
0000
,
0001
0001
0000
0000
1000
1000
0000
0000
0001
0000
0000
0000
0010
0000
0000
0000
,
0001
1000
1001
0000
;

//---------------dance-double - ----------------
#NOTES:
     dance-double:
     :
     Easy:
     3:
     :
00000000
00000000
00000000
00000000
,
00000000
00000000
00000000
00000000
,
00000000
00000000
00000000
00000000
,
00000000
00000000
00000000
00000000
,
00000000
00000000
00000000
00000000
,
10000000
00100000
00000000
00010000
,
10000000
00100000
00000000
01000000
,
10000000
00100000
00000000
00010000
,
10000000
00100000
00000000
10010000
,
00100000
00001000
00010000
00000100
,
00002000
00000010
00000000
00003100
,
00000000
00000010
00001000
00000010
,
00001000
00000010
00000000
00000001
,
00001000
00000010
00000000
00000001
,
00002000
00000010
00000000
00003100
,
00010000
00001000
00100000
01000000
,
20020000
00000000
00000000
00000000
,
00000000
00000000
00000000
00000000
,
30030000
01000000
00001000
00010000
,
00000100
00000010
00000001
00000100
,
00000010
00001000
00000001
00000100
,
00000010
00000000
00010000
00001000
,
00100000
00000000
01000000
00010000
,
10000000
00000000
00100000
10000000
,
00020000
00000000
00000000
00000000
,
00000000
00000000
00000000
00030000
,
00100000
10000000
00010000
01000000
,
00001000
00010000
00000010
00000100
,
00001000
00000000
00000001
00000000
,
00001000
00000000
00000100
00000000
,
00000010
00000000
00000001
00000000
,
00001000
00000010
00000100
00000000
,
00000100
00000001
00001000
00000010
,
00000010
00001000
00000000
00010000
,
00100000
00010000
00000000
10000000
,
01000000
00100000
00000000
00010000
,
01000000
01100000
00000000
00000000
,
10000000
00100000
00000000
00000000
,
00100000
10000000
00000000
00010000
,
00100000
00010000
00000000
10000000
,
01000000
00100000
00020000
00000000
,
00000000
20030000
00000000
00000000
,
00000000
00000000
00000000
00000000
,
00000000
30010000
01000000
00001000
,
00010000
00000100
00000010
00000001
,
00001000
00000001
00000000
00000000
;

//---------------dance-double - ----------------
#NOTES:
     dance-double:
     :
     Medium:
     5:
     :
00000000
00000000
00000000
00000000
,
00000000
00000000
00000000
00000000
,
00000000
00000000
00000000
00000000
,
00000000
00000000
00000000
00000000
,
00000000
00000000
00000000
00000000
,
10000000
00100000
10000000
00010000
,
10000000
00100000
10000000
01000000
,
10000000
00100000
10000000
00010000
,
10000000
00100000
10000000
01100000
,
01000000
00001000
00010000
00000100
,
00002000
00000010
00000000
00003100
,
00001000
00000010
00001000
00000001
,
00001000
00000010
00001000
00000100
,
00001000
00000010
00001000
00000001
,
00002000
00000010
00000000
00003100
,
00000100
00011000
00100000
01000000
,
20020000
00000000
00000000
00000000
,
00030000
00100000
00000000
00100000
00000000
01000000
00000000
00010000
,
30000000
10000000
00100000
10000000
,
01000000
10000000
00010000
10000000
,
00100000
01000000
00001000
00010000
,
00000100
00001000
00000010
00000100
,
00000010
00001000
00000100
00000010
,
00000001
00001000
00000010
00001000
,
00000002
00000010
00000000
00000010
,
00000000
00000010
00000000
00001000
00000000
00000100
00000003
00000100
,
00000010
00001000
00000001
00000100
,
00000010
00000000
00000000
00000000
00001000
00000000
00000000
00000000
00000001
00000100
00000000
00000000
00000100
00000000
00000000
00000000
,
00000010
00010000
00001000
00100000
,
01000000
00000000
00000000
00000000
10000000
00010000
00000000
00000000
01000000
00000000
00000000
00000000
00100000
00000000
00000000
00000000
,
00100000
10000000
00010000
10000000
,
00010000
00100000
00000000
00000000
01000000
00000000
00000000
00000000
10000000
00000000
00000000
00000000
00000000
00000000
00000000
00000000
,
01000000
00000000
10000000
00100000
10000000
01000000
00100000
00010000
,
00100000
01000000
10000000
01000000
,
00100000
00001000
00010000
00000010
,
00000100
00000010
00001000
00000001
,
00000100
00000110
00000000
00000110
,
00001000
00000010
00001000
00000100
,
00000010
00000001
00000110
00010000
,
00001000
00100000
01000000
10000000
,
01000000
10000000
00020000
00000000
,
00000000
20030000
00100000
00100000
,
00010000
02000000
00000000
00000000
,
00000000
33000000
00100000
00001000
,
00010000
00000010
00000100
00000001
,
00001000
00001001
00000000
00000000
;

//---------------dance-double - ----------------
#NOTES:
     dance-double:
     :
     Hard:
     7:
     :
00000000
00000000
00000000
00000000
,
00000000
00000000
00000000
00000000
,
00000000
00000000
00000000
00000000
,
00000000
00000000
00000000
00000000
,
00000000
00000000
00000000
00000000
,
00001000
00000000
00000000
00001000
00000010
00000000
00000000
00000000
00001000
00000000
00000000
00000000
00000100
00000010
00000000
00000000
,
00000001
00000000
00000000
00000000
00000010
00000000
00000000
00000000
00000001
00000000
00001000
00000000
00000100
00000010
00000000
00000000
,
00000001
00000000
00000000
00000001
00000010
00000000
00000000
00000000
00000001
00000000
00000000
00000000
00000100
00000010
00000000
00000000
,
00001000
00000000
00000000
00000000
00000100
00000000
00000000
00000000
00001000
00000001
00000000
00000000
00000100
00000000
00000010
00000000
,
00001000
00000010
00001000
00000001
,
00002000
00000010
00000100
00003100
,
00000100
00010000
00001000
00010000
,
10000000
00100000
10000000
11000000
,
00010000
00100000
10000000
00010000
,
20000000
00100000
00010000
31000000
,
00100000
00011000
00000100
00000010
,
00000002
00002000
00000000
00000000
00000000
00000000
00000000
00000000
00000000
00000000
00000000
00000000
00000000
00000000
00000000
00000000
,
00000003
00000010
00000010
00000100
,
00003001
00000100
00010000
00001000
,
01000000
00000000
00100000
00000000
10000000
00010000
01000000
00000000
,
00100000
10000000
00010000
01000000
,
00010000
00000000
10000000
00000000
00100000
00010000
01000000
00000000
,
00100000
10000000
01000000
00100000
,
00001000
00010000
00000100
00000010
,
00000002
00000010
00000100
00000010
,
00000000
00000100
00000010
00000013
,
00001001
00000000
00000000
00000000
00001000
00000001
00000100
00000010
,
00000100
00000000
00000000
00000000
00000001
00000000
00000000
00000000
00001000
00000100
00000000
00000000
00001000
00000000
00000000
00000000
,
00000001
00000000
00000010
00000000
00000001
00001000
00000001
00000010
,
00000100
00000000
00000000
00000000
00001000
00000001
00000000
00000000
00000100
00000000
00000000
00000000
00000010
00000000
00000000
00000000
,
00010000
00001000
01000000
00010000
,
10000000
00100000
00000000
00000000
02000000
00000000
00000000
00000000
00010000
00000000
00000000
00000000
03100000
00000000
00000000
00000000
,
01000000
00000000
10000000
00100000
10000000
01000000
00100000
00010000
,
00100000
01000000
01000000
00000000
10000000
00000000
00010000
00000000
,
01000000
00001000
00010000
00000000
00000100
00000000
00000010
00000100
,
00000100
00000000
00001000
00000001
00000100
00000000
00000010
00000000
,
00000100
00000110
00000001
00000110
,
00001000
00000000
00000010
00000000
00001000
00000000
00000100
00000010
,
00000100
00010000
00001000
00100000
,
00010000
10010000
10000000
01100000
,
01000000
00000000
00000000
00000000
10000000
00000000
00000000
00000000
00020000
00000000
01000000
00000000
00000000
01000000
00000000
00000000
,
00000000
01000000
20030000
00000000
00100000
00000000
00100000
00000000
,
00010000
02000000
00000000
00000000
,
00000000
00000000
00000000
00000000
33000000
00000000
00000000
00000000
00010000
00010000
00000000
00000000
01000000
01000000
00000000
00000000
,
00001000
00001000
00000000
00000000
00010000
00010000
00000000
00000000
00000010
00000010
00000000
00000000
00000100
00000100
00000000
00000000
,
00000001
00000001
00000000
00000000
00001000
00001000
00000000
00000000
00000001
00000000
00000000
00000000
00000010
00000000
00000000
00000000
,
00000001
00001000
00000100
00000000
;
