#TITLE:EBENEEZER GOODE;
#ARTIST:SHAMEN;
#BANNER:EBENEEZER GOODE.png;
#BACKGROUND:EBENEEZER GOODE-bg.png;
#CDTITLE:./CDTITLES/DANCING STAGE UNLEASHED.png;
#MUSIC:EBENEEZER GOODE.ogg;
#SAMPLESTART:70.45;
#SAMPLELENGTH:15;
#DISPLAYBPM:126;
#BPMS:0=126.054;
#BGCHANGES:4=EBENEEZER GOODE.avi=1=1=0=0,198=EBENEEZER GOODE-bg.png=1=0=0=1;

//---------------dance-single - ----------------
#NOTES:
     dance-single:
     :
     Easy:
     3:
     :
0000
0000
0000
0000
,
0000
0000
0000
0000
,
0000
0000
0000
0000
,
0000
0000
0000
0000
,
0000
0000
0000
0000
,
2020
0000
0000
0000
,
0000
0000
0000
0000
,
0000
0000
0000
0000
,
0000
0000
0000
3030
,
0010
1000
0001
1000
,
0010
1000
0100
0100
,
1000
0001
0100
0010
,
2000
0000
0001
3100
,
0010
1000
0001
1000
,
0010
1000
0100
0100
,
1000
0001
0100
0010
,
1000
1000
0001
0100
,
0010
1000
0100
1000
,
0010
1000
0100
0100
,
1000
0001
0100
0010
,
2000
0000
0001
3100
,
0010
0001
0000
1000
,
0010
0100
0000
1001
,
0000
1000
0100
0010
,
0010
0100
0000
1001
,
0000
1000
0100
0010
,
0000
0001
1000
0010
,
0100
0001
0000
0100
,
0010
1000
1000
1001
,
0000
0010
1000
0010
,
1000
0100
0010
0001
,
0000
1000
0001
0100
,
0000
0010
1000
0001
,
0100
0010
0020
0200
,
0000
0000
0000
0330
,
0000
1000
0001
0010
,
0001
0001
0100
0000
,
0010
1000
0001
1000
,
0010
1000
0100
0100
,
1000
0001
0100
0010
,
1000
1000
0001
0100
,
0010
1000
0001
1000
,
0010
1000
0100
0100
,
1000
0001
0100
0010
,
2000
0000
0001
3100
,
0010
1000
0001
1000
,
0010
1000
0100
0100
,
2002
0000
0000
0000
,
0000
0000
3000
0003
;

//---------------dance-single - ----------------
#NOTES:
     dance-single:
     :
     Medium:
     6:
     :
0000
0000
0000
0000
,
0000
0000
0000
0000
,
0000
0000
0000
0000
,
0000
0000
0000
0000
,
0000
0000
0000
0000
,
2020
0000
0000
0030
,
0001
0001
0100
0010
,
0020
0000
0000
0030
,
0001
0001
0100
3100
,
0010
1000
0100
1000
,
0001
1000
0100
0100
,
1000
0001
0010
0000
0100
0000
0010
0000
,
2000
0010
0010
3100
,
0010
1000
0001
0000
0100
0000
1000
0000
,
0010
0001
1000
0000
0100
0000
1000
0000
,
0001
1000
0010
0000
0001
0000
0010
0000
,
1000
0001
0100
0000
1000
0000
0001
0000
,
0001
1000
0100
0010
0001
0000
1000
0000
,
0010
0000
1000
0001
0100
0010
0010
0000
,
1000
0001
0010
0100
1000
0001
0001
0000
,
2000
0010
0001
3100
,
0010
1000
0001
0000
1000
0000
1000
0000
,
0010
1000
0100
0000
0100
0000
0002
0000
,
1003
0001
0100
0010
,
0010
0100
2000
3001
,
0010
0100
1000
0000
0001
0000
1000
0000
,
0100
1000
0001
0000
1000
0000
0010
0000
,
0100
0002
1003
0100
,
0010
0001
1000
1001
,
0001
1000
0001
0000
1000
0100
0010
0000
,
0001
0100
0010
1000
,
0011
1000
0001
0100
,
0021
0030
1000
0001
,
0100
0010
0020
0200
,
0000
0330
1001
0110
,
0001
1000
0010
0000
0100
0000
0001
0000
,
1000
0001
0010
0000
0100
0000
1000
0000
,
0001
1000
0100
0000
0010
0000
1001
0000
,
0001
0100
0010
0000
1000
0000
0100
0000
,
1000
0010
0100
0001
0010
0100
1000
0000
,
0001
1000
0100
0010
0001
0000
0100
0000
,
0010
1000
0001
1000
0100
0000
1000
0000
,
0010
0000
1000
0001
0100
0010
0010
0000
,
1000
0001
0010
0100
1000
0001
0001
0000
,
2000
0010
0001
3100
,
0010
1000
0001
1000
0100
0000
1000
0000
,
0010
0000
1000
0001
0100
0010
1000
0000
,
0002
0020
0000
0003
,
0002
0000
0003
0030
;

//---------------dance-single - ----------------
#NOTES:
     dance-single:
     :
     Hard:
     7:
     :
0000
0000
0000
0000
,
0000
0000
0000
0000
,
0000
0000
0000
0000
,
0000
0000
0000
0000
,
0000
0000
0000
0000
,
2020
0000
0000
0030
,
0001
0001
0100
0010
,
0020
0000
0000
0030
,
0001
0001
0100
3100
,
0010
1000
0001
0000
0100
0000
0001
0000
,
0010
0001
1000
0000
0100
0000
0100
0000
,
1000
0010
1000
0000
0100
0000
0100
0000
,
2000
0010
0010
3010
,
0001
0100
0010
0000
1000
0000
0100
0000
,
0010
0001
1000
0001
0100
0010
0100
0000
,
0001
0000
1000
0010
0000
0100
0001
0000
0100
0000
0000
0000
0010
0000
0000
0000
,
0010
1000
0001
0100
0001
0100
0010
0000
,
1000
0000
0001
0100
0000
0010
1000
0000
0010
0000
0000
0000
0100
0000
0000
0000
,
0010
1000
0010
0000
1000
0000
0001
0000
0100
0000
0010
0000
0100
0000
0000
0000
,
0001
0000
1000
0010
0000
0100
0001
0000
0100
0000
0000
0000
0010
0000
0000
0000
,
2000
0010
0010
3010
,
0100
2000
3001
0100
,
0010
0000
0100
0001
1000
0000
0002
0000
,
1003
1000
0100
0020
,
0031
0100
2000
3001
,
1000
0100
0010
0000
0100
0000
0110
0000
,
0001
0010
0100
0000
2000
0000
3010
0000
,
0100
0002
1003
0100
,
0010
0002
1003
1001
,
1000
0100
0010
0001
0010
0100
1000
0000
,
1000
0100
0010
1000
,
0011
1000
0001
0100
,
0021
0030
1000
0001
,
0100
0010
0020
0200
,
0000
0330
1001
0110
,
0001
1000
0001
0020
,
0001
0031
0100
0010
,
1000
0001
0100
0000
0010
0000
0100
0000
,
0010
1000
0010
0000
1000
0000
0001
0000
0100
0000
0010
0000
0100
0000
0000
0000
,
0001
1000
0010
0000
0100
0000
0010
0000
,
0001
1000
0000
0100
0100
0000
0010
0000
0001
0000
1000
0000
0100
0000
0000
0000
,
1000
0001
0100
0010
1000
0001
1000
0000
,
0001
0010
0100
1000
0100
0010
0001
0000
,
0001
0000
1000
0100
0000
0010
0001
0000
0100
0000
0000
0000
0001
0000
0000
0000
,
2000
0010
0010
3010
,
0001
1000
0010
0100
0001
0000
1000
0000
,
0010
1000
0010
0000
1000
0000
0001
0000
0100
0000
0010
0000
0100
0000
0000
0000
,
0002
0200
0000
0303
,
0022
0000
0003
0030
;

//---------------dance-double - ----------------
#NOTES:
     dance-double:
     :
     Easy:
     3:
     :
00000000
00000000
00000000
00000000
,
00000000
00000000
00000000
00000000
,
00000000
00000000
00000000
00000000
,
00000000
00000000
00000000
00000000
,
00000000
00000000
00000000
00000000
,
20200000
00000000
00000000
00000000
,
00000000
00000000
00000000
00000000
,
00000000
00000000
00000000
00000000
,
00000000
00000000
00000000
30300000
,
00010000
01000000
00001000
00010000
,
00000010
00001000
00000001
00000100
,
00001000
00000001
00000100
00000010
,
00002000
00000000
00000001
00003100
,
00000010
00001000
00000100
00010000
,
00001000
00100000
01000000
01000000
,
10000000
00010000
01000000
00100000
,
10000000
10000000
00010000
01000000
,
00100000
10000000
01000000
10000000
,
00100000
10000000
01000000
01000000
,
10000000
00010000
01000000
00100000
,
20000000
00000000
00010000
31000000
,
00010000
00100000
00001000
00010000
,
00000010
00000100
00000000
00000001
,
00000000
00001000
00000100
00000010
,
00000010
00000100
00000000
00000001
,
00000000
00001000
00000100
00000010
,
00000000
00000001
00001000
00000001
,
00000100
00000010
00010000
00011000
,
00100000
01000000
00010000
10010000
,
00000000
00100000
10000000
00100000
,
10000000
01000000
00100000
00001000
,
00010000
00000100
00000010
00000100
,
00000000
00000010
00001000
00000001
,
00000100
00000010
00000020
00000200
,
00000000
00000000
00000000
00000330
,
00000001
00000010
00000100
00010000
,
00011000
00100000
01000000
00000000
,
00100000
10000000
01000000
10000000
,
00100000
10000000
01000000
01000000
,
10000000
00010000
01000000
00100000
,
10000000
10000000
00010000
01000000
,
00100000
10000000
01000000
10000000
,
00100000
10000000
01000000
01000000
,
10000000
00010000
01000000
00100000
,
20000000
00000000
00010000
31000000
,
00010000
01000000
00001000
00010000
,
00000010
00001000
00000100
00000100
,
00002000
00000002
00000000
00000000
,
00000000
00000000
00003000
00000003
;

//---------------dance-double - ----------------
#NOTES:
     dance-double:
     :
     Medium:
     4:
     :
00000000
00000000
00000000
00000000
,
00000000
00000000
00000000
00000000
,
00000000
00000000
00000000
00000000
,
00000000
00000000
00000000
00000000
,
00000000
00000000
00000000
00000000
,
20200000
00000000
00000000
00300000
,
00010000
00010000
01000000
00100000
,
00200000
00000000
00000000
00300000
,
00010000
00010000
01000000
31000000
,
10000000
00010000
01000000
00001000
,
00010000
00000010
00000100
00000100
,
00001000
00000001
00000100
00000010
,
00002000
00000010
00000010
00003100
,
00000010
00001000
00000001
00001000
00000100
00000000
00010000
00000000
,
00001000
00000000
00100000
00010000
10000000
00100000
01000000
00000000
,
10000000
00010000
00100000
00000000
01000000
10000000
00010000
00000000
,
00010000
10000000
01000000
00100000
00010000
00000000
01000000
00000000
,
00100000
01000000
00001000
00010000
00000100
00000000
00000010
00000000
,
00000001
00000000
00001000
00000001
00000100
00000010
00000010
00000000
,
00001000
00000001
00000010
00000100
00001000
00000001
00000001
00000000
,
00002000
00000010
00000001
00003100
,
00000010
00000001
00001000
00000100
,
00010000
00001000
00100000
00020000
,
00030000
10000000
01000000
00100000
,
00100000
01000000
20000000
30010000
,
00100000
10000000
01000000
00100000
,
00001000
00011000
00000100
00000010
,
00000100
00000002
00001003
00000100
,
00010000
00001000
00100000
01000000
,
10000000
00100000
01000000
00000000
00010000
00100000
01000000
00000000
,
10000000
01000000
00100000
00001000
,
00011000
00000010
00001000
00000100
,
00000021
00000030
00001000
00000001
,
00000100
00000010
00000020
00000200
,
00000000
00000330
00001001
00000110
,
00010000
00001000
00100000
01000000
,
00010000
00010000
01000000
00100000
,
00100000
10000000
00010000
00000000
01000000
00000000
10000000
00000000
,
00010000
01000000
00100000
00000000
01000000
00000000
01000000
00000000
,
00001000
00000000
00010000
00000000
00000100
00000010
00000001
00000000
,
00001000
00000100
00000010
00000001
00001000
00000000
00000100
00000000
,
00000010
00001000
00000001
00001000
00000100
00000000
00010000
00000000
,
00001000
00000000
00100000
00010000
01000000
00100000
00100000
00000000
,
10000000
00010000
00100000
00000000
00010000
00000000
10000000
00000000
,
20000000
00100000
00010000
31000000
,
00100000
10000000
00100000
00000000
01000000
00000000
10000000
00000000
,
00100000
00000000
10000000
00010000
01000000
00100000
01000000
00000000
,
00020000
00200000
00000000
00030000
,
00020000
00000000
00030000
00300000
;

//---------------dance-double - ----------------
#NOTES:
     dance-double:
     :
     Hard:
     7:
     :
00000000
00000000
00000000
00000000
,
00000000
00000000
00000000
00000000
,
00000000
00000000
00000000
00000000
,
00000000
00000000
00000000
00000000
,
00000000
00000000
00000000
00000000
,
00002020
00000000
00000000
00000030
,
00000001
00000001
00000100
00000010
,
00000020
00000000
00000000
00000030
,
00000001
00000001
00000100
00003100
,
00010000
00001000
00100000
00000000
01000000
00000000
00010000
00000000
,
00100000
00010000
10000000
00000000
01000000
00000000
01000000
00000000
,
10000000
00100000
10000000
00000000
01000000
00000000
01000000
00000000
,
20000000
00100000
00100000
30100000
,
00010000
00000000
10000000
00100000
00000000
01000000
00010000
00000000
01000000
00000000
00000000
00000000
00001000
00000000
00000000
00000000
,
00010000
00000000
00000100
00000000
00000010
00000001
00001000
00000000
,
00001000
00000001
00000100
00000000
00000001
00000000
00000010
00000000
,
00000001
00001000
00000100
00000010
00000001
00001000
00000100
00000000
,
00010000
00000000
00001000
00000000
00100000
00010000
10000000
00000000
,
00100000
10000000
00100000
00000000
10000000
00000000
00010000
00000000
01000000
00000000
00100000
00000000
01000000
00000000
00000000
00000000
,
00010000
10000000
00100000
01000000
00010000
01000000
00100000
00000000
,
20000000
00100000
00100000
30100000
,
00010000
20000000
30010000
01000000
,
00001000
00011000
00000010
00000100
,
00000002
00001003
00000100
00000020
,
00000031
00000100
00002000
00003001
,
00000010
00010000
00011000
00100000
,
01000000
10000000
20000000
30100000
,
00010000
10000000
00020000
00000000
10030000
00000000
01000000
00000000
,
00100000
00020000
10030000
10010000
,
10000000
00010000
01000000
00000000
00100000
00000000
00000000
00000000
10000000
10000000
01000000
00000000
00100000
00000000
00000000
00000000
,
00001000
00010000
00000010
00001000
,
00000011
00001000
00000001
00000100
,
00000220
00000330
00010000
00001000
,
01000000
00100000
00200000
02000000
,
00000000
03300000
10010000
01100000
,
00010000
10000000
00010000
00220000
,
00330000
00001000
00010000
00000010
,
00001000
00000100
00000010
00000001
00000100
00000000
00001000
00000000
,
00000010
00001000
00000010
00000000
00001000
00000000
00000001
00000000
00000100
00000000
00000010
00000000
00000100
00000000
00000000
00000000
,
00000001
00001000
00000010
00001000
00000100
00000000
00000010
00000000
,
00000001
00001000
00000000
00000100
00000100
00000000
00000010
00000000
00000001
00000000
00001000
00000000
00000100
00000000
00000000
00000000
,
00000010
00000100
00010000
00000000
00001000
00100000
00010000
00000000
,
10000000
00010000
00100000
01000000
10000000
00010000
01000000
00000000
,
00010000
10000000
00100000
10000000
01000000
00000000
00100000
00000000
,
20000000
00100000
00100000
30100000
,
00010000
10000000
00100000
10000000
01000000
00000000
10000000
00000000
,
00100000
10000000
00100000
00000000
10000000
00000000
00010000
00000000
01000000
00000000
00100000
00000000
01000000
00000000
00000000
00000000
,
00020000
02000000
00000000
03030000
,
00220000
00000000
00030000
00300000
;
