#TITLE:Young Folks;
#ARTIST:Peter Bjorn and John;
#BANNER:Young Folks.png;
#BACKGROUND:Young Folks-bg.png;
#MUSIC:Young Folks.ogg;
#SAMPLESTART:71.396;
#SAMPLELENGTH:15;
#DISPLAYBPM:137:138;
#BPMS:0=137.6,4=137.803,156=138.486,244=136.824;
#BGCHANGES:3.25=Young Folks.avi=1=0=0=0;

//---------------dance-single - ----------------
#NOTES:
     dance-single:
     :
     Beginner:
     1:
     :
0000
0000
0000
0000
,
0000
0000
0000
0000
,
0000
0000
0000
0000
,
0000
0000
0000
0000
,
0000
0000
0000
0000
,
0000
0000
0000
0000
,
1000
0000
0000
0000
,
1000
0000
0000
0000
,
0001
0000
0000
0000
,
0001
0000
0000
0000
,
0010
0000
0010
0000
,
0010
0000
0000
0000
,
0100
0000
0000
0000
,
0010
0000
0000
0000
,
0100
0000
0100
0000
,
0100
0000
0000
0000
,
1000
0000
0000
0000
,
0001
0000
0000
0000
,
0100
0100
0100
0000
,
0100
0000
0100
0000
,
0010
0010
0010
0000
,
0010
0000
0010
0000
,
1000
1000
1000
0000
,
1000
0000
1000
0000
,
0001
0001
0001
0000
,
0001
0000
0001
0000
,
0010
0000
0000
0000
,
0001
0000
0000
0000
,
1000
0000
0000
0000
,
0100
0000
0000
0000
,
1000
0000
0000
0000
,
0010
0000
0000
0000
,
0100
0000
0000
0000
,
0001
0000
0000
0000
,
1000
0000
0001
0000
,
1000
0000
0000
0000
,
0001
0000
1000
0000
,
0001
0000
0000
0000
,
0010
0000
0100
0000
,
0010
0000
0000
0000
,
0100
0000
0010
0000
,
0100
0000
0000
0000
,
2000
0000
0000
3000
,
1000
0000
1000
0000
,
0002
0000
0000
0003
,
0001
0000
0001
0000
,
1001
0000
0000
0000
,
1000
0000
0000
0000
,
0110
0000
0000
0000
,
0010
0000
0000
0000
,
2000
0000
0000
3000
,
1000
0000
1000
0000
,
0002
0000
0000
0003
,
0001
0000
0001
0000
,
0110
0000
0000
0000
,
0010
0000
0000
0000
,
1001
0000
0000
0000
,
1000
0000
0000
0000
,
1001
0000
0000
0000
;

//---------------dance-single - ----------------
#NOTES:
     dance-single:
     :
     Easy:
     3:
     :
0000
0000
0000
0000
,
0000
0000
0000
0000
,
0000
0000
0000
0000
,
0000
0000
0000
0000
,
0000
0000
0000
0000
,
0000
0000
0000
0000
,
1000
0100
0001
0100
,
1000
0000
0001
0000
,
0010
0000
0010
0000
,
0100
0000
0100
0000
,
1000
0100
1000
0000
,
0010
0000
1000
0000
,
0001
0100
0001
0000
,
0020
0000
0030
0000
,
0100
1000
0001
0000
,
0010
0000
0100
0000
,
1000
0000
0010
0000
,
0001
0000
0010
0000
,
0001
0100
0001
0000
,
0010
0000
0001
0000
,
1000
0100
1000
0000
,
0020
0000
0030
0000
,
0100
0001
1000
0000
,
0010
0000
0100
0000
,
0001
0000
0010
0000
,
1000
0000
0010
0000
,
0001
0000
1000
0000
,
0001
0010
0010
0100
,
1000
0000
0010
0000
,
1000
0000
0100
0000
,
1000
0000
0001
0000
,
1000
0010
0010
0100
,
0001
0000
0010
0000
,
0001
0000
0100
0000
,
1000
0100
0001
0000
,
0001
0100
1000
0000
,
0010
0000
1000
0000
,
0001
0000
0010
0000
,
0001
1000
0001
0000
,
0100
0000
0100
0000
,
0001
0100
1000
0000
,
1000
0100
0001
0000
,
2002
0000
3003
0000
,
0010
1000
0100
0001
,
2002
0000
3003
0000
,
0010
0001
0100
1000
,
2002
0000
3003
0000
,
0010
0000
0010
0000
,
1000
0100
0001
0100
,
1000
0000
0001
0000
,
2002
0000
3003
0000
,
0100
0001
0010
1000
,
2002
0000
3003
0000
,
0100
1000
0010
0001
,
2002
0000
3003
0000
,
0010
0000
0010
0000
,
0001
0100
1000
0100
,
0001
0000
1000
0000
,
0110
0000
0000
0000
;

//---------------dance-single - ----------------
#NOTES:
     dance-single:
     :
     Medium:
     5:
     :
0000
0000
0000
0000
,
0000
0000
0000
0000
,
0000
0000
0000
0000
,
0000
0000
0000
0000
,
0000
0000
0000
0000
,
0000
0000
0000
0000
,
0010
1000
0010
1000
,
0001
0010
0001
0010
,
0001
0000
0101
0000
,
1000
0000
1100
0000
,
0001
0010
0001
0001
,
1000
0001
0100
0000
0010
0000
0000
0000
,
1000
0100
1000
0000
0010
0000
0100
0000
,
0002
0000
0003
0000
,
0010
0100
1000
0001
,
0100
0100
0010
0000
1000
0000
0001
0000
,
1000
0000
1010
0000
,
0001
0000
0011
0000
,
1000
0010
1000
1000
,
0001
1000
0100
0000
0010
0000
0000
0000
,
0001
0100
0001
0000
0010
0000
0100
0000
,
2000
0000
3000
0000
,
0010
0100
0001
1000
,
0100
0100
0010
0000
0001
0000
1000
0000
,
0001
0000
0011
0000
,
1000
0000
1010
0000
,
0010
1000
0001
0000
0010
0000
0100
0000
,
0010
0001
1000
0000
0010
0000
0000
0000
,
1000
0100
1000
0000
0010
0000
1000
0000
,
0001
0100
0001
0100
0001
0000
0000
0000
,
0010
0001
0100
1000
,
0100
0001
0010
1000
,
0010
0000
0110
0000
,
1000
0000
1001
0000
,
0010
0001
1000
0000
0010
0000
0100
0000
,
0010
1000
0001
0000
0010
0000
0000
0000
,
0001
0100
0001
0000
0010
0000
0001
0000
,
1000
0100
1000
0100
1000
0000
0000
0000
,
0010
1000
0100
0001
,
0100
1000
0010
0001
,
0020
0000
0000
0030
,
0000
1000
0100
0010
0001
0010
0100
1000
,
0001
0021
0000
0031
,
0000
0000
0001
1000
0000
1000
0100
0010
,
0001
0201
0000
0301
,
0000
0001
0100
0010
1000
0010
0100
0001
,
1000
0000
1020
0000
0000
0000
0030
0010
,
0000
1000
0100
1000
0100
0000
1000
0000
,
0020
0000
0030
0000
,
0000
1000
0010
0100
0001
0100
0010
1000
,
0001
0201
0000
0301
,
0000
0000
0001
1000
0000
1000
0010
0100
,
0001
0021
0000
0031
,
0000
0001
0010
0100
1000
0100
0010
0001
,
1000
0000
1200
0000
0000
0000
0300
0100
,
0000
1000
0010
1000
0010
0000
1000
0000
,
0200
0000
0300
0000
,
1000
0100
0010
0001
,
0100
0000
0000
0000
;

//---------------dance-single - ----------------
#NOTES:
     dance-single:
     :
     Hard:
     7:
     :
0000
0000
0000
0000
,
0000
0000
0000
0000
,
0000
0000
0000
0000
,
0000
0000
0000
0000
,
0000
0000
0000
0000
,
0000
0000
0000
0000
,
0001
1000
0100
0010
0100
0000
1000
0000
,
0001
0100
0010
1000
,
0001
0000
0000
0000
0001
0000
0000
0100
0001
0000
1000
0000
0100
0000
0010
0000
,
0100
0000
0000
0000
0100
0000
0000
1000
0100
0000
0010
0000
0001
0000
0100
0000
,
0001
0010
0100
1000
0001
0010
0001
0100
,
0010
0110
1010
0000
,
1000
0100
0010
0001
0100
1000
0100
0000
,
0010
1000
1001
0110
,
1000
0010
0100
0001
1000
0010
1000
0100
,
0010
0110
0011
1001
,
0100
0000
0000
0000
0100
0000
0000
0010
0100
0000
0001
0000
0010
0000
0100
0000
,
0010
0000
0000
0000
0010
0000
0000
0001
0010
0000
0100
0000
1000
0000
0001
0000
,
1000
0010
0100
0010
1000
0010
0001
0010
,
1000
1100
0110
0000
,
0010
0100
0010
0001
0100
1000
0100
0000
,
0001
1000
1001
0110
,
0001
0010
0100
0010
0001
0010
1000
0010
,
0001
0101
0110
1001
,
0100
0000
0000
0000
0100
0000
0000
0010
0100
0000
0001
0000
1000
0000
0100
0000
,
0010
0000
0000
0000
0010
0000
0000
0001
0010
0000
0100
0000
1000
0000
0001
0000
,
0100
0000
0001
0000
1000
1000
1000
0000
,
0100
0000
0010
0000
0001
0001
1000
0001
,
0100
0000
0001
0000
0010
0010
0010
0000
,
0100
0000
1000
0000
0010
0010
1000
0100
,
0010
0000
0001
0000
1000
1000
1000
0000
,
0010
0000
1000
0000
0100
0100
0010
0001
,
1000
0000
0000
0000
0010
0000
0000
1000
0100
0000
0001
0000
0100
0000
1000
0000
,
0001
0000
0000
0000
0010
0000
0000
0001
0100
0000
1000
0000
0100
0000
0001
0000
,
1000
0000
0100
0000
0010
0010
0010
0000
,
0001
0000
1000
0000
0010
0010
1000
0001
,
0100
0000
0001
0000
0010
0010
0010
0000
,
0100
0000
1000
0000
0001
0001
0010
0001
,
0100
0000
0001
0000
0010
0010
0010
0000
,
0001
0000
1000
0000
0001
0001
1000
0100
,
0010
0000
0000
0000
0001
0000
0000
1000
0010
0000
0001
0000
0010
0000
1000
0000
,
0100
1000
0010
0100
0001
0010
0001
0100
,
0001
1020
0001
1000
,
0001
0000
1030
1100
0000
0010
0001
1000
,
0010
0000
0100
0000
0001
1000
0001
0000
,
0010
0001
1000
0010
1000
0001
1000
0100
,
1000
0000
0021
0000
1000
0000
0031
0101
,
0000
0010
1000
0001
0100
0010
1000
0001
,
0010
0000
0100
0000
1000
0001
1000
0000
,
0010
1000
0100
0010
0001
0100
0001
0010
,
0001
1200
0001
1000
,
0001
0000
1300
1010
0000
0100
0001
1000
,
0001
0000
0100
0000
0010
1000
0010
0000
,
0100
0001
1000
0100
1000
0001
1000
0010
,
1000
0000
0201
0000
1000
0000
0301
0011
,
0000
0100
1000
0001
1000
0010
0100
0001
,
0010
0000
0000
0000
0100
0000
0000
1000
0001
0000
0010
0000
0001
0000
0100
0000
,
0010
0000
0000
0000
0100
0000
0000
0001
1000
0000
0010
0000
1000
0000
0100
0000
,
0010
0000
0000
0000
;

//---------------dance-double - ----------------
#NOTES:
     dance-double:
     :
     Beginner:
     1:
     :
00000000
00000000
00000000
00000000
,
00000000
00000000
00000000
00000000
,
00000000
00000000
00000000
00000000
,
00000000
00000000
00000000
00000000
,
00000000
00000000
00000000
00000000
,
00000000
00000000
00000000
00000000
,
00000001
00000000
00000000
00000000
,
00000100
00000000
00000000
00000000
,
00001000
00000000
00000000
00000000
,
00010000
00000000
00000000
00000000
,
01000000
00000000
01000000
00000000
,
01000000
00000000
00000000
00000000
,
10000000
00000000
00000000
00000000
,
00100000
00000000
00000000
00000000
,
01000000
00000000
01000000
00000000
,
01000000
00000000
00000000
00000000
,
00010000
00000000
00000000
00000000
,
00100000
00000000
00000000
00000000
,
00001000
00000000
00001000
00000000
,
00001000
00000000
00000000
00000000
,
00010000
00000000
00010000
00000000
,
00010000
00000000
00000000
00000000
,
00000100
00000000
00000100
00000000
,
00000100
00000000
00000000
00000000
,
00000010
00000000
00000010
00000000
,
00000010
00000000
00000000
00000000
,
00000001
00000000
00000000
00000000
,
00000010
00000000
00000000
00000000
,
00000100
00000000
00000000
00000000
,
00001000
00000000
00000000
00000000
,
00010000
00000000
00000000
00000000
,
00100000
00000000
00000000
00000000
,
01000000
00000000
00000000
00000000
,
10000000
00000000
00000000
00000000
,
00100000
00000000
01000000
00000000
,
00100000
00000000
00000000
00000000
,
00010000
00000000
00001000
00000000
,
00010000
00000000
00000000
00000000
,
00001000
00000000
00010000
00000000
,
00001000
00000000
00000000
00000000
,
00000010
00000000
00000100
00000000
,
00000010
00000000
00000000
00000000
,
00000002
00000000
00000000
00000003
,
00000001
00000000
00000001
00000000
,
00002000
00000000
00000000
00003000
,
00001000
00000000
00001000
00000000
,
00000100
00000000
00000000
00000000
,
00010000
00000000
00000000
00000000
,
00001000
00000000
00000000
00000000
,
01000000
00000000
00000000
00000000
,
00020000
00000000
00000000
00030000
,
00010000
00000000
00010000
00000000
,
20000000
00000000
00000000
30000000
,
10000000
00000000
10000000
00000000
,
01000000
00000000
00000000
00000000
,
00100000
00000000
00000000
00000000
,
00010000
00000000
00000000
00000000
,
10000000
00000000
00000000
00000000
,
10010000
00000000
00000000
00000000
;

//---------------dance-double - ----------------
#NOTES:
     dance-double:
     :
     Easy:
     3:
     :
00000000
00000000
00000000
00000000
,
00000000
00000000
00000000
00000000
,
00000000
00000000
00000000
00000000
,
00000000
00000000
00000000
00000000
,
00000000
00000000
00000000
00000000
,
00000000
00000000
00000000
00000000
,
00100000
10000000
01000000
00010000
,
00001000
00000000
00010000
00000000
,
00000010
00000000
00000100
00000000
,
00000001
00000000
00001000
00000000
,
00000001
00000001
00000001
00000000
,
00000010
00000000
00000100
00000000
,
00010000
00010000
00010000
00000000
,
00002000
00000000
00003000
00000000
,
01000000
01000000
01000000
00000000
,
00010000
00000000
10000000
00000000
,
01000000
00000000
10000000
00000000
,
00100000
00000000
00010000
00000000
,
00001000
00001000
00010000
00000000
,
00000010
00000000
00001000
00000000
,
00000100
00000100
00000010
00000000
,
00000002
00000000
00000003
00000000
,
00000100
00000100
00001000
00000000
,
00010000
00000000
01000000
00000000
,
10000000
00000000
00010000
00000000
,
01000000
00000000
00100000
00000000
,
10000000
00000000
01000000
00000000
,
00010000
00001000
00001000
00010000
,
00000100
00000000
00001000
00000000
,
00000010
00000000
00000100
00000000
,
00000001
00000000
00000010
00000000
,
00001000
00010000
00010000
00001000
,
01000000
00000000
00100000
00000000
,
10000000
00000000
00010000
00000000
,
10000000
01000000
00010000
00000000
,
00001000
00000100
00000001
00000000
,
00000010
00000000
00000100
00000000
,
00000010
00000000
00000100
00000000
,
00010000
00001000
00010000
00000000
,
00000100
00000000
00000010
00000000
,
00000001
00000100
00001000
00000000
,
00010000
01000000
10000000
00000000
,
00200000
00000000
02300000
00000000
,
03100000
10000000
01000000
00010000
,
00002000
00000000
00023000
00000000
,
00031000
00000100
00000001
00000010
,
00000200
00000000
00000320
00000000
,
00000130
00000010
00000001
00001000
,
00000001
00000000
00000100
00000000
,
00001000
00000000
00000100
00000000
,
00000020
00000000
00000230
00000000
,
00000310
00000001
00000100
00001000
,
00020000
00000000
00032000
00000000
,
00013000
01000000
10000000
00100000
,
02000000
00000000
03200000
00000000
,
01300000
00100000
10000000
00010000
,
10000000
00000000
01000000
00000000
,
00010000
00000000
01000000
00000000
,
10010000
00000000
00000000
00000000
;

//---------------dance-double - ----------------
#NOTES:
     dance-double:
     :
     Medium:
     6:
     :
00000000
00000000
00000000
00000000
,
00000000
00000000
00000000
00000000
,
00000000
00000000
00000000
00000000
,
00000000
00000000
00000000
00000000
,
00000000
00000000
00000000
00000000
,
00000000
00000000
00000000
00000000
,
00000010
00000010
00000001
00001000
,
00000100
00000100
00010000
00001000
,
01010000
00000000
00110000
00000000
,
11000000
00000000
10100000
00000000
,
00100000
10000000
00010000
01000000
,
00001000
00100000
00001000
00000000
00010000
00000000
00000000
00000000
,
00100000
10000000
00100000
00000000
01000000
00000000
00001000
00000000
,
00020000
00000000
00030000
00000000
,
00001000
00000010
00000001
00000100
,
00000010
00001000
00000010
00000000
00000100
00000000
00000010
00000000
,
00010000
00000000
00011000
00000000
,
00001000
00000000
00011000
00000000
,
00100000
10000000
00010000
10000000
,
01000000
00100000
00001000
00000000
00010000
00000000
00000000
00000000
,
00001000
01000000
00100000
00000000
10000000
00000000
00010000
00000000
,
00200000
00000000
00300000
00000000
,
00010000
10000000
01000000
00010000
,
00001000
00100000
00010000
00000000
01000000
00000000
00100000
00000000
,
00010000
00000000
00011000
00000000
,
00001000
00000000
00011000
00000000
,
00100000
10000000
01000000
00000000
00010000
00000000
00001000
00000000
,
00000010
00000001
00000100
00000000
00001000
00000000
00000000
00000000
,
00010000
00000100
00001000
00000000
00000010
00000000
00010000
00000000
,
00000100
00001000
00000100
00000010
00000100
00000000
00000000
00000000
,
00010000
00001000
00000010
00000001
,
00000100
00000010
00001000
00000100
,
00000010
00000000
00000011
00000000
,
00000001
00000000
00001001
00000000
,
00001000
00010000
00000100
00000000
00000010
00000000
00000001
00000000
,
00000100
00001000
00010000
00000000
00000100
00000000
00000000
00000000
,
00010000
00001000
01000000
00000000
00100000
00000000
10000000
00000000
,
01000000
00100000
01000000
10000000
01000000
00000000
00000000
00000000
,
00100000
00001000
00010000
00100000
,
10000000
01000000
00010000
00001000
,
00020000
00000000
00000000
00030000
,
00000000
00000010
00000010
00001000
00000001
00001000
00001000
00000001
,
00000100
00000120
00000000
00010030
,
00000000
00000000
00001000
00010000
00000000
00010000
00001000
00100000
,
00001000
02001000
00000000
03100000
,
00000000
10000000
10000000
00100000
01000000
00010000
00010000
00100000
,
01000000
00000000
02100000
00000000
00000000
00000000
03000000
01000000
,
00000000
10000000
00100000
10000000
00100000
00000000
01000000
00000000
,
00002000
00000000
00003000
00000000
,
00000000
00100000
00100000
00001000
00010000
00000010
00000010
00001000
,
00000100
00000210
00000000
00010300
,
00000000
00000000
00001000
00010000
00000000
00010000
00001000
01000000
,
00001000
00201000
00000000
01300000
,
00000000
10000000
10000000
01000000
00100000
00001000
00001000
00010000
,
00100000
00000000
10200000
00000000
00000000
00000000
00300000
00100000
,
00000000
10000000
01000000
10000000
01000000
00000000
00010000
00000000
,
00002000
00000000
00003000
00000000
,
00000010
00000001
00000100
00001000
,
00010000
00000000
00000000
00000000
;

//---------------dance-double - ----------------
#NOTES:
     dance-double:
     :
     Hard:
     8:
     :
00000000
00000000
00000000
00000000
,
00000000
00000000
00000000
00000000
,
00000000
00000000
00000000
00000000
,
00000000
00000000
00000000
00000000
,
00000000
00000000
00000000
00000000
,
00000000
00000000
00000000
00000000
,
01000000
00100000
01000000
00100000
10000000
00010000
10000000
00010000
,
00100000
01000000
10000000
00100000
,
00010000
00000000
00001000
00000000
00000010
00000001
00001000
00000000
,
00000001
00000000
00000100
00000000
00000010
00010000
00001000
00000000
,
00010000
00000000
00001000
01000000
00001000
00000000
00100000
00010000
,
01010000
01100000
10100000
00000000
,
00100000
00000000
10000000
01000000
00100000
00000000
01000000
00010000
,
00001000
01000000
00100000
10000000
,
01000000
00000000
00100000
00001000
00010000
00000000
00000010
00000100
,
00000101
00000011
00001100
00001010
,
00000100
00000000
00000000
00000000
00000001
00000000
00000000
00000010
00000100
00000000
00010000
00000000
00000100
00000000
00000000
00000000
,
00010000
00000000
00000000
00000000
00001000
00000000
00000000
01000000
00100000
00000000
10000000
00000000
00100000
00000000
00000000
00000000
,
00010000
00000000
00001000
00100000
00001000
00000000
01000000
00001000
,
00011000
00010100
00000110
00000000
,
00000010
00000000
00000001
00000100
00001000
00000000
00010000
00100000
,
10000000
01000000
00100000
00001000
,
01000000
00000000
00100000
10000000
00010000
00000000
01000000
00001000
,
00011000
00010100
00011000
01001000
,
01000000
00000000
00000000
00000000
00100000
00000000
00000000
10000000
00010000
00000000
01000000
00000000
00010000
00000000
00000000
00000000
,
00100000
00000000
00000000
00000000
00001000
00000000
00000000
00010000
00000100
00000000
00000010
00000000
00000100
00000000
00001000
00000000
,
00000001
00000100
00001000
00000000
00010000
01000000
10000000
00000000
,
00100000
01000000
00010000
10000000
01000000
00100000
00001000
01000000
,
00100000
10000000
01000000
00000000
00100000
00010000
01000000
00000000
,
00100000
10000000
00010000
10000000
00100000
00010000
00001000
00010000
,
00000000
00010000
00001000
00000100
00000001
00000000
00000010
00000000
,
00001000
00010000
00100000
10000000
,
01000000
00000000
00000000
00000000
11000000
00000000
00000000
00100000
00001000
00000000
00010000
00000000
00001000
00000000
00100000
00000000
,
01000000
00000000
00000000
00000000
11000000
00000000
00000000
00100000
00001000
00000000
00010000
00000000
00001000
00000000
00000100
00000000
,
00000001
00000010
00001000
00000000
00010000
00100000
10000000
00000000
,
01000000
00100000
00001000
00010000
00000010
00010000
00000100
00010000
,
00000010
00001000
00000100
00000000
00000010
00000001
00000100
00000000
,
00001000
00000100
00000010
00010000
00001000
00000100
00000001
00000010
,
00000000
00000010
00000100
00010000
00001000
00000000
00000010
00000000
,
00000001
00000100
00001000
00010000
,
01000000
00000000
00000000
00000000
11000000
00000000
00000000
00100000
00001000
00000000
00010000
00000000
00001000
00000000
00100000
00000000
,
01000000
10000000
00100000
01000000
00001000
00010000
00000010
00000100
,
00000101
00000000
00001100
00000000
00000010
00000001
00001000
00000010
,
00000100
00000001
00000010
00001000
00010000
00100000
10000000
01000000
,
01100000
00000000
10010000
00000000
00100000
10000000
01000000
00100000
,
00001000
00010000
01000000
00100000
00010000
10000000
00100000
01000000
,
01010000
00000000
11000000
00000000
00100000
00001000
00010000
00001000
,
00000000
01000000
00100000
01000000
00010000
00000000
10000000
00000000
,
02000000
00010000
10000000
00010000
,
13000000
00100000
00010000
00001000
00000010
00000001
00000100
00000010
,
00010010
00000000
00011000
00000000
00001000
00100000
00010000
01000000
,
00100000
00010000
00001000
00100000
01000000
10000000
00100000
01000000
,
01001000
00000000
00010100
00000000
00001000
00000010
00001000
00000100
,
00010000
00000010
00001000
00000100
00000010
00000001
00001000
00000010
,
00000110
00000000
00001001
00000000
00000100
00000010
00001000
00000010
,
00000000
00010000
00001000
01000000
00100000
00000000
10000000
00000000
,
02000000
00010000
10000000
00010000
,
13000000
00100000
00010000
00001000
,
00010000
00000000
00000000
00000000
;
