#TITLE:You Gonna Want Me;
#ARTIST:Tiga;
#BANNER:You Gonna Want Me.png;
#BACKGROUND:You Gonna Want Me-bg.png;
#CDTITLE:./CDTITLES/Dancing Stage UNIVERSE2.png;
#MUSIC:You Gonna Want Me.ogg;
#SAMPLESTART:54.832;
#SAMPLELENGTH:15;
#DISPLAYBPM:127;
#BPMS:0=126.965,144=126.761,148=126.964,192=126.984;
#BGCHANGES:4=You Gonna Want Me.avi=1=0=0=0;

//---------------dance-single - ----------------
#NOTES:
     dance-single:
     :
     Beginner:
     1:
     :
0000
0000
0000
0000
,
0000
0000
0000
0000
,
0000
0000
0000
0000
,
1000
0000
0000
0000
,
0001
0000
0000
0000
,
0010
0000
0010
0000
,
0100
0000
0100
0000
,
0010
0000
0010
0000
,
0100
0000
0000
0000
,
1000
0000
1000
0000
,
0001
0000
0001
0000
,
1000
0000
1000
0000
,
0001
0000
0000
0000
,
0010
0000
0000
0000
,
0001
0000
0000
0000
,
0200
0000
0000
0300
,
0100
0000
0000
0000
,
0010
0000
0000
0000
,
1000
0000
0000
0000
,
0200
0000
0000
0300
,
0100
0000
0000
0000
,
1000
0000
0000
0000
,
0010
0000
0010
0000
,
0100
0000
0000
0000
,
0001
0000
0001
0000
,
0010
0000
0000
0000
,
0100
0000
0100
0000
,
1000
0000
0000
0000
,
0010
0000
0010
0000
,
0100
0000
0000
0000
,
0001
0000
0000
0000
,
0010
0000
0000
0000
,
1000
0000
0000
0000
,
0100
0000
0000
0000
,
1000
0000
0000
0000
,
0010
0000
0000
0000
,
0001
0000
0000
0000
,
0100
0000
0100
0000
,
0100
0000
0100
0000
,
0020
0000
0000
0030
,
0010
0000
0000
0000
,
1000
0000
1000
0000
,
1000
0000
1000
0000
,
0002
0000
0000
0003
,
0001
0000
0000
0000
;

//---------------dance-single - ----------------
#NOTES:
     dance-single:
     :
     Easy:
     3:
     :
0000
0000
0000
0000
,
0000
0000
0000
0000
,
0000
0000
0000
0000
,
0010
0000
0100
0000
,
0010
0000
0100
0000
,
0010
1000
0100
0000
,
0010
1000
0100
0000
,
0010
0001
0100
0000
,
0010
0001
0100
0000
,
0001
1000
0010
0000
,
1000
0001
0010
0000
,
0001
1000
0100
0000
,
1000
0001
0100
0000
,
0010
0000
1000
0000
,
0010
0000
1000
0000
,
0001
0000
0100
0000
,
0010
0010
0100
0001
,
0010
0000
0001
0000
,
0010
0000
0001
0000
,
1000
0000
0100
0000
,
0010
0010
0100
1000
,
0001
0000
1000
0000
,
0001
0000
1000
0000
,
0010
0000
0100
0000
,
0010
1000
0100
0001
,
1000
0000
0001
0000
,
1000
0000
0001
0000
,
0010
0000
0100
0000
,
0010
0001
0100
1000
,
0020
0000
0030
0010
,
2000
0000
3000
1000
,
0002
0000
0003
0001
,
0100
0000
0010
0000
,
2000
0000
3000
1000
,
0002
0000
0003
0001
,
0020
0000
0030
0010
,
0100
0000
0010
0000
,
0001
0100
1000
0000
,
0001
0000
1000
0001
,
1000
0100
0001
0000
,
1000
0000
0001
1000
,
0001
0010
1000
0000
,
0001
0000
1000
0001
,
1000
0010
0001
0000
,
1000
0000
0001
1001
;

//---------------dance-single - ----------------
#NOTES:
     dance-single:
     :
     Medium:
     5:
     :
0000
0000
0000
0000
,
0000
0000
0000
0000
,
0000
0000
0000
0000
,
1000
0001
1000
0100
,
0001
0000
1000
0000
0001
0100
0100
0000
,
0010
1000
0010
1001
,
0100
1000
0100
1001
,
0010
0001
0010
1001
,
0100
0001
0100
1001
,
0010
1000
0001
0101
,
0010
1000
0100
1100
,
0010
0001
1000
1100
,
0010
0001
0100
0101
,
0001
1000
0000
0000
0001
0010
0100
0000
,
1000
0001
0000
0000
1000
0010
0100
0000
,
0001
0010
0000
0000
0100
1000
0100
0000
,
0010
0010
0100
0100
,
1000
0010
0000
0000
0100
0001
1000
0000
,
0001
0010
0000
0000
0100
1000
0001
0000
,
1000
0010
0000
0000
0100
0001
0100
0000
,
0010
0010
0100
0100
,
0001
0000
1000
0000
0001
0010
0001
0000
,
1000
0000
0001
0000
1000
0010
1000
0000
,
0100
0000
0010
0000
0001
1000
0001
0000
,
0101
0011
1100
1010
,
1000
0000
0001
0000
1000
0100
1000
0000
,
0001
0000
1000
0000
0001
0100
0001
0000
,
0010
0000
0100
0000
1000
0001
1000
0000
,
1100
1010
0101
0011
,
0001
1000
0000
0010
0000
0100
0000
0001
,
0000
0010
0000
0100
0000
1000
0000
0100
,
0000
0010
0000
0001
0000
0100
0000
0010
,
0000
1000
0000
0001
0000
1001
1001
0000
,
1000
0001
0000
1000
0000
0010
0000
0100
,
0000
0001
0000
0010
0000
0100
0000
1000
,
0000
0100
0000
0010
0000
0001
0000
0100
,
0000
0010
0000
1000
0000
1001
1001
0000
,
0001
0010
0100
1100
,
1000
0010
0100
0101
,
0001
1000
0010
0110
,
0100
0001
1000
0000
0001
1001
1001
0000
,
1000
0100
0010
0011
,
0001
0100
0010
1010
,
1000
0001
0100
0110
,
0010
1000
0001
0000
1000
1001
1001
0000
;

//---------------dance-single - ----------------
#NOTES:
     dance-single:
     :
     Hard:
     7:
     :
0000
0000
0000
0000
,
0000
0000
0000
0000
,
0000
0000
0000
0000
,
1000
1100
0001
0101
,
1000
0000
1010
0000
0001
0011
0011
0000
,
0100
0000
0000
1000
0000
0000
0010
0000
0000
0100
0000
0000
0001
0000
0000
0000
,
0010
0000
0000
0001
0000
0000
1000
0000
0000
0010
0000
0000
0100
0000
0000
0000
,
1000
0000
0000
0100
0000
0000
0001
0000
0000
0010
0000
0000
0100
0000
0000
0000
,
0001
0000
0000
0100
0000
0000
1000
0000
0000
0010
0000
0000
0100
0000
0000
0000
,
0001
0000
0000
0010
0000
0000
0100
0000
0000
1000
0000
0000
0001
0000
0000
0000
,
1000
0000
0000
0010
0000
0000
0100
0000
0000
0001
0000
0000
1000
0000
0000
0000
,
0100
0000
0000
0010
0000
0000
0100
0000
0000
1000
0000
0000
0001
0000
0000
0000
,
0100
0000
0000
0010
0000
0000
1000
0000
0000
0001
0000
0000
0010
0000
0000
0000
,
0100
0010
0100
0000
1000
0000
0001
0000
,
1000
0010
1000
0000
0100
0000
0010
0000
,
0001
0100
0001
0000
1000
0010
1000
0100
,
0020
0032
2003
3200
,
0310
0001
0010
0000
0100
0000
1000
0000
,
0010
0100
0010
0000
1000
0000
0100
0000
,
1000
0001
1000
0000
0001
0010
0001
1000
,
0020
2030
3002
0203
,
0310
1000
0100
0001
0100
0010
0001
0000
,
0100
0010
0100
0001
0010
0100
1000
0000
,
0001
0010
0001
0100
1000
0100
0010
1000
,
0200
0320
0032
2003
,
3010
0100
0010
1000
0010
0100
0001
0000
,
0010
0001
0100
1000
0100
0001
0010
0000
,
0100
0010
0001
0010
0100
1000
0010
1000
,
0200
2300
3002
0023
,
0130
0000
0000
1000
0000
0000
0010
0000
0000
1000
0000
0000
0001
0000
0000
0000
,
0100
0000
0000
0001
0000
0000
0010
0000
0000
0100
0000
0000
1000
0000
0000
0000
,
0001
0000
0000
1000
0000
0000
0010
0000
0000
0100
0000
0000
0001
0000
0000
0000
,
0010
0000
0000
0001
0000
0000
1000
0000
0000
0000
0110
0000
0110
0000
0000
0000
,
0001
0000
0000
1000
0000
0000
0010
0000
0000
1000
0000
0000
0100
0000
0000
0000
,
0010
0000
0000
0001
0000
0000
1000
0000
0000
0010
0000
0000
1000
0000
0000
0000
,
0100
0000
0000
0010
0000
0000
0001
0000
0000
1000
0000
0000
0010
0000
0000
0000
,
1000
0000
0000
0100
0000
0000
0010
0000
0000
0000
1001
0000
1001
0000
0000
0000
,
0100
0010
1000
0010
0100
0010
1000
0100
,
0010
0001
0010
0100
0010
0001
0100
0000
,
0001
1000
0001
0010
0001
1000
0010
0100
,
0010
1000
0001
1000
0100
0110
0011
0000
,
0010
0001
0100
0001
0010
0001
0100
0010
,
1000
0100
1000
0010
1000
0100
1000
0000
,
0100
0010
0100
1000
0100
0010
0001
0100
,
0010
0100
0001
0100
0010
0110
1010
0000
;

//---------------dance-double - ----------------
#NOTES:
     dance-double:
     :
     Beginner:
     1:
     :
00000000
00000000
00000000
00000000
,
00000000
00000000
00000000
00000000
,
00000000
00000000
00000000
00000000
,
10000000
00000000
00000000
00000000
,
01000000
00000000
00000000
00000000
,
00010000
00000000
00010000
00000000
,
00010000
00000000
00000000
00000000
,
00001000
00000000
00001000
00000000
,
00001000
00000000
00000000
00000000
,
00000100
00000000
00000100
00000000
,
00000100
00000000
00000000
00000000
,
00000010
00000000
00000010
00000000
,
00000010
00000000
00000000
00000000
,
00001000
00000000
00000000
00000000
,
00000001
00000000
00000000
00000000
,
00000200
00000000
00000000
00000300
,
00000100
00000000
00000000
00000000
,
00000010
00000000
00000000
00000000
,
00010000
00000000
00000000
00000000
,
00002000
00000000
00000000
00003000
,
00001000
00000000
00000000
00000000
,
00100000
00000000
00000000
00000000
,
00010000
00000000
10000000
00000000
,
00010000
00000000
00000000
00000000
,
00100000
00000000
01000000
00000000
,
00100000
00000000
00000000
00000000
,
00001000
00000000
00010000
00000000
,
00001000
00000000
00000000
00000000
,
00010000
00000000
00001000
00000000
,
00010000
00000000
00000000
00000000
,
00001000
00000000
00000000
00000000
,
00000010
00000000
00000000
00000000
,
00000001
00000000
00000000
00000000
,
00001000
00000000
00000000
00000000
,
00000001
00000000
00000000
00000000
,
00000100
00000000
00000000
00000000
,
00001000
00000000
00000000
00000000
,
00010000
00000000
00010000
00000000
,
00001000
00000000
00001000
00000000
,
00200000
00000000
00000000
00300000
,
00100000
00000000
00000000
00000000
,
01000000
00000000
01000000
00000000
,
00100000
00000000
00100000
00000000
,
00020000
00000000
00000000
00030000
,
00010000
00000000
00000000
00000000
;

//---------------dance-double - ----------------
#NOTES:
     dance-double:
     :
     Easy:
     3:
     :
00000000
00000000
00000000
00000000
,
00000000
00000000
00000000
00000000
,
00000000
00000000
00000000
00000000
,
00000001
00000000
00000010
00000000
,
00000100
00000000
00001000
00000000
,
00000001
00000100
00001000
00000000
,
00000100
00001000
00010000
00000000
,
00001000
00010000
01000000
00000000
,
00010000
01000000
10000000
00000000
,
10000000
00100000
00010000
00000000
,
00100000
00010000
00001000
00000000
,
00010000
00001000
00000010
00000000
,
00001000
00000010
00000001
00000000
,
00000100
00000000
00000001
00000000
,
00000010
00000000
00001000
00000000
,
00010000
00000000
00100000
00000000
,
10000000
00000000
01000000
00000000
,
10000000
00000000
00100000
00000000
,
00010000
00000000
00001000
00000000
,
00010000
00000000
00001000
00000000
,
00000010
00000000
00000001
00000000
,
00000100
00000000
00000100
00000000
,
00000010
00000000
00000010
00000000
,
00010000
00000000
00001000
00000000
,
00010000
00010000
00001000
00001000
,
01000000
00000000
01000000
00000000
,
00100000
00000000
00100000
00000000
,
00010000
00000000
00001000
00000000
,
00010000
00010000
00001000
00001000
,
00100000
00000000
01000000
00000000
,
20000000
00000000
30000000
00000000
,
00100000
00000000
01000000
00000000
,
00002000
00000000
00003000
00000000
,
00010000
00000000
00000100
00000000
,
00000020
00000000
00000030
00000000
,
00000001
00000000
00000100
00000000
,
00000020
00000000
00000030
00000000
,
00000001
00000001
00000010
00000000
,
00000001
00000100
00000010
00000000
,
00010000
00010000
00001000
00000000
,
00100000
00010000
01000000
00000000
,
00100000
00100000
10000000
00000000
,
01000000
00100000
00001000
00000000
,
00010000
00010000
00001000
00000000
,
00010000
00001000
00010000
00011000
;

//---------------dance-double - ----------------
#NOTES:
     dance-double:
     :
     Medium:
     6:
     :
00000000
00000000
00000000
00000000
,
00000000
00000000
00000000
00000000
,
00000000
00000000
00000000
00000000
,
00000001
00000010
00000100
00001000
,
00000001
00000000
00000100
00000000
00001000
00010000
00010000
00000000
,
01000000
10000000
00100000
01100000
,
01000000
00001000
00010000
00010100
,
00000100
00000010
00000001
00000101
,
00000100
00000010
00010000
00011000
,
00001000
00100000
00010000
01010000
,
01000000
00100000
10000000
10010000
,
00010000
00100000
00001000
00011000
,
00010000
00000010
00001000
00001100
,
00000100
00000010
00000001
00000000
00000100
00000000
00001000
00000000
,
00010000
00001000
00100000
00000000
00010000
00000000
01000000
00000000
,
00100000
10000000
00010000
00000000
01000000
00000000
10000000
00000000
,
01000000
01010000
00010000
10010000
,
10000000
01000000
00100000
00000000
00001000
00000000
00010000
00000000
,
00000100
00001000
00000010
00000000
00000100
00000000
00000001
00000000
,
00000010
00000100
00000001
00000000
00000100
00000000
00001000
00000000
,
00000010
00000110
00000100
00000101
,
00000001
00000000
00001000
00000000
00000100
00000010
00000100
00000000
,
00000001
00000000
00000100
00000000
00001000
00000010
00001000
00000000
,
00000100
00000000
00010000
00000000
00001000
01000000
00001000
00000000
,
01010000
01010000
11000000
11000000
,
00100000
00000000
10000000
00000000
01000000
00100000
01000000
00000000
,
00010000
00000000
00001000
00000000
00000100
00000010
00000100
00000000
,
00000001
00000000
00000010
00000000
00000001
00001000
00000001
00000000
,
00000101
00000101
00001100
00001100
,
00000001
00001000
00000000
00000010
00000000
00000001
00000000
00000010
,
00000000
00001000
00000000
00000100
00000000
00010000
00000000
00001000
,
00000000
01000000
00000000
00010000
00000000
00100000
00000000
10000000
,
00000000
00100000
00000000
00010000
00000000
10010000
10010000
00000000
,
10000000
00010000
00000000
00100000
00000000
10000000
00000000
00100000
,
00000000
00010000
00000000
01000000
00000000
00001000
00000000
00010000
,
00000000
00000100
00000000
00001000
00000000
00000010
00000000
00000001
,
00000000
00000010
00000000
00001000
00000000
00001001
00001001
00000000
,
00000002
00000010
00000100
00001003
,
00000020
00000001
00000100
00001030
,
00000200
00000010
00001000
00010300
,
00001000
00000000
01000000
00000000
00010000
10010000
10010000
00000000
,
20000000
00100000
01000000
30010000
,
00200000
10000000
01000000
00310000
,
02000000
00100000
00010000
03001000
,
00010000
00000000
00000100
00000000
00001000
00001001
00001001
00000000
;

//---------------dance-double - ----------------
#NOTES:
     dance-double:
     :
     Hard:
     8:
     :
00000000
00000000
00000000
00000000
,
00000000
00000000
00000000
00000000
,
00000000
00000000
00000000
00000000
,
00000001
00000010
00001000
00011000
,
00010000
00000000
00100000
00000000
10000000
10010000
10010000
00000000
,
01000000
00000000
00000000
10000000
00000000
00000000
00010000
00000000
00000000
01000000
00000000
00000000
00001000
00000000
00000000
00000000
,
00100000
00000000
00000000
00010000
00000000
00000000
01000000
00000000
00000000
00001000
00000000
00000000
00010000
00000000
00000000
00000000
,
00000100
00000000
00000000
00000010
00000000
00000000
00000001
00000000
00000000
00000100
00000000
00000000
00001000
00000000
00000000
00000000
,
00010000
00000000
00000000
00000100
00000000
00000000
00001000
00000000
00000000
00000010
00000000
00000000
00010000
00000000
00000000
00000000
,
00001000
00000000
00000000
00100000
00000000
00000000
01000000
00000000
00000000
10000000
00000000
00000000
00010000
00000000
00000000
00000000
,
00100000
00000000
00000000
00001000
00000000
00000000
01000000
00000000
00000000
00100000
00000000
00000000
00010000
00000000
00000000
00000000
,
00001000
00000000
00000000
00000010
00000000
00000000
00000001
00000000
00000000
00000100
00000000
00000000
00000010
00000000
00000000
00000000
,
00010000
00000000
00000000
00001000
00000000
00000000
00000100
00000000
00000000
00000001
00000000
00000000
00001000
00000000
00000000
00000000
,
00000001
00000010
00000100
00000000
00000010
00000001
00000100
00000001
,
00001000
00000100
00010000
00000000
00000010
00010000
00001000
00100000
,
00010000
01000000
00001000
00000000
01000000
00010000
00100000
01000000
,
20000000
30200000
00320000
00032000
,
00003010
00000001
00001000
00000000
00000010
00000100
00000001
00000010
,
00000100
00010000
00001000
00000000
00100000
00001000
01000000
00010000
,
00100000
01000000
10000000
00000000
00100000
10000000
01000000
00010000
,
00002000
00003200
00000302
00000023
,
00000130
00001000
00001010
00000000
00000100
00000001
00000010
00001000
,
00010000
00001000
01001000
00000000
00100000
10000000
01000000
10000000
,
00010000
00100000
00101000
00000000
00010000
01000000
00100000
01000000
,
20000000
32000000
03002000
00023000
,
00031000
00000100
00000101
00000000
00000010
00000001
00001000
00000010
,
00000100
00001000
00011000
00000000
00000100
00010000
00001000
01000000
,
00100000
10000000
10010000
00000000
01000000
00100000
00001000
00010000
,
02000000
23000000
30200000
00320000
,
00031000
00000000
00000000
00000010
00000000
00000000
00000001
00000000
00000000
00000100
00000000
00000000
00000010
00000000
00000000
00000000
,
00000100
00000000
00000000
00000001
00000000
00000000
00001000
00000000
00000000
00000100
00000000
00000000
00000010
00000000
00000000
00000000
,
00000100
00000000
00000000
00010000
00000000
00000000
00001000
00000000
00000000
01000000
00000000
00000000
00010000
00000000
00000000
00000000
,
00100000
00000000
00000000
01000000
00000000
00000000
10000000
00000000
00000000
00000000
11000000
00000000
01010000
00000000
00000000
00000000
,
00100000
00000000
00000000
10000000
00000000
00000000
01000000
00000000
00000000
00010000
00000000
00000000
00001000
00000000
00000000
00000000
,
01000000
00000000
00000000
00100000
00000000
00000000
00010000
00000000
00000000
00001000
00000000
00000000
00000010
00000000
00000000
00000000
,
00000001
00000000
00000000
00000100
00000000
00000000
00000010
00000000
00000000
00010000
00000000
00000000
00000100
00000000
00000000
00000000
,
00000010
00000000
00000000
00000100
00000000
00000000
00001000
00000000
00000000
00000000
00001100
00000000
00000101
00000000
00000000
00000000
,
00000010
00000001
00000100
00000001
00001000
00000100
00001000
00000010
,
00010000
00000100
00000010
00000001
00000100
00001000
00010000
01000000
,
10000000
00100000
00010000
00001000
00100000
01000000
10000000
00100000
,
01000000
00001000
00010000
00000100
00000010
00000011
00001001
00000000
,
00000100
00001000
00010000
00001000
00000100
00000010
00010000
00001000
,
00000100
00000010
00001000
00000100
00000010
00000001
00000100
00001000
,
00010000
01000000
00100000
00001000
01000000
00010000
00100000
01000000
,
10000000
00100000
00010000
00100000
10000000
11000000
10010000
00000000
;
