#TITLE:It's The Beat;
#ARTIST:Simian Mobile Disco;
#BANNER:It's The Beat.png;
#BACKGROUND:It's The Beat-bg.png;
#CDTITLE:./CDTITLES/Dancing Stage UNIVERSE2.png;
#MUSIC:It's The Beat.ogg;
#SAMPLESTART:93.437;
#SAMPLELENGTH:15;
#BPMS:0=127;
#BGCHANGES:2=It's The Beat.avi=1=0=0=0;

//---------------dance-single - ----------------
#NOTES:
     dance-single:
     :
     Beginner:
     1:
     :
0000
0000
0000
0000
,
0000
0000
0000
0000
,
0000
0000
0000
0000
,
0000
0000
0000
0000
,
0000
0000
0000
0000
,
0001
0000
0000
0000
,
1000
0000
0000
0000
,
1001
0000
0000
0000
,
0001
0000
0000
0000
,
0010
0000
0000
0000
,
0100
0000
0000
0000
,
0110
0000
0000
0000
,
0010
0000
0000
0000
,
0001
0000
0000
0000
,
1000
0000
0000
0000
,
1001
0000
0000
0000
,
0001
0000
0000
0000
,
0100
0000
0100
0000
,
0010
0000
0010
0000
,
0110
0000
0000
0000
,
0100
0000
0000
0000
,
0001
0000
0001
0000
,
1000
0000
1000
0000
,
1001
0000
0000
0000
,
0100
0000
0000
0000
,
0110
0000
0000
0000
,
0001
0000
0000
0000
,
1001
0000
0000
0000
,
0010
0000
0000
0000
,
0110
0000
0000
0000
,
1000
0000
0000
0000
,
1001
0000
0000
0000
,
0000
0000
0000
0000
,
0010
0010
0000
0000
,
0100
0100
0000
0000
,
0001
0001
0000
0000
,
1000
1000
0000
0000
,
0100
0100
0000
0000
,
0010
0010
0000
0000
,
0001
0001
0000
0000
,
1000
1000
0000
0000
,
0100
0000
0100
0000
,
1000
0000
1000
0000
,
0010
0000
0010
0000
,
0100
0000
0100
0000
,
0001
0000
0001
0000
,
0010
0000
0010
0000
,
0001
0000
0001
0000
,
1000
0000
1000
0000
,
0000
0000
0000
0000
,
1001
0000
0000
0000
,
0010
0000
0000
0000
,
0110
0000
0000
0000
,
0100
0000
0000
0000
,
1001
0000
0000
0000
,
1000
0000
0000
0000
,
0110
0000
0000
0000
,
0001
0000
0000
0000
,
1001
0000
0000
0000
;

//---------------dance-single - ----------------
#NOTES:
     dance-single:
     :
     Easy:
     3:
     :
0000
0000
0000
0000
,
0000
0000
0000
0000
,
0000
0000
0000
0000
,
0000
0000
0000
0000
,
0000
0000
0000
0000
,
0010
0000
0010
1000
,
0001
0000
0001
0100
,
1001
0000
1000
0010
,
0200
0000
0000
0300
,
0001
0000
1000
0000
,
0010
1000
0100
0010
,
1001
0000
0100
0000
,
0010
0000
0100
0000
,
1000
0000
0001
0000
,
0010
0001
0100
0010
,
1001
0000
0010
0000
,
0100
0000
0010
0000
,
0001
0100
1000
0000
,
0100
0010
1000
0100
,
0110
0000
0001
0000
,
1000
0000
0001
0000
,
1000
0010
0001
0000
,
0010
0100
0001
0010
,
0110
0000
1000
0000
,
0001
0000
1000
1000
,
0110
0000
0001
0000
,
1000
0000
0100
0000
,
1000
0000
0001
0000
,
0010
0000
0001
0000
,
1000
0000
0010
0000
,
0001
0010
1000
0100
,
0001
0000
0010
0000
,
1000
0000
0001
0001
,
0100
0010
0000
0010
,
0000
1000
0000
1000
,
0000
0001
0000
0001
,
0000
0100
0000
0100
,
0001
1000
0000
1000
,
0000
0010
0000
0010
,
0000
0100
0000
0100
,
0000
0001
0000
0001
,
1000
0001
0100
0100
,
0010
1000
0100
0000
,
0100
0010
0001
0001
,
1000
0010
0100
0000
,
0001
0010
0100
0100
,
0010
0001
0001
0000
,
0100
0010
1000
1000
,
0000
0000
0000
0000
,
0000
0000
0000
0000
,
1001
0010
0100
0000
,
0010
1000
0010
0100
,
1001
0100
0010
0000
,
0100
0010
0001
0100
,
1001
0100
1000
0000
,
0100
0010
0001
0010
,
1001
1000
0001
0001
,
0001
0010
0100
1000
,
0001
0000
0000
0000
;

//---------------dance-single - ----------------
#NOTES:
     dance-single:
     :
     Medium:
     7:
     :
0000
0000
0000
0000
,
0000
0000
0000
0000
,
0000
0000
0000
0000
,
0000
0000
0000
0000
,
0000
0000
0000
0000
,
1000
0001
1000
0010
,
0001
0000
1000
0000
0001
0000
0100
0010
,
1000
0000
1000
0000
0100
0000
0000
0000
0010
0000
0000
0001
0000
0000
1000
0000
,
0010
0000
0000
0000
0000
0000
0000
0000
0000
0000
0000
0000
0000
0000
0000
0000
0100
0000
0000
0000
0000
0000
0000
0000
0000
0000
0000
0000
0000
0000
0000
0000
0001
0000
0000
0000
0000
0000
1000
0000
0000
0000
0000
0001
0000
0000
0000
0000
1000
0000
0000
0000
0000
0000
0000
0000
0001
0000
0000
0000
0000
0000
0000
0000
,
0100
0010
0000
1000
0100
0010
0000
0001
,
1000
0010
0000
0100
0000
0000
0001
1000
,
0110
0100
0002
2003
,
3100
0000
0010
0000
0001
0000
1000
0010
,
0100
0001
0000
0010
0100
1000
0000
0010
,
1000
0001
0000
0100
0000
0000
0010
0100
,
1001
1000
0020
0230
,
1300
0000
0100
0000
0001
0010
0010
0100
,
0100
0000
1000
0001
0100
0000
0000
1000
,
0100
0001
0000
0010
0000
0000
0100
1000
,
0011
0010
0200
2300
,
3010
0000
0100
0000
0001
1000
1000
0100
,
0100
0000
0001
0100
1000
0010
0000
0000
,
0001
0010
1000
1000
0000
0000
0010
1000
,
0100
0000
0001
0000
0001
0000
0000
0000
0100
0000
0000
1000
0000
0000
0010
0000
,
0002
0000
0000
0000
0000
0000
0000
0013
0000
0000
1000
0000
0001
0000
0100
0000
,
0010
1000
0100
0000
0001
0100
0010
0000
,
1000
0010
0001
0000
0100
0001
1000
1000
,
0010
1000
0001
0000
0100
0001
0010
0000
,
1000
0010
0100
0000
0001
0100
1000
1000
,
0010
1000
0001
0000
0100
0001
0010
1000
,
0010
0001
0100
1000
0100
0000
0010
1000
,
0001
0000
0100
0000
0100
0000
0000
0000
0001
0000
0000
1000
0000
0000
0001
0000
,
0000
0000
0000
0000
0000
0000
0000
0100
0000
0000
0010
0000
0100
0000
0010
0000
,
1000
0101
0010
1100
,
0001
0000
0110
0000
1000
0000
0010
0100
,
1001
0110
0000
1001
,
0000
0000
0110
0000
0000
0000
0001
1000
,
0001
0000
0010
0000
0100
0000
0010
0001
,
1100
0000
0011
0000
1100
0000
1000
0010
,
0101
1010
0000
1100
,
0000
0000
0000
0000
0011
0000
0000
0001
0000
0000
1000
0000
0010
0000
0100
0000
,
0001
1000
0100
1000
0001
0000
0100
0010
,
1000
0001
0010
0100
0000
0000
1000
0001
,
0110
1001
0020
0230
,
0310
0000
1000
0000
0001
0000
0100
0001
,
0000
1010
0000
0100
0000
0011
0001
0010
,
0100
1000
0010
1000
0100
0000
1000
0001
,
0100
0000
0001
0000
0010
0000
0000
0000
0002
0000
0000
2003
0000
0000
3100
0000
,
0000
0000
0000
0000
,
0000
0000
0000
0000
0000
0000
0000
0010
0000
0000
0001
0000
0100
0000
0010
0000
,
1001
0000
0010
0000
0001
0000
0010
1000
,
0100
0001
0100
1000
0001
0100
1000
0100
,
0001
0000
1100
0000
0101
0000
0010
0100
,
1000
0100
0001
0010
1000
0010
0001
1000
,
0110
0000
1001
0000
0010
0000
0100
1000
,
0001
0010
0001
1000
0100
0000
1000
0001
,
0010
0000
0100
0000
0100
0000
0000
0000
0010
0000
0000
0001
0000
0000
1000
0000
,
0020
0000
0000
0000
0100
0000
0000
1030
0000
0000
0001
0000
0100
0000
0010
0000
,
1001
0000
0000
0000
;

//---------------dance-single - ----------------
#NOTES:
     dance-single:
     :
     Hard:
     8:
     :
0000
0000
0000
0000
,
0000
0000
0000
0000
,
0000
0000
0000
0000
,
0000
0000
0000
0000
,
0000
0000
0000
0000
,
0001
0000
0000
0000
1000
0000
0010
1000
0000
0001
1000
0001
0100
0000
0000
0000
,
0010
0000
0000
0000
0000
0000
0000
0000
0000
0000
0000
0000
0000
0000
0000
0000
0100
0000
0000
0000
0000
0000
0000
0000
0000
0000
0000
0001
0000
0000
0000
0000
0010
0000
0000
0000
0000
0000
0001
0000
0000
0000
0000
1000
0000
0000
0000
0000
0001
0000
0000
0000
0000
0000
0000
0000
0100
0000
0000
0000
0000
0000
0000
0000
,
0010
0000
0000
0000
1000
0000
0100
0010
0000
0001
0010
1000
0010
0000
0001
0000
,
1000
0000
0000
0000
0000
0000
0000
0000
0000
0000
0000
0000
0000
0000
0000
0000
0100
0000
0000
0000
0000
0000
0000
0000
0000
0000
0000
0001
0000
0000
0000
0000
0100
0000
0000
0000
0000
0000
0010
0000
0000
0000
0000
0100
0000
0000
0000
0000
1000
0000
0000
0000
0000
0000
0000
0000
0001
0000
0000
0000
0000
0000
0000
0000
,
0100
0010
0010
1000
0100
0010
0010
0001
,
1000
0010
0010
0200
0000
0000
0301
1000
,
0110
0010
0200
0000
0002
0303
1010
0000
,
0001
0000
1000
0001
1000
0100
1000
0010
,
0100
0001
0001
0010
0100
1000
1000
0010
,
1000
0001
0001
0200
0000
0000
0310
0100
,
1001
0001
2000
0000
0020
3030
0101
0000
,
1000
0000
0001
1000
0001
0010
0010
0100
,
0200
0000
1300
0001
0200
0000
1300
1000
,
0100
0002
0000
0023
0000
0000
0130
1000
,
0011
0000
0020
0000
0200
0330
1001
0000
,
0010
0000
0100
0010
0001
1000
1000
0100
,
0200
0000
0301
0100
1000
0010
0020
0000
,
0031
0010
1000
2000
0000
0000
3010
1000
,
0100
0000
0001
0000
0002
0000
0100
0000
0103
0000
0000
1000
0000
0000
0010
0000
,
0002
0000
0000
0000
0000
0000
0000
0013
0000
0000
1000
0000
0100
0000
0001
0000
,
0001
0000
0000
0000
0100
0000
1000
0100
0000
0001
0100
0010
0100
0000
0000
0000
,
1000
0000
0000
0000
0010
0000
0100
0001
0000
1000
0100
0000
0001
0000
0100
0000
,
0010
0000
0000
0000
0001
0000
1000
0010
0000
0100
0001
0100
0000
0001
0000
0000
,
0010
0000
0000
0000
0100
0000
1000
0001
0000
0100
0010
0000
1000
0000
0001
0000
,
0110
0000
0000
0000
1000
0000
0001
1000
0000
0001
0100
0001
0010
0000
1000
0000
,
0010
0001
0100
1000
0100
0000
0010
1000
,
0001
0000
0100
0000
0100
0000
0000
0000
0002
0000
0000
2003
0000
0000
3002
0000
,
0000
0000
0000
0000
0000
0000
0000
0013
0000
0000
0100
0000
1000
0000
0001
0000
,
1000
0000
0110
0000
1000
0100
0011
0001
,
0010
0000
1100
0010
0001
0000
0110
1000
,
0001
0110
1000
0011
,
0100
0000
1010
0000
0001
0000
1100
0010
,
0001
0000
0101
0000
1000
0000
1010
0001
,
0101
0000
1010
0000
0101
0000
0001
1000
,
1100
0000
0002
0000
0200
0303
2020
0000
,
0000
0000
3030
0000
0101
0000
0000
0001
0000
0000
0100
0000
0010
0000
1000
0000
,
0100
0001
0100
1000
0010
0001
0001
0010
,
0100
0001
0010
2000
0000
0000
3010
0100
,
1001
0000
2000
0000
0002
3003
0110
0000
,
0010
0000
1000
0001
0010
0100
1000
0011
,
0000
1100
0000
1010
0000
0101
1000
0100
,
0010
1000
0001
0100
1000
0010
0100
0001
,
1010
0000
0010
0000
1000
0000
0000
0000
0002
0000
0000
0023
0000
0000
2000
0000
,
0000
0000
0000
0000
,
0000
0000
0000
0000
0030
0000
0000
3001
0000
0000
0100
0000
1000
0000
0010
0000
,
0101
0000
0100
0000
0001
0000
1100
0100
,
0110
0010
0011
0001
1001
1000
0001
0100
,
1010
0000
0010
0000
1000
0000
0001
0100
,
0101
0001
1001
1000
1010
0010
1000
0001
,
0110
0000
0100
0000
0010
0000
1000
0001
,
1001
0010
0110
0100
1001
0000
0010
0100
,
1001
0000
0100
0000
0010
0000
0000
0000
0002
0000
0000
0203
0000
0000
2300
0000
,
0001
0000
0000
0000
0001
0000
0000
3100
0000
0000
0010
0000
1000
0000
0100
0001
;

//---------------dance-double - ----------------
#NOTES:
     dance-double:
     :
     Beginner:
     1:
     :
00000000
00000000
00000000
00000000
,
00000000
00000000
00000000
00000000
,
00000000
00000000
00000000
00000000
,
00000000
00000000
00000000
00000000
,
00000000
00000000
00000000
00000000
,
00010000
00000000
00000000
00000000
,
10000000
00000000
00000000
00000000
,
10010000
00000000
00000000
00000000
,
00010000
00000000
00000000
00000000
,
00100000
00000000
00000000
00000000
,
00001000
00000000
00000000
00000000
,
00011000
00000000
00000000
00000000
,
00010000
00000000
00000000
00000000
,
00000100
00000000
00000000
00000000
,
00001000
00000000
00000000
00000000
,
00001001
00000000
00000000
00000000
,
00000001
00000000
00000000
00000000
,
00000010
00000000
00000010
00000000
,
00000001
00000000
00000001
00000000
,
00001001
00000000
00000000
00000000
,
00000100
00000000
00000000
00000000
,
00010000
00000000
00010000
00000000
,
00001000
00000000
00001000
00000000
,
00011000
00000000
00000000
00000000
,
01000000
00000000
00000000
00000000
,
01100000
00000000
00000000
00000000
,
00010000
00000000
00000000
00000000
,
10010000
00000000
00000000
00000000
,
00100000
00000000
00000000
00000000
,
01100000
00000000
00000000
00000000
,
10000000
00000000
00000000
00000000
,
10010000
00000000
00000000
00000000
,
00000000
00000000
00000000
00000000
,
00100000
00100000
00000000
00000000
,
00001000
00001000
00000000
00000000
,
00010000
00010000
00000000
00000000
,
00000100
00000100
00000000
00000000
,
00001000
00001000
00000000
00000000
,
00000010
00000010
00000000
00000000
,
00010000
00010000
00000000
00000000
,
00001000
00001000
00000000
00000000
,
01000000
00000000
01000000
00000000
,
00010000
00000000
00010000
00000000
,
00100000
00000000
00100000
00000000
,
00001000
00000000
00001000
00000000
,
00010000
00000000
00010000
00000000
,
00000100
00000000
00000100
00000000
,
00001000
00000000
00001000
00000000
,
00000010
00000000
00000010
00000000
,
00000000
00000000
00000000
00000000
,
00001001
00000000
00000000
00000000
,
00000010
00000000
00000000
00000000
,
00000110
00000000
00000000
00000000
,
00000100
00000000
00000000
00000000
,
00001001
00000000
00000000
00000000
,
00001000
00000000
00000000
00000000
,
00000110
00000000
00000000
00000000
,
00000001
00000000
00000000
00000000
,
00001001
00000000
00000000
00000000
;

//---------------dance-double - ----------------
#NOTES:
     dance-double:
     :
     Easy:
     3:
     :
00000000
00000000
00000000
00000000
,
00000000
00000000
00000000
00000000
,
00000000
00000000
00000000
00000000
,
00000000
00000000
00000000
00000000
,
00000000
00000000
00000000
00000000
,
00000010
00000000
00000010
00001000
,
00000100
00000000
00000100
00010000
,
00011000
00000000
00100000
00010000
,
02000000
00000000
00000000
03000000
,
00010000
00000000
10000000
00000000
,
00100000
10000000
01000000
00100000
,
10010000
00000000
01000000
00000000
,
00001000
00000000
00010000
00000000
,
00000100
00000000
00000010
00000000
,
00000100
00001000
00000010
00000100
,
00001001
00000000
00000010
00000000
,
00000100
00000000
00001000
00000000
,
00010000
01000000
10000000
00000000
,
01000000
00100000
00010000
01000000
,
01100000
00000000
00010000
00000000
,
00001000
00000000
00000100
00000000
,
00000001
00000010
00001000
00000000
,
00000010
00000100
00001000
00000010
,
00000110
00000000
00000001
00000000
,
00001000
00000000
00000001
00000001
,
00000110
00000000
00001000
00000000
,
00000100
00000000
00010000
00000000
,
00001000
00000000
00100000
00000000
,
00010000
00000000
01000000
00000000
,
00001000
00000000
00010000
00000000
,
00100000
10000000
01000000
00010000
,
00100000
00000000
01000000
00000000
,
00010000
00000000
10000000
10000000
,
01000000
00100000
00000000
00100000
,
00000000
01000000
00000000
01000000
,
00000000
00010000
00000000
00010000
,
00000000
00001000
00000000
00001000
,
00010000
00000100
00000000
00000100
,
00000000
00000010
00000000
00000010
,
00000000
00000001
00000000
00000001
,
00000000
00001000
00000000
00001000
,
00000010
00000100
00000001
00000001
,
00000010
00001000
00010000
00000000
,
00001000
00000010
00010000
00010000
,
00001000
01000000
00100000
00000000
,
00001000
01000000
00100000
00100000
,
10000000
01000000
00010000
00001000
,
00000100
00000001
00000010
00000010
,
00000000
00000000
00000000
00000000
,
00000000
00000000
00000000
00000000
,
00001001
00000010
00000100
00000000
,
00000010
00001000
00010000
01000000
,
10010000
01000000
00100000
00000000
,
01000000
00100000
00010000
01000000
,
00011000
00001000
00000010
00000000
,
00010000
00001000
00000100
00000010
,
00001001
00000010
00001000
00001000
,
00011000
00010000
00100000
01000000
,
10010000
00000000
00000000
00000000
;

//---------------dance-double - ----------------
#NOTES:
     dance-double:
     :
     Medium:
     7:
     :
00000000
00000000
00000000
00000000
,
00000000
00000000
00000000
00000000
,
00000000
00000000
00000000
00000000
,
00000000
00000000
00000000
00000000
,
00000000
00000000
00000000
00000000
,
10000000
00010000
10000000
00100000
,
00010000
00000000
00001000
00000000
00010000
00000000
00000100
00000010
,
00000001
00000000
00000001
00000000
00000100
00000000
00000000
00000000
00000010
00000000
00000000
00001000
00000000
00000000
00000001
00000000
,
00000100
00000000
00000000
00000000
00000000
00000000
00000000
00000000
00000000
00000000
00000000
00000000
00000000
00000000
00000000
00000000
00000010
00000000
00000000
00000000
00000000
00000000
00000000
00000000
00000000
00000000
00000000
00000000
00000000
00000000
00000000
00000000
00001000
00000000
00000000
00000000
00000000
00000000
00000001
00000000
00000000
00000000
00000000
00001000
00000000
00000000
00000000
00000000
00000001
00000000
00000000
00000000
00000000
00000000
00000000
00000000
00001000
00000000
00000000
00000000
00000000
00000000
00000000
00000000
,
00000100
00000010
00000000
00000001
00000100
00000010
00000000
00010000
,
00001000
00100000
00000000
01000000
00000000
00000000
10000000
00010000
,
01100000
01000000
00020000
20030000
,
31000000
00000000
00100000
00000000
00010000
00000000
10000000
00100000
,
01000000
00010000
00000000
00100000
01000000
10000000
00000000
00100000
,
01000000
00001000
00000000
00010000
00000000
00000000
00000010
00000100
,
00001001
00000001
00000020
00000230
,
00000301
00000000
00000100
00000000
00001000
00000100
00000100
00000010
,
00000010
00000000
00000001
00001000
00000100
00000000
00000000
00000010
,
00001000
00010000
00000000
01000000
00000000
00000000
10000000
00100000
,
01010000
01000000
00200000
20300000
,
31000000
00000000
00100000
00000000
00010000
10000000
10000000
01000000
,
01000000
00000000
00010000
01000000
10000000
00100000
00000000
00000000
,
00010000
00001000
00000100
00000100
00000000
00000000
00000010
00001000
,
00000100
00000000
00000001
00000000
00000001
00000000
00000000
00000000
00000100
00000000
00000000
00001000
00000000
00000000
00000010
00000000
,
00000002
00000000
00000000
00000000
00000000
00000000
00000000
00000013
00000000
00000000
00001000
00000000
00000001
00000000
00000100
00000000
,
00000010
00001000
00000100
00000000
00000001
00000100
00000010
00000000
,
00001000
00000010
00000100
00000000
00010000
00001000
01000000
01000000
,
00100000
10000000
00010000
00000000
01000000
00010000
00100000
00000000
,
10000000
00100000
01000000
00000000
00010000
00001000
00000100
00000100
,
00000010
00001000
00000001
00000000
00000100
00000001
00000010
00001000
,
00100000
00010000
01000000
10000000
01000000
00000000
00100000
10000000
,
00010000
00000000
01000000
00000000
01000000
00000000
00000000
00000000
00010000
00000000
00000000
10000000
00000000
00000000
00010000
00000000
,
00000000
00000000
00000000
00000000
00000000
00000000
00000000
01000000
00000000
00000000
00100000
00000000
01000000
00000000
00100000
00000000
,
10000000
01010000
00100000
11000000
,
00010000
00000000
01100000
00000000
10000000
00000000
00100000
01000000
,
10010000
01100000
00000000
00011000
,
00000000
00000000
00000110
00000000
00000000
00000000
00001000
00000001
,
00001000
00000000
00000010
00000000
00000100
00000000
00000010
00001000
,
00000101
00000000
00001010
00000000
00000101
00000000
00000001
00000010
,
00001100
00011000
00000000
00110000
,
00000000
00000000
00000000
00000000
01010000
00000000
00000000
00010000
00000000
00000000
10000000
00000000
00100000
00000000
01000000
00000000
,
00010000
10000000
01000000
10000000
00010000
00000000
01000000
00100000
,
10000000
00010000
00100000
01000000
00000000
00000000
10000000
00010000
,
01100000
10010000
00200000
02300000
,
03100000
00000000
00010000
00000000
00001000
00000000
00000100
00000001
,
00000000
00001010
00000000
00000100
00000000
00000011
00000001
00000010
,
00000100
00001000
00000010
00001000
00000100
00000000
00001000
00000001
,
00000100
00000000
00000001
00000000
00000010
00000000
00000000
00000000
00002000
00000000
00000000
00023000
00000000
00000000
00031000
00000000
,
00000000
00000000
00000000
00000000
,
00000000
00000000
00000000
00000000
00000000
00000000
00000000
00100000
00000000
00000000
00010000
00000000
01000000
00000000
00100000
00000000
,
10010000
00000000
00100000
00000000
00010000
00000000
00100000
10000000
,
01000000
00010000
00001000
00000100
00000001
00000100
00001000
00000100
,
00000001
00000000
00001100
00000000
00000101
00000000
00000010
00000001
,
00000100
00001000
00010000
00100000
10000000
00100000
00010000
00001000
,
00100000
00000000
10010000
00000000
01100000
00000000
01000000
10000000
,
00010000
00100000
00010000
10000000
01000000
00000000
10000000
00010000
,
00100000
00000000
00001000
00000000
00001000
00000000
00000000
00000000
00010000
00000000
00000000
00000010
00000000
00000000
00001000
00000000
,
00000200
00000000
00000000
00000000
00010000
00000000
00000000
00001300
00000000
00000000
00000001
00000000
00000100
00000000
00000010
00000000
,
00001001
00000000
00000000
00000000
;

//---------------dance-double - ----------------
#NOTES:
     dance-double:
     :
     Hard:
     8:
     :
00000000
00000000
00000000
00000000
,
00000000
00000000
00000000
00000000
,
00000000
00000000
00000000
00000000
,
00000000
00000000
00000000
00000000
,
00000000
00000000
00000000
00000000
,
00010000
00000000
00000000
00000000
10000000
00000000
00100000
10000000
00000000
00010000
10000000
00010000
01000000
00000000
00000000
00000000
,
00100000
00000000
00000000
00000000
00000000
00000000
00000000
00000000
00000000
00000000
00000000
00000000
00000000
00000000
00000000
00000000
00010000
00000000
00000000
00000000
00000000
00000000
00000000
00000000
00000000
00000000
00000000
00001000
00000000
00000000
00000000
00000000
00100000
00000000
00000000
00000000
00000000
00000000
00001000
00000000
00000000
00000000
00010000
00000000
00000000
00000000
00000000
00000000
00000100
00000000
00000000
00000000
00000000
00000000
00000000
00000000
00001000
00000000
00000000
00000000
00000000
00000000
00000000
00000000
,
00000010
00000000
00000000
00000000
00001000
00000000
00000100
00000010
00000000
00000001
00000010
00001000
00000010
00000000
00000001
00000000
,
00001000
00000000
00000000
00000000
00000000
00000000
00000000
00000000
00000000
00000000
00000000
00000000
00000000
00000000
00000000
00000000
00000100
00000000
00000000
00000000
00000000
00000000
00000000
00000000
00000000
00000000
00000000
00010000
00000000
00000000
00000000
00000000
00001000
00000000
00000000
00000000
00000000
00000000
00100000
00000000
00000000
00000000
00000000
00010000
00000000
00000000
00000000
00000000
10000000
00000000
00000000
00000000
00000000
00000000
00000000
00000000
00010000
00000000
00000000
00000000
00000000
00000000
00000000
00000000
,
01000000
00100000
00100000
10000000
01000000
00100000
00100000
00010000
,
10000000
00100000
00100000
02000000
00000000
00000000
03010000
10000000
,
01100000
00100000
02000000
00000000
00002000
03003000
00010010
00000000
,
00000100
00000000
00001000
00000001
00001000
00000100
00001000
00000010
,
00000100
00000001
00000001
00000010
00000100
00001000
00001000
00000010
,
00001000
00000001
00000001
00000200
00000000
00000000
00000310
00000100
,
00001001
00000001
00002000
00000000
00000200
00003300
00000011
00000000
,
00001000
00000000
00000100
00010000
00001000
00100000
00100000
01000000
,
02000000
00000000
13000000
00010000
02000000
00000000
03001000
00001000
,
00010000
00000020
00000000
00002030
00000000
00000000
00003001
00000100
,
00001010
00000000
00000020
00000000
00000200
00000330
00001001
00000000
,
00000010
00000000
00000100
00000010
00000001
00001000
00001000
00000100
,
00000200
00000000
00000301
00000100
00001000
00000010
00000020
00000000
,
00010030
00100000
10000000
20000000
00000000
00000000
30100000
10000000
,
01000000
00000000
00010000
00000000
00020000
00000000
00001000
00000000
00031000
00000000
00000000
00000010
00000000
00000000
00000001
00000000
,
00002000
00000000
00000000
00000000
00000000
00000000
00000000
00003010
00000000
00000000
00001000
00000000
00000100
00000000
00000001
00000000
,
00000001
00000000
00000000
00000000
00000100
00000000
00001000
00000100
00000000
00000001
00000100
00000010
00000100
00000000
00000000
00000000
,
00010000
00000000
00000000
00000000
00001000
00000000
00100000
00001000
00000000
00010000
00000100
00000000
00010000
00000000
00001000
00000000
,
00100000
00000000
00000000
00000000
00010000
00000000
10000000
00100000
00000000
01000000
00010000
01000000
00000000
00010000
00000000
00000000
,
00100000
00000000
00000000
00000000
00010000
00000000
01000000
00001000
00000000
00010000
00000100
00000000
00001000
00000000
00000001
00000000
,
00000110
00000000
00000000
00000000
00001000
00000000
00000001
00001000
00000000
00000001
00000100
00000001
00000010
00000000
00001000
00000000
,
00100000
00010000
01000000
10000000
01000000
00000000
00001000
00010000
,
00000100
00000000
00000010
00000000
00000010
00000000
00000000
00000000
00002000
00000000
00000000
00023000
00000000
00000000
00032000
00000000
,
00000000
00000000
00000000
00000000
00000000
00000000
00000000
00103000
00000000
00000000
00010000
00000000
01000000
00000000
00100000
00000000
,
10000000
00000000
01100000
00000000
10000000
01000000
00110000
00010000
,
00100000
00000000
00011000
00000010
00000100
00000000
00001010
00000100
,
00000001
00000110
00001000
00000011
,
00000100
00000000
00001010
00000000
00000001
00000000
00001100
00000010
,
00000001
00000000
00000110
00000000
00001000
00000000
00000010
00001000
,
00000101
00000000
00001010
00000000
00000101
00000000
00001000
00000100
,
00011000
00000000
00020000
00000000
00000200
00030300
00101000
00000000
,
00000000
00000000
00000000
00000000
01010000
00000000
00000000
00010000
00000000
00000000
01000000
00000000
00100000
00000000
10000000
00000000
,
01000000
00010000
01000000
10000000
00100000
00010000
00001000
00000100
,
00000010
00001000
00000100
00000002
00000000
00000000
00000103
00000010
,
00001001
00000000
00000002
00000000
00002000
00003003
00000110
00000000
,
00000010
00000000
00001000
00000001
00000010
00000100
00001000
00010100
,
00000000
00010010
00000000
01001000
00000000
00101000
00010000
01000000
,
00100000
10000000
00010000
00100000
01000000
10000000
00010000
01000000
,
10100000
00000000
00100000
00000000
10000000
00000000
00000000
00000000
00010000
00000000
00000000
00100000
00000000
00000000
10000000
00000000
,
00000000
00000000
00000000
00000000
,
00000000
00000000
00000000
00000000
00000000
00000000
00000000
00000001
00000000
00000000
00000100
00000000
00000010
00000000
00001000
00000000
,
00000101
00000000
00001000
00000000
00000010
00000000
00010010
00010000
,
00011000
00001000
01001000
01000000
01010000
00010000
10000000
01000000
,
00110000
00000000
01000000
00000000
10000000
00000000
00010000
00100000
,
00101000
00001000
00011000
00010000
00010100
00000100
00001000
00000001
,
00000110
00000000
00000001
00000000
00001000
00000000
00000100
00000010
,
00000110
00010000
00011000
01000000
01100000
00000000
10000000
00010000
,
01100000
00000000
00010000
00000000
10000000
00000000
01000000
00000000
00020000
00000000
00000000
02030000
00000000
00000000
23000000
00000000
,
00010000
00000000
00000000
00000000
00010000
00000000
00000000
31000000
00000000
00000000
00100000
00000000
00001000
00000000
00010000
00000100
;
