#TITLE:Here It Goes Again;
#ARTIST:OK Go;
#BANNER:Here It Goes Again.png;
#BACKGROUND:Here It Goes Again-bg.png;
#MUSIC:Here It Goes Again.ogg;
#SAMPLESTART:37.978;
#SAMPLELENGTH:15;
#DISPLAYBPM:144:147;
#BPMS:0=145.455,16=146.939,20=146.045,28=145.749,36=144.869,44=144.578,52=145.161,60=144.869,68=144.289,76=146.045,92=145.455,100=146.64,108=145.455,116=146.045,124=146.64,132=146.341,140=146.045,148=146.341,156=145.161,164=145.749,172=146.341,180=145.455,188=146.64,196=145.749,204=147.239,212=145.161,220=146.939,228=146.341;
#BGCHANGES:2=Here It Goes Again.avi=1=0=0=0;

//---------------dance-single - ----------------
#NOTES:
     dance-single:
     :
     Beginner:
     2:
     :
0000
0000
0000
0000
,
0000
0000
0000
0000
,
0000
0000
0000
0000
,
0000
0000
0000
0000
,
0010
0000
0010
0000
,
0110
0000
0000
0000
,
0000
0000
0000
0000
,
1000
0000
1000
0000
,
0001
0000
0001
0000
,
0001
0000
0000
0000
,
0100
0000
0000
0000
,
0010
0000
0000
0000
,
0100
0000
0000
0000
,
1000
0000
0000
0000
,
0001
0000
0000
0000
,
1000
0000
0000
0000
,
0001
0000
0000
0000
,
0010
0000
0010
0000
,
0010
0000
0010
0000
,
0100
0100
0000
0100
,
0000
0000
0000
0000
,
0000
0000
0000
0000
,
0000
0000
0000
0000
,
1000
0000
1000
0000
,
1000
0000
0000
0000
,
0002
0000
0000
0003
,
0001
0000
0001
0000
,
0001
0000
0000
0000
,
2000
0000
0000
3000
,
1000
0000
1000
0000
,
0001
0000
0001
0000
,
1001
0000
0000
0000
,
0000
0000
0000
0000
,
0010
0000
0010
0000
,
0100
0000
0100
0000
,
0010
0000
0010
0000
,
0010
0000
0000
0000
,
1000
0000
1000
0000
,
0001
0000
0001
0000
,
1000
0000
1000
0000
,
1000
0000
0000
0000
,
0010
0000
0100
0000
,
0010
0000
0100
0000
,
0000
0000
0000
0000
,
0110
0000
0000
0000
,
1001
0000
0000
0000
,
0110
0000
0000
0000
,
0010
0000
0010
0000
,
0010
0000
0000
0000
,
0200
0000
0000
0300
,
0100
0000
0100
0000
,
0100
0000
0000
0000
,
0020
0000
0000
0030
,
0010
0000
0010
0000
,
0100
0000
0100
0000
,
0110
0000
0000
0000
,
1000
1000
1000
0000
,
0001
0001
0001
0000
,
1001
0000
0000
0000
;

//---------------dance-single - ----------------
#NOTES:
     dance-single:
     :
     Easy:
     4:
     :
0000
0000
0000
0000
,
0000
0000
0000
0000
,
0000
0000
0000
0000
,
0000
0000
0000
0000
,
1000
0000
0001
0000
,
0110
0000
0000
0000
,
0000
0000
0000
0000
,
0001
0000
0100
0000
,
0001
0000
0100
0000
,
0020
0030
0010
0010
,
2000
3000
1000
1000
,
0200
0300
0100
0100
,
0002
0003
0001
0001
,
2000
3000
1000
1000
,
0020
0030
0010
0010
,
0002
0003
0001
0001
,
0200
0000
0000
0300
,
0001
0001
0100
0000
,
1000
1000
0010
0000
,
0010
0010
0100
0000
,
0100
0100
0010
0000
,
1000
0000
0001
0000
,
0010
0010
0100
0100
,
2000
3000
0002
0003
,
0200
0300
0020
0030
,
2002
3003
0100
0100
,
0100
1000
0100
0010
,
0100
0001
0100
1000
,
2002
3003
0010
0010
,
0100
0100
1000
1000
,
0010
0010
0001
0001
,
1001
0000
0000
0000
,
0000
0000
0000
0000
,
1000
0100
0010
0001
,
0001
0000
0100
0000
,
0001
0100
0010
1000
,
1000
0000
0000
0000
,
0010
0010
0100
0000
,
1000
1000
0001
0000
,
0010
0001
1000
0010
,
0200
0000
0000
0300
,
1000
1000
0010
0000
,
0001
0001
0100
0000
,
0100
0100
0010
0000
,
0010
0010
0100
0000
,
0001
0000
1000
0000
,
0100
0100
0010
0010
,
0002
0003
2000
3000
,
0020
0030
0200
0300
,
2002
3003
0010
0010
,
0010
0001
0010
0100
,
0010
1000
0010
0001
,
2002
3003
0010
0010
,
1000
0100
2000
3000
,
0001
0100
0002
0003
,
1001
0000
0100
0100
,
0010
0010
0010
1000
,
0100
0100
0100
0001
,
0110
0000
0000
0000
;

//---------------dance-single - ----------------
#NOTES:
     dance-single:
     :
     Medium:
     5:
     :
0000
0000
0000
0000
,
0000
0000
0000
0000
,
0000
0000
0000
0000
,
0000
0000
0000
0000
,
0010
0100
0000
0010
0100
0000
0010
0000
,
2002
0000
0000
0000
,
0000
0000
0000
0000
3000
1000
1003
0000
,
0010
0100
0000
0010
0100
0000
1000
0000
,
0001
1000
0000
0001
1000
0000
0001
0000
,
0110
1000
0100
0010
,
0001
0001
0100
0000
0010
0000
1000
0000
,
0010
0100
0001
1000
,
0100
0100
0010
0000
0001
0000
0010
0000
,
0100
1000
0001
1000
,
0010
0010
0100
0000
0001
0000
0100
0000
,
0010
1000
0100
0010
,
0001
0002
0000
0000
0000
1003
0000
0000
,
1000
0001
0000
1000
0001
0000
0100
0000
,
0010
0100
0000
0010
0100
0000
0010
0000
,
1000
0100
1100
0000
,
0001
0010
0011
0000
,
0101
0000
1100
0000
,
1100
1100
0101
0101
,
2000
3010
2000
3001
,
2000
0000
3100
0000
0010
0100
0010
0000
,
1001
0000
0100
0000
0001
1000
0100
1000
,
0002
0013
0002
1003
,
0002
0000
0103
0000
0010
0100
0010
0000
,
1001
0000
0100
0000
1000
0001
0100
0001
,
1000
1000
0100
0000
0001
0001
0100
0000
,
1000
0100
1000
0001
0010
0001
0100
0000
,
0220
0000
0000
0000
,
0000
0000
0000
0000
0300
0100
0130
0000
,
1000
0000
0001
0100
0010
0010
1000
0000
,
0001
0000
1000
0100
0010
0010
0001
0000
,
0100
0000
1001
0000
0010
1000
0100
0010
,
0100
0000
1001
0000
0010
0001
0100
0100
,
0010
0000
1000
0010
0100
0000
0001
0000
,
0100
0000
0001
0010
0100
0000
1000
0000
,
0110
0000
0110
0000
0001
1000
0001
0100
,
0010
0100
1000
0001
,
0001
1000
0000
0001
1000
0000
0010
0000
,
0100
0010
0000
0100
0010
0000
0100
0000
,
0001
0010
0011
0000
,
1000
0100
1100
0000
,
1010
0000
0011
0000
,
0011
0011
1010
1010
,
0002
0103
0002
1003
,
0002
0000
0013
0000
0100
0010
0100
0000
,
1001
0000
0010
0000
1000
0001
0010
0001
,
2000
3100
2000
3001
,
2000
0000
3010
0000
0100
0010
0100
0000
,
1001
0000
0010
0000
0001
1000
0010
1000
,
0001
0001
0010
0001
2000
0000
3010
0000
,
1000
1000
0100
1000
0002
0000
0103
0000
,
0110
0000
0100
0000
1000
0100
1000
0001
,
0100
0001
0100
0010
0100
0001
0100
0000
,
1000
0100
1000
0001
1000
0010
1000
0000
,
0110
0000
0000
0000
;

//---------------dance-single - ----------------
#NOTES:
     dance-single:
     :
     Hard:
     7:
     :
0000
0000
0000
0000
,
0000
0000
0000
0000
,
0000
0000
0000
0000
,
0000
0000
0000
0000
,
1000
0100
0000
0010
0001
0000
0100
0000
,
0110
0100
0001
0010
,
0100
0000
1000
0000
0001
1000
1000
0000
,
0001
0010
0000
0100
1000
0000
0010
0000
,
0001
0100
0000
0010
1000
0000
0100
0000
,
1002
0010
1000
0103
,
0010
0020
1000
0000
0100
0000
1030
0000
,
2100
0001
0010
3001
,
0100
0200
0001
0000
0010
0000
0301
0000
,
1020
0100
1000
0130
,
0001
0002
0010
0000
1000
0000
0103
0000
,
2001
0010
0100
3001
,
0010
0010
0100
0000
1000
1001
0000
0000
,
0010
0100
0000
0001
1000
0000
0110
0000
,
0001
1000
0000
0100
0010
0000
1001
0000
,
0010
1000
0001
1000
0100
0000
0100
0010
,
0001
0010
0100
0000
0100
1000
0001
0100
,
0001
0000
0001
0010
0001
0100
0010
0000
,
1000
0010
0100
0001
0010
0100
1000
0000
,
1001
0000
0010
0001
0100
0000
0010
0001
,
0100
0000
0010
0001
0100
1000
0010
0000
,
2001
0000
3000
0000
0010
1000
0100
0000
,
1001
0000
1000
0010
0100
0000
1000
0010
,
0100
0000
1000
0010
0100
0001
1000
0000
,
0220
0000
0330
0000
0010
0001
0100
0010
,
1000
1000
0001
0001
0100
0100
0010
0010
,
0100
0001
0010
0100
1000
0010
1000
0001
,
0100
1001
0010
1100
,
0010
0000
0101
0000
0010
0100
0100
0000
,
1001
0000
0001
0010
0100
0100
1000
0100
,
0010
0001
0100
0010
1000
1000
0001
0100
,
0010
1000
0010
0100
0001
0010
0100
1000
,
0010
0000
1000
0000
0001
0000
0010
0010
,
0001
0100
0001
1000
0010
0000
0100
0001
,
0100
1000
0100
0010
1000
0000
0101
0000
,
0010
0001
0010
0100
1000
0100
1000
0010
,
1000
0000
0001
0000
0100
0110
0000
0000
,
0010
1000
0000
1000
0010
0000
0110
0000
,
0100
0001
0000
0001
0100
0000
1001
0000
,
0100
0001
1000
0001
0010
0000
0010
0100
,
1000
0100
0010
0000
0010
0001
1000
0010
,
1000
0000
1000
0100
1000
0010
0100
0000
,
0001
0100
0010
1000
0100
0010
0001
0000
,
1001
0000
0010
0001
1000
0000
0010
0001
,
1000
0000
0010
0001
1000
0010
0001
0000
,
0220
0000
0330
0000
0010
0100
0001
0000
,
0110
0000
0001
0100
1000
0000
0001
0100
,
1000
0000
0001
0100
1000
0010
0001
0000
,
0220
0000
0330
0000
0010
1000
0100
1000
,
1100
0000
0010
0001
0200
0000
0301
0000
,
0011
0000
0010
0100
2000
0000
3010
0000
,
2002
0000
3003
0000
1000
0001
0100
0010
,
1000
1000
0001
0001
0100
0100
0010
0010
,
1000
0010
0100
0001
0010
0100
1000
0010
,
1001
0000
0000
0000
;

//---------------dance-double - ----------------
#NOTES:
     dance-double:
     :
     Beginner:
     2:
     :
00000000
00000000
00000000
00000000
,
00000000
00000000
00000000
00000000
,
00000000
00000000
00000000
00000000
,
00000000
00000000
00000000
00000000
,
00001000
00000000
00010000
00000000
,
00001000
00000000
00000000
00000000
,
00000000
00000000
00000000
00000000
,
00000010
00000000
00000010
00000000
,
00000100
00000000
00000100
00000000
,
00000100
00000000
00000000
00000000
,
00000001
00000000
00000000
00000000
,
00001000
00000000
00000000
00000000
,
00000001
00000000
00000000
00000000
,
00000100
00000000
00000000
00000000
,
00001000
00000000
00000000
00000000
,
00010000
00000000
00000000
00000000
,
00001000
00000000
00000000
00000000
,
00010000
00000000
00010000
00000000
,
00010000
00000000
00010000
00000000
,
00100000
00000000
00000000
00000000
,
00100000
00000000
00000000
00000000
,
01000000
00000000
00000000
00000000
,
01000000
00000000
00000000
00000000
,
10000000
00000000
10000000
00000000
,
10000000
00000000
00000000
00000000
,
02000000
00000000
00000000
03000000
,
01000000
00000000
01000000
00000000
,
01000000
00000000
00000000
00000000
,
00020000
00000000
00000000
00030000
,
00010000
00000000
00010000
00000000
,
00001000
00000000
00001000
00000000
,
00011000
00000000
00000000
00000000
,
00000000
00000000
00000000
00000000
,
00100000
00000000
00100000
00000000
,
01000000
00000000
01000000
00000000
,
00100000
00000000
00100000
00000000
,
00100000
00000000
00000000
00000000
,
10000000
00000000
10000000
00000000
,
00010000
00000000
00010000
00000000
,
10000000
00000000
10000000
00000000
,
10000000
00000000
00000000
00000000
,
01000000
00000000
01000000
00000000
,
00010000
00000000
00010000
00000000
,
00001000
00000000
00001000
00000000
,
00000100
00000000
00000100
00000000
,
00000010
00000000
00000010
00000000
,
00000110
00000000
00000000
00000000
,
00000001
00000000
00000001
00000000
,
00000001
00000000
00000000
00000000
,
00000200
00000000
00000000
00000300
,
00000100
00000000
00000100
00000000
,
00000100
00000000
00000000
00000000
,
00002000
00000000
00000000
00003000
,
00001000
00000000
00001000
00000000
,
00010000
00000000
00010000
00000000
,
00011000
00000000
00000000
00000000
,
00100000
00100000
00100000
00000000
,
01000000
01000000
01000000
00000000
,
10010000
00000000
00000000
00000000
;

//---------------dance-double - ----------------
#NOTES:
     dance-double:
     :
     Easy:
     3:
     :
00000000
00000000
00000000
00000000
,
00000000
00000000
00000000
00000000
,
00000000
00000000
00000000
00000000
,
00000000
00000000
00000000
00000000
,
10000000
00000000
00010000
00000000
,
01100000
00000000
00000000
00000000
,
00000000
00000000
00000000
00000000
,
00010000
00000000
10000000
00000000
,
00010000
00000000
10000000
00000000
,
02000000
00000000
00000000
03000000
,
00020000
00000000
00000000
00030000
,
00002000
00000000
00000000
00003000
,
00011000
00000000
00000000
00000000
,
00002000
00000000
00000000
00003000
,
00000020
00000000
00000000
00000030
,
00000002
00000000
00000000
00000003
,
00001001
00000000
00000000
00000000
,
00000010
00000010
00001000
00000100
,
00010000
00010000
00001000
00000000
,
00100000
00000000
00010000
00010000
,
01000000
00000000
00100000
00100000
,
10000000
00000000
01000000
01000000
,
00010000
00010000
00001000
00001000
,
00000200
00000300
00000020
00000030
,
00000200
00000300
00000020
00000030
,
00002002
00003003
00000100
00001000
,
00020000
00030000
00002000
00003000
,
00020000
00030000
00002000
00003000
,
00022000
00033000
00001000
00010000
,
00100000
00100000
10000000
10000000
,
01000000
01000000
00100000
00100000
,
20020000
00000000
00000000
00000000
,
00000000
00000000
00000000
30030000
,
10000000
01000000
00010000
00001000
,
00010000
00000000
00001000
00000000
,
00001000
00000100
00000001
00001000
,
00000001
00000000
00000000
00000000
,
00000100
00000100
00001000
00000000
,
00001000
00001000
00010000
00000000
,
00001000
00010000
00100000
01000000
,
02000000
00000000
00000000
03000000
,
00100000
00100000
00010000
01000000
,
00001000
00001000
00010000
00000000
,
00000010
00000000
00001000
00001000
,
00000100
00000000
00000010
00000010
,
00000001
00000000
00000100
00000100
,
00001000
00001000
00010000
00010000
,
02000000
03000000
00200000
00300000
,
02000000
03000000
00200000
00300000
,
20020000
30030000
01000000
00010000
,
00002000
00003000
00020000
00030000
,
00002000
00003000
00020000
00030000
,
00022000
00033000
00010000
00001000
,
00000100
00000100
00000002
00000003
,
00000100
00000100
00002000
00003000
,
00011000
00000000
00010000
00100000
,
10000000
10000000
10000000
01000000
,
00010000
00010000
00010000
00001000
,
00011000
00000000
00000000
00000000
;

//---------------dance-double - ----------------
#NOTES:
     dance-double:
     :
     Medium:
     6:
     :
00000000
00000000
00000000
00000000
,
00000000
00000000
00000000
00000000
,
00000000
00000000
00000000
00000000
,
00000000
00000000
00000000
00000000
,
10000000
01000000
00000000
00100000
01000000
00000000
00010000
00000000
,
00012000
00000000
00000000
00000000
,
00000000
00000000
00000000
00000000
00000000
00010000
00013000
00000000
,
00001000
00010000
00000000
00001000
00010000
00000000
00000010
00000000
,
00000100
00000010
00000000
00000100
00000010
00000000
00001000
00000000
,
00001001
00000100
00001000
00010000
,
00001000
00001000
00010000
00000000
00100000
00000000
10000000
00000000
,
00100000
10000000
01000000
00010000
,
00001000
00001000
00010000
00000000
00001000
00000000
00000010
00000000
,
00000001
00000010
00000001
00000100
,
00001000
00001000
00010000
00000000
01000000
00000000
10000000
00000000
,
01000000
10000000
00100000
00010000
,
00001000
00002000
00000000
00000000
00000000
00013000
00000000
00000000
,
00010000
00001000
00000000
00010000
00001000
00000000
00100000
00000000
,
01000000
00100000
00000000
01000000
00100000
00000000
01000000
00000000
,
10000000
01000000
11000000
00000000
,
00010000
00100000
00110000
00000000
,
00011000
00000000
00011000
00000000
,
00001010
00001010
00001100
00001100
,
00000020
00000000
00000031
00000000
00000100
00000010
00000100
00000000
,
00002000
00000000
00013000
00000000
00100000
01000000
00100000
00000000
,
10010000
00000000
01000000
00000000
00010000
00100000
01000000
10000000
,
00010000
00110000
10000000
10100000
,
01000000
00000000
01100000
00000000
01000000
00010000
00001000
00000000
,
00011000
00000000
00010000
00000000
00000100
00001000
00000100
00000010
,
00000001
00000001
00000100
00000000
00001000
00001000
00010000
00000000
,
00010000
00001000
00100000
00010000
01000000
00010000
00100000
00000000
,
02200000
00000000
00000000
00000000
,
00000000
00000000
00000000
00000000
03000000
01000000
01300000
00000000
,
10000000
00000000
00010000
01000000
00100000
00100000
10000000
00000000
,
01000000
00000000
00010000
00001000
00000100
00000100
00000010
00000000
,
00001000
00000000
00001010
00000000
00000001
00000100
00000001
00001000
,
00000100
00000000
00000110
00000000
00001000
00000100
00010000
00010000
,
00001000
00000000
00001000
00010000
00001000
00000000
00010000
00000000
,
00100000
00000000
10000000
00100000
01000000
00000000
00010000
00000000
,
01100000
00000000
01100000
00000000
00100000
10000000
00010000
10000000
,
01000000
00010000
00001000
00010000
,
00001000
00010000
00000000
00001000
00010000
00000000
00000010
00000000
,
00000100
00000010
00000000
00000100
00000010
00000000
00000100
00000000
,
00000001
00000100
00000101
00000000
,
00001000
00000010
00001010
00000000
,
00011000
00000000
00011000
00000000
,
00110000
00110000
01010000
01010000
,
00200000
00000000
10300000
00000000
01000000
00100000
01000000
00000000
,
00020000
00000000
00031000
00000000
00000010
00000100
00000010
00000000
,
00001001
00000000
00000100
00000000
00001000
00000010
00000100
00000001
,
00001000
00001010
00000001
00000011
,
00000100
00000000
00000110
00000000
00000100
00001000
00010000
00000000
,
00011000
00000000
00001000
00000000
01000000
00010000
01000000
00100000
,
10000000
10000000
01000000
10000000
01000000
00000000
00010000
00000000
,
00001000
00001000
00000100
00000010
00000100
00000000
00000001
00000000
,
00001001
00000000
00000100
00000000
00000001
00000100
00000001
00001000
,
00000100
00001000
00000100
00010000
00001000
00010000
00001000
00000000
,
00100000
00010000
00100000
01000000
10000000
01000000
10000000
00000000
,
01100000
00000000
00000000
00000000
;

//---------------dance-double - ----------------
#NOTES:
     dance-double:
     :
     Hard:
     8:
     :
00000000
00000000
00000000
00000000
,
00000000
00000000
00000000
00000000
,
00000000
00000000
00000000
00000000
,
00000000
00000000
00000000
00000000
,
00000010
00000001
00000000
00001000
00000100
00000000
00000110
00000000
,
00002001
00000100
00000001
00000100
,
00000001
00000000
00000100
00000000
00003001
00001000
00001000
00000000
,
00000001
00000010
00000000
00000100
00010000
00000000
00011000
00000000
,
00001000
01000000
00000000
00100000
10000000
00000000
10010000
00000000
,
01010000
01000000
00100000
01000000
00001000
00100000
00010000
00100000
,
00001000
00001000
00010000
00000100
00000010
00000100
00010000
00000010
,
00001010
00001000
00000100
00000010
00000100
00010000
00001000
00010000
,
00000010
00000010
00000100
00000000
00000001
00000000
00001000
00000000
,
00001010
00000010
00010000
00000100
00010000
00001000
01000000
00100000
,
10000000
10000000
01000000
00100000
01000000
10000000
00010000
01000000
,
01001000
00001000
00100000
00001000
00010000
00000010
00010000
00000100
,
00000010
00000010
00000001
00000000
00001000
00001001
00000000
00000000
,
00000001
00000100
00000000
00000010
00010000
00000000
00011000
00000000
,
00001000
00100000
00000000
01000000
10000000
00000000
10010000
00000000
,
10100000
11000000
01010000
00011000
,
00001100
00000101
00000011
00001001
,
00001010
00000101
00000011
00001100
,
00000010
00000001
00000100
00001000
00000100
00000001
00000010
00001000
,
00010000
00000100
00010000
00001000
00000100
00000000
00010000
00001000
,
00000100
00000000
00000000
00000000
00010000
00000000
00001000
00000000
00000100
00000000
00000001
00000100
00000000
00000000
00000000
00000000
,
00002002
00000000
00000000
00000000
00003003
00000000
00001000
00000000
00000001
00000000
00000010
00000000
00000100
00000000
00001000
00000100
,
00000000
00010000
00001000
00010000
01000000
00000000
00001000
00010000
,
01000000
00000000
00000000
00000000
00001000
00000000
00010000
00000000
01000000
00000000
10000000
01000000
00000000
00000000
00000000
00000000
,
20020000
00000000
00000000
00000000
30030000
00000000
00010000
00000000
10000000
00000000
00100000
00000000
01000000
00000000
00010000
01000000
,
00100000
00100000
10000000
10000000
01000000
01000000
00100000
00100000
,
00001000
00001000
00010000
00010000
00000010
00000010
00000100
00000100
,
00000201
00001000
00000001
00001000
,
00000001
00000000
00001000
00000000
00000301
00000100
00001000
00000000
,
00011000
00010000
00000100
00000010
00000100
00010000
00001000
01000000
,
00100000
00100000
01000000
00001000
00010000
00000100
00000010
00000001
,
00001001
00001000
00000010
00001000
00000100
00010000
00000100
00001000
,
00000010
00000010
00010000
00000000
00001000
00000000
00100000
00000000
,
00101000
00001000
00010000
00000010
00001000
00000010
00010000
00001000
,
00100000
00100000
00010000
00100000
00001000
01000000
00100000
01000000
,
01001000
00001000
00010000
00000100
00001000
00000100
00000010
00000001
,
00001000
00001000
00000010
00000000
00010000
00011000
00000000
00000000
,
00001000
00000100
00000000
00000001
00000010
00000000
00011000
00000000
,
00010000
01000000
00000000
10000000
00100000
00000000
00011000
00000000
,
00101000
00010100
00010010
01001000
,
10100000
11000000
01010000
00011000
,
00001100
00000101
00000011
00000110
,
00000100
00001000
00000010
00000001
00000010
00001000
00000100
00000001
,
00000100
00010000
00001000
00010000
01000000
00000000
00001000
00010000
,
01000000
00000000
00000000
00000000
00001000
00000000
00010000
00000000
01000000
00000000
10000000
00100000
00000000
00000000
00000000
00000000
,
02020000
00000000
00000000
00000000
03030000
00000000
00010000
00000000
10000000
00000000
01000000
00000000
00010000
00000000
00001000
01000000
,
00000000
00001000
00010000
00001000
00000100
00000000
00010000
00001000
,
00000100
00000000
00000000
00000000
00010000
00000000
00001000
00000000
00000100
00000000
00000001
00000010
00000000
00000000
00000000
00000000
,
00002200
00000000
00000000
00000000
00003300
00000000
00001000
00000000
00000001
00000000
00000100
00000000
00001000
00000000
00010000
00000100
,
00000000
00000010
00000001
00000100
00001000
00010000
00010000
00000000
,
00000000
00100000
10000000
01000000
00010000
00001000
00001000
00000000
,
00000000
00000000
00000000
00000000
00000000
00000000
00000010
00000000
00000001
00000000
00000100
00000000
00001000
00000000
00010000
00001000
,
01000000
01000000
00100000
00100000
10000000
10000000
01000000
01000000
,
00100000
00100000
00001000
00001000
00010000
00000100
00000010
00000001
,
00001001
00000000
00000000
00000000
;
