#TITLE:Heartbeats;
#ARTIST:The Knife;
#BANNER:Heartbeats.png;
#BACKGROUND:Heartbeats-bg.png;
#CDTITLE:./CDTITLES/Dancing Stage UNIVERSE2.png;
#MUSIC:Heartbeats.ogg;
#SAMPLESTART:13.65;
#SAMPLELENGTH:15;
#BPMS:0=88;
#BGCHANGES:4=Heartbeats.avi=1=0=0=0;

//---------------dance-single - ----------------
#NOTES:
     dance-single:
     :
     Beginner:
     1:
     :
0000
0000
0000
0000
,
0000
0000
0000
0000
,
0000
0000
0000
0000
,
0000
0000
0000
0000
,
0000
0000
0000
0000
,
1000
0000
0001
0000
,
1000
0000
0001
0000
,
0100
0000
0010
0000
,
1000
0000
0000
0000
,
0001
0000
0010
0000
,
0001
0000
0100
0000
,
0010
0000
1000
0000
,
0010
0000
0000
0000
,
0100
0000
0001
0000
,
0001
0000
0010
0000
,
0100
0000
1000
0000
,
1000
0000
0010
0000
,
0100
0000
0100
0000
,
0001
0000
1000
0000
,
0100
0000
0100
0000
,
0010
0000
0001
0000
,
1000
0000
1000
0000
,
0001
0000
0001
0000
,
0100
0000
0100
0000
,
0010
0000
0010
0000
,
1000
0000
0001
0000
,
1000
0000
0010
0000
,
0100
0000
0001
0000
,
0010
0000
0100
0100
,
1000
0000
0001
0000
,
0100
0000
0010
0000
,
1000
0000
0100
0000
,
0010
0000
0000
0000
,
0110
0000
0000
0000
,
0001
0000
0100
0000
,
0010
0000
1000
0000
,
0100
0000
0010
0000
,
1001
0000
0001
0000
,
0100
0000
0010
0000
,
1000
0000
0100
0000
,
0010
0000
0001
0000
,
1001
0000
0000
0000
;

//---------------dance-single - ----------------
#NOTES:
     dance-single:
     :
     Easy:
     3:
     :
0000
0000
0000
0000
,
0000
0000
0000
0000
,
0000
0000
0000
0000
,
0000
0000
0000
0000
,
0000
0000
0000
0000
,
1000
0000
1001
0000
,
0001
0000
0010
0100
,
1000
0000
0110
0000
,
0001
0000
1000
0001
,
0010
0000
0110
0000
,
0100
0000
1000
0010
,
0100
0000
1001
0000
,
0001
0000
0000
1000
,
0100
0000
0010
0010
,
0001
0000
0100
0100
,
0010
0000
1000
1000
,
0001
0000
0010
0001
,
0100
0000
0010
1000
,
0001
0000
0010
0100
,
1000
0000
0001
1000
,
0010
0000
0100
0001
,
0010
0010
0010
0000
,
0100
0100
0100
0000
,
1000
1000
1000
0000
,
0001
0001
0001
0000
,
0100
0100
0010
0000
,
0100
0100
0010
0000
,
1000
1000
0001
0000
,
1000
1000
0001
0000
,
0010
0100
0100
0000
,
1000
0001
0001
0000
,
0100
0010
0010
0000
,
1001
0000
0000
0000
,
0110
0000
1000
1000
,
0100
0000
0100
0010
,
0110
0000
0001
0001
,
0100
0000
0010
1000
,
1001
0000
0001
0010
,
0100
0000
1000
0010
,
0110
0000
0001
0010
,
0100
0000
1000
0001
,
1001
0000
0000
0000
;

//---------------dance-single - ----------------
#NOTES:
     dance-single:
     :
     Medium:
     5:
     :
0000
0000
0000
0000
,
0000
0000
0000
0000
,
0000
0000
0000
0000
,
0000
0000
0000
0000
,
0000
0000
0000
0000
,
0100
0000
1001
0000
0100
0010
0001
1000
,
0000
1000
0010
0000
0100
0001
1000
0000
,
0010
0000
0101
0000
0010
0100
1000
0010
,
0000
0010
1000
0000
0001
0100
1000
0000
,
0100
0000
0110
0000
0010
1000
0001
0010
,
0000
0010
0100
0000
1000
0001
0100
0000
,
0010
0000
1001
0000
1000
0100
1000
0010
,
0220
0330
0000
0200
,
2300
0001
3002
0100
,
0203
0010
0320
2030
,
3002
0010
0023
0100
,
0230
1000
2300
3020
,
0130
0001
0000
0001
0100
0010
1000
0010
,
0000
1000
0000
0001
0010
1000
0010
0001
,
0000
0100
0000
0010
1000
0100
0010
0001
,
0000
0010
0000
1000
0010
0001
0100
0010
,
1000
0010
0100
0001
0000
0001
1000
0100
,
0000
0010
0001
0100
0000
0100
0010
1000
,
0000
0010
0100
0010
0000
0010
1000
0001
,
0000
0010
0100
1000
0000
1000
0100
0001
,
0000
0100
0010
0001
0000
0100
0010
1000
,
0000
1000
0010
0100
0000
0001
0010
0100
,
0000
0100
0001
0100
0000
1000
0010
0100
,
0000
0100
0001
0010
0000
0100
1000
0010
,
0000
0100
1000
0100
0000
0001
0010
1000
,
0000
0001
0100
0010
0000
0001
0100
1000
,
0000
0100
0010
1000
0000
0001
0010
0100
,
2000
0000
3100
0000
0001
0100
0020
0000
,
1030
0000
1010
0000
0001
0100
0010
2000
,
0000
3001
0010
0000
0100
1000
0002
0000
,
0013
0000
1100
0000
0010
0001
0000
0001
,
0200
0010
0320
2030
,
3010
0000
0101
0000
1000
0100
0010
0100
,
0000
0100
1000
0000
0010
0100
0002
0000
,
1003
0000
0110
0000
1000
0100
0000
0010
,
0002
0100
0203
0320
,
1030
0000
0000
0000
;

//---------------dance-single - ----------------
#NOTES:
     dance-single:
     :
     Hard:
     8:
     :
0000
0000
0000
0000
,
0000
0000
0000
0000
,
0000
0000
0000
0000
,
0000
0000
0000
0000
,
0000
0000
0000
0000
,
1000
0000
0000
0000
0101
0000
0000
0010
1000
0000
0100
0000
1000
0000
0002
0000
,
0000
0000
0013
0000
0100
0000
0000
0000
0100
0000
1000
0000
0001
1000
0001
0000
,
0100
0000
0000
0000
1010
0000
0000
1000
0100
0000
0010
0000
0001
0000
0200
0000
,
0000
0301
1000
0000
0010
1000
0002
0000
,
0103
0000
0000
0000
0011
0000
0000
1000
0100
0000
0010
0000
0001
0000
2000
0000
,
0000
0000
3010
0000
0100
0000
0000
0000
0100
0000
0001
0000
1000
0001
0000
0000
,
0010
0000
0000
0000
1001
0000
0000
1000
0100
0000
0010
0000
0001
0000
0100
0000
,
0202
0303
0000
2000
,
3200
0000
0000
0000
1000
0000
0000
0000
0320
0000
0000
0032
0000
0000
2003
0000
,
0000
0010
3002
0203
,
0320
0000
1000
0000
0230
0000
0000
0302
,
0000
1000
0023
0230
,
1300
0000
0001
0000
0000
0001
0010
0000
0100
0000
1000
0000
0001
0000
0100
0010
,
0000
0000
0001
0000
0000
0010
1000
0000
0100
0000
1000
0000
0010
0000
0100
0001
,
0000
0000
0010
0000
0000
0010
0100
0000
1000
0000
0010
0000
0100
0000
0001
0100
,
0000
0000
1000
0000
0000
0100
0001
0000
0010
0000
0100
0000
1000
0000
0100
0000
,
0010
0000
0001
0000
0100
0000
0010
0000
0000
0010
1000
0000
0100
0000
0010
0000
,
0000
0000
0001
0000
1000
0000
0010
0000
0000
0010
0100
0000
0001
0000
0010
0000
,
0000
0000
0100
0000
1000
0000
0001
0000
0000
0001
0100
0000
1000
0000
0100
0000
,
0000
0000
0001
0000
0010
0000
0100
0000
0000
0100
1000
0000
0001
0000
0100
0000
,
0000
0100
0010
0000
1000
0000
0010
0000
0000
0100
0001
0000
0010
0000
0100
0000
,
0000
0100
1000
0000
0100
0000
0010
0000
0000
0010
0001
0000
0100
0000
1000
0000
,
0000
1000
0100
0000
0001
0000
0010
0000
0000
0100
1000
0000
0010
0000
1000
0000
,
0000
1000
0001
0000
0010
0000
1000
0000
0000
1000
0010
0000
0001
0000
0100
0000
,
0000
0010
1000
0000
0010
0000
0100
0001
0000
1000
0100
0000
1000
0000
0010
0100
,
0000
0001
1000
0000
0100
0000
0001
0100
0000
1000
0010
0000
0100
0000
0001
1000
,
0000
0010
0100
0000
0001
0000
0010
0100
0000
0010
0001
0000
0100
0000
0010
1000
,
0002
0000
0000
0000
0013
0000
0000
0100
1000
0000
0001
0000
0200
0000
0000
0000
,
0301
0000
0000
0000
1010
0000
0000
0001
0100
0000
1000
0000
0100
0000
0010
0000
,
0000
1000
0001
0000
0010
0000
0000
0010
0100
0000
1000
0000
0001
0200
0000
0000
,
0301
0000
0000
0000
1100
0000
0000
0100
0010
0000
1000
0000
0010
0000
0001
0000
,
0200
0000
0000
0000
0310
0000
0000
1000
0001
0000
0010
0000
0000
0000
1000
0000
,
0010
0000
0000
0000
1001
0000
0000
0100
0001
0000
0010
0000
0100
0000
1000
0000
,
0000
0001
0010
0000
1000
0000
0000
0010
0001
0000
0100
0000
1000
0200
0000
0000
,
0310
0000
0000
0000
0101
0000
0000
0001
0010
0000
1000
0000
0010
0000
0100
0000
,
2000
0000
0000
0000
3001
0000
0000
0100
0010
0000
1000
0000
0000
0000
0010
0000
,
1001
0000
0000
0000
;

//---------------dance-double - ----------------
#NOTES:
     dance-double:
     :
     Beginner:
     1:
     :
00000000
00000000
00000000
00000000
,
00000000
00000000
00000000
00000000
,
00000000
00000000
00000000
00000000
,
00000000
00000000
00000000
00000000
,
00000000
00000000
00000000
00000000
,
10000000
00000000
00000000
00000000
,
01000000
00000000
00000000
00000000
,
00100000
00000000
00000000
00000000
,
00010000
00000000
00000000
00000000
,
00100000
00000000
00000000
00000000
,
00001000
00000000
00000000
00000000
,
00010000
00000000
00000000
00000000
,
00000010
00000000
00000000
00000000
,
00001000
00000000
00000001
00000000
,
00000000
00000000
00000100
00000100
,
00000100
00000000
00000010
00000000
,
00010000
00000000
00010000
00000000
,
00001000
00000000
00000000
00000000
,
00010000
00000000
00000000
00000000
,
01000000
00000000
00000000
00000000
,
10000000
00000000
00000000
00000000
,
00100000
00000000
00000000
00000000
,
10000000
00000000
00000000
00000000
,
01000000
00000000
00100000
00000000
,
01100000
00000000
00000000
00000000
,
00010000
00000000
00000000
00000000
,
00001000
00000000
00000000
00000000
,
00000100
00000000
00000100
00000000
,
00000010
00000000
00000010
00000000
,
00000100
00000000
00000000
00000000
,
00000001
00000000
00000000
00000000
,
00001000
00000000
00000000
00000000
,
00001001
00000000
00000000
00000000
,
00000001
00000000
00000001
00000000
,
00000100
00000000
00000000
00000000
,
00001000
00000000
00001000
00000000
,
00010000
00000000
00000000
00000000
,
00100000
00000000
00100000
00000000
,
10000000
00000000
00000000
00000000
,
01000000
00000000
01000000
00000000
,
00010000
00000000
00000000
00000000
,
00011000
00000000
00000000
00000000
;

//---------------dance-double - ----------------
#NOTES:
     dance-double:
     :
     Easy:
     3:
     :
00000000
00000000
00000000
00000000
,
00000000
00000000
00000000
00000000
,
00000000
00000000
00000000
00000000
,
00000000
00000000
00000000
00000000
,
00000000
00000000
00000000
00000000
,
00010000
00001000
00000100
00000010
,
00000000
00000100
00000001
00000010
,
00000000
00000001
00000100
00001000
,
00000000
00000100
00001000
00010000
,
00000000
00001000
00010000
01000000
,
00000000
10000000
00100000
01000000
,
00000000
01100000
00000000
01100000
,
00000000
01000000
00001000
00010000
,
00000000
00001000
00010000
00000100
,
00000010
00000000
00000001
00000100
,
00000000
00000010
00010000
00001000
,
00010000
00000000
00010000
01000000
,
00100000
00100000
00010000
10000000
,
00000000
10010000
00000000
10010000
,
00000000
10000000
01000000
00010000
,
00001000
00000000
00000100
00000001
,
00000010
00001000
00000000
00001000
,
00000000
00000010
00001000
00010000
,
00100000
10000000
00000000
00010000
,
00000000
00010000
00000000
10000000
,
00010000
00000000
00000000
01000000
,
00000000
00001000
00010000
00000100
,
00000010
00000010
00000001
00000001
,
00000100
00001000
00010000
01000000
,
10000000
00000000
01000000
00000000
,
10000000
01000000
00010000
00001000
,
00000100
00000000
00000001
00000000
,
00001001
00000000
00001001
00000000
,
00000001
00001000
00000010
00010000
,
00000000
00001000
00010000
00001000
,
00000000
00100000
01000000
10000000
,
01000000
00000000
00100000
00000000
,
00001000
00010000
00000010
00000100
,
00000000
00000001
00001000
00000001
,
00000000
00001000
00000100
00010000
,
00001000
00000000
01000000
00000000
,
01100000
00000000
00000000
00000000
;

//---------------dance-double - ----------------
#NOTES:
     dance-double:
     :
     Medium:
     5:
     :
00000000
00000000
00000000
00000000
,
00000000
00000000
00000000
00000000
,
00000000
00000000
00000000
00000000
,
00000000
00000000
00000000
00000000
,
00000000
00000000
00000000
00000000
,
10000000
00010000
01000000
00001000
,
00000000
00010000
00001000
00000100
00000001
00000000
00000010
00000000
,
00000001
00001000
00000010
00010000
,
00000000
00001000
00010000
00100000
10000000
00000000
01000000
00000000
,
10000000
00100000
00010000
00001000
,
00000000
00010000
00000010
00001000
00000001
00000000
00000100
00000000
,
00000000
00000001
00000010
00000001
00000100
00001000
00010000
00000000
,
00000000
00001000
00010000
01000000
10000000
00100000
10000000
00000000
,
00000000
00100000
00000000
01000000
00000000
10000000
01000000
00010000
,
00000000
01000000
00001000
00010000
00000010
00000000
00001000
00000000
,
00000001
00000100
00000000
00000001
00000001
00000000
00000100
00001000
,
00000000
00010000
01000000
10000000
00100000
00000000
10000000
00000000
,
00010000
00000000
01000000
00000000
00000000
00100000
00000000
00000000
10000000
00000000
01000000
00000000
00010000
00000000
00001000
00000000
,
00000000
00000000
00000100
00000000
00000000
00000001
00000000
00000000
00000010
00000000
00000001
00000000
00001000
00000000
00000100
00000000
,
00000000
00000000
00010000
00000000
00000000
00001000
00000000
00000000
00010000
00000000
00100000
00000000
10000000
00000000
01000000
00000000
,
00000000
00000000
00100000
00000000
00000000
00010000
00000000
00000000
10000000
00000000
01000000
00000000
00010000
00000000
00000000
00000000
,
00000000
00001000
00010000
00001000
00000000
00000100
00001000
00010000
,
00000000
01000000
10000000
00100000
00010000
00100000
10000000
00000000
,
00000000
01000000
00010000
00001000
00000000
00000010
00000001
00000100
,
00000000
00000010
00000000
00000100
00000000
00000001
00000000
00001000
,
00000010
00010000
00001000
00010000
00000000
00000100
00001000
00000001
,
00000000
00000100
00001000
00010000
01000000
00000000
10000000
00000000
,
10100000
00000000
01010000
00000000
00010000
10000000
01000000
00010000
,
00001000
00000000
00011000
00000000
00010000
00001000
00000100
00000001
,
00000100
00000101
00000010
00000110
,
00000010
00001000
00000100
00010000
00001000
00000000
00101000
00000000
,
00010000
01100000
00010000
11000000
,
00100000
20020000
30030000
10010000
,
10000000
01000000
00000000
00010000
00001000
00000100
00000002
00000000
,
00000000
00000000
00000003
00000010
00000100
00000000
00001000
00000000
,
00000001
00000100
00000000
00001000
00010000
01000000
20000000
00000000
,
00000000
00000000
30000000
00100000
01000000
00000000
00010000
00000000
,
10000000
00000000
00100000
01000000
00010000
00000000
00100000
00002000
,
00000000
00000000
00003000
00010000
00001000
00000000
00000100
00000000
,
00000010
00001000
00000100
00000000
00001000
00000010
00000100
00000002
,
00000000
00000003
00000101
00001010
,
00011000
00000000
00000000
00000000
;

//---------------dance-double - ----------------
#NOTES:
     dance-double:
     :
     Hard:
     7:
     :
00000000
00000000
00000000
00000000
,
00000000
00000000
00000000
00000000
,
00000000
00000000
00000000
00000000
,
00000000
00000000
00000000
00000000
,
00000000
00000000
00000000
00000000
,
00000000
01000000
10000000
01000000
00010000
00001000
00000010
00000000
,
00000000
00000001
00000010
00000100
00001000
00000000
00011000
00000000
,
00000000
00001000
01000000
00100000
10000000
01000000
00100000
00000000
,
00000000
01000000
10000000
01000000
00010000
00000000
00011000
00000000
,
00000000
00010000
00001000
00000010
00000001
00000100
00001000
00000000
,
00000000
00010000
00100000
10000000
01000000
00010000
00001000
00000000
,
00000000
00010000
00001000
00000000
00000100
00000001
00000010
00000000
,
00000000
00000001
00000100
00000000
00001000
00010000
00100000
00000000
,
00000000
10000000
01000000
00010000
00001000
00000100
00000001
00000020
,
00000000
00000031
00000101
00001010
,
00000000
00000001
00000100
00001000
00010000
01000000
10000000
00200000
,
00000000
01300000
00011000
00001100
,
00000100
00000000
00000010
00000000
00000001
00000000
00000100
00000000
00000010
00000000
00000100
00000000
00001000
00010000
00001000
00000000
,
00010000
00000000
01000000
00000000
00100000
00000000
00010000
00000000
10000000
00000000
01000000
00000000
00010000
00001000
00010000
00000000
,
00001000
00000000
00000100
00000000
00000010
00000000
00001000
00000000
00000001
00000000
00000010
00000000
00001000
00010000
00001000
00000000
,
00100000
00000000
01000000
00000000
10000000
00000000
00100000
00000000
00010000
00000000
00001000
00000000
00010000
00001000
00010000
00000000
,
00000200
00000000
00000300
00000000
00000010
00000001
00000100
00001000
,
00000000
00010000
00001000
00010000
00100000
10000000
01000000
00000000
,
00000000
00010000
01000000
10000000
00000000
10000000
01000000
00010000
,
00000000
00001000
00000100
00000001
00000000
00000001
00000100
00001000
,
00020000
00000000
00030000
00000000
00000000
01000000
00100000
00010000
,
00100000
00000000
00001000
00000010
00000001
00000100
00000001
00000000
,
00001001
00000000
00001001
00000000
00000001
00000100
00001000
00010000
,
01000000
00000000
10000000
00000000
01000000
00010000
00001000
00000100
,
00000001
00000101
00001000
00001100
,
00000010
00010010
00001000
00011000
,
00100000
01010000
10000000
10100000
,
01100000
20020000
30030000
01100000
,
00100000
10000000
01000000
00010000
00001000
00000100
00000001
00000010
,
00000000
00000001
00000100
00001000
00010000
00000000
01000000
00000000
,
10000000
01000000
00010000
00001000
00010000
00001000
00000010
00000001
,
00000000
00000001
00000100
00000010
00001000
00000000
00000001
00000000
,
00000010
00000001
00000100
00001000
00010000
01000000
10000000
00100000
,
10000000
01000000
00010000
00001000
00010000
00000000
00011000
00000000
,
00010000
00001000
00000010
00000001
00000010
00001000
00010000
00100000
,
10000000
00100000
00010000
00001000
00000010
00000000
00000101
00000000
,
00001001
00000000
00000000
00000000
;
