#TITLE:Golden Dawn;
#ARTIST:South Central;
#BANNER:Golden Dawn.png;
#BACKGROUND:Golden Dawn-bg.png;
#MUSIC:Golden Dawn.ogg;
#SAMPLESTART:22.173;
#SAMPLELENGTH:15;
#BPMS:0=130;
#BGCHANGES:4=Golden Dawn.avi=1=0=0=0;

//---------------dance-single - ----------------
#NOTES:
     dance-single:
     :
     Beginner:
     2:
     :
0000
0000
0000
0000
,
0000
0000
0000
0000
,
0000
0000
0000
0000
,
0000
0000
0000
0000
,
1000
0000
1000
0000
,
0001
0000
0001
0000
,
0100
0000
0100
0000
,
0010
0000
0010
0000
,
0010
0000
1000
0000
,
1000
0000
1000
0000
,
0100
0000
0100
0000
,
0100
0000
0100
0000
,
0020
0000
0000
0030
,
0010
0000
0000
0000
,
0002
0000
0000
0003
,
0001
0000
0000
0000
,
2000
0000
0000
3000
,
1000
0000
0000
0000
,
0200
0000
0000
0300
,
0100
0000
0000
0000
,
0010
0010
0010
0000
,
0010
0000
0000
0000
,
1000
1000
1000
0000
,
1000
0000
0000
0000
,
0001
0001
0001
0000
,
0001
0000
0000
0000
,
0100
0100
0100
0000
,
0100
0000
0000
0000
,
0010
0000
1000
0000
,
0010
0000
0000
0000
,
0001
0000
0100
0000
,
0001
0000
0000
0000
,
0100
0000
1000
0000
,
0100
0000
0000
0000
,
0010
0000
0001
0000
,
0010
0000
0000
0000
,
0110
0000
0000
0000
,
0000
0000
0000
0000
,
0001
0001
0001
0000
,
0001
0001
0001
0000
,
1000
1000
1000
0000
,
1000
1000
1000
0000
,
0010
0010
0010
0000
,
0010
0010
0010
0000
,
0100
0100
0100
0000
,
2000
0000
0000
3000
,
1000
0000
1000
0000
,
0001
0000
0001
0000
,
0100
0000
0100
0000
,
0010
0000
0010
0000
,
0010
0000
1000
0000
,
1000
0000
1000
0000
,
0100
0000
0100
0000
,
0100
0000
0100
0000
,
0010
0000
0000
0000
;

//---------------dance-single - ----------------
#NOTES:
     dance-single:
     :
     Easy:
     2:
     :
0000
0000
0000
0000
,
0000
0000
0000
0000
,
0000
0000
0000
0000
,
0000
0000
0000
0000
,
1000
0100
1000
0000
,
0001
1000
0001
0000
,
0010
0001
0010
0000
,
0100
0010
0100
0000
,
0001
0100
0001
0000
,
1000
0001
1000
0000
,
0010
1000
0010
0000
,
0100
0010
0100
0000
,
0010
0001
0100
0100
,
0010
1000
0100
0100
,
1000
0000
1000
0000
,
0001
0000
0001
0000
,
0100
1000
0010
0010
,
0100
0001
0010
0010
,
1000
0000
1000
0000
,
0001
0000
0001
0000
,
0010
0100
0010
0000
,
0001
0000
1001
0000
,
0100
0010
0100
0000
,
1000
0000
1001
0000
,
0001
1000
0001
0000
,
0100
0000
0110
0000
,
1000
0001
1000
0000
,
0010
0000
0110
0000
,
1002
0000
0000
0003
,
0100
0010
0100
0000
,
0210
0000
0000
0300
,
1000
0001
1000
0000
,
2001
0000
0000
3000
,
0010
0100
0010
0000
,
0120
0000
0000
0030
,
0001
1000
0001
0000
,
2002
0000
0000
0000
,
0000
0000
0000
3003
,
0010
1000
0020
0030
,
0001
0010
0002
0003
,
0100
0001
0100
1000
,
0100
0020
0000
0030
,
0100
0001
0200
0300
,
1000
0100
2000
3000
,
0010
1000
0010
0001
,
0010
0200
0000
0300
,
1000
0100
1000
0000
,
0001
1000
0001
0000
,
0010
0001
0010
0000
,
0100
0010
0100
0000
,
0001
0100
0001
0000
,
1000
0001
1000
0000
,
0010
1000
0010
0000
,
0100
0010
0100
0000
,
1001
0000
0000
0000
;

//---------------dance-single - ----------------
#NOTES:
     dance-single:
     :
     Medium:
     5:
     :
0000
0000
0000
0000
,
0000
0000
0000
0000
,
0000
0000
0000
0000
,
0000
0000
0000
0000
,
0001
0000
1000
0000
0001
0000
0010
1000
,
0100
0000
0010
0000
0100
0000
0001
1000
,
0100
0000
1000
0000
0010
0000
0001
0010
,
0100
0001
2002
3003
,
1000
0000
0001
0000
1000
0000
0100
0001
,
0010
0000
0100
0000
0010
0000
1000
0001
,
0010
0000
0001
0000
0100
0000
1000
0100
,
0010
1000
2002
3003
,
0010
0000
0010
0000
1000
0000
0100
0100
,
0010
0000
0010
0000
0001
0000
1000
1000
,
0001
0100
0010
0100
,
1000
0000
0001
0000
1000
0100
0100
0100
,
0010
0001
0010
1000
,
0010
0110
0000
0110
0000
0100
0100
0000
,
0001
0001
0010
0010
,
0100
0100
1000
1000
,
0010
0100
0001
1000
,
0110
1001
0110
0000
,
0100
1000
0001
0100
,
1001
0110
1001
0000
,
0100
0001
0010
1000
,
0110
0110
1001
0000
,
0010
1000
0100
0001
,
1001
1001
0110
0000
,
0100
0010
1000
0001
,
0110
1001
0110
0000
,
0010
0001
1000
0010
,
1001
0110
1001
0000
,
0010
1000
0100
0001
,
0110
0110
1001
0000
,
0100
0001
0010
1000
,
1001
1001
0220
0000
,
0030
0000
0000
0300
,
0000
0000
0000
0000
,
0001
0001
0001
0000
0100
0000
0001
0000
,
1000
1000
1000
0000
0100
0000
1000
0000
,
0010
0010
0010
0100
0010
0010
0010
0000
,
1001
0110
1001
0110
,
1000
1000
1000
0000
0010
0000
1000
0000
,
0001
0001
0001
0000
0010
0000
0001
0000
,
0100
0100
0100
0010
0100
0100
0100
0010
,
2000
0000
0000
3000
,
0001
0000
1000
0000
0001
0000
0010
1000
,
0100
0000
0010
0000
0100
0000
0001
1000
,
0100
0000
1000
0000
0010
0000
0001
0010
,
0100
0001
2002
3003
,
1000
0000
0001
0000
1001
0000
0100
0001
,
0010
0000
0100
0000
0110
0000
1000
0001
,
0010
0000
0001
0000
0110
0000
1000
0100
,
0010
1000
0110
2002
,
0000
0000
0000
3003
;

//---------------dance-single - ----------------
#NOTES:
     dance-single:
     :
     Hard:
     7:
     :
0000
0000
0000
0000
,
0000
0000
0000
0000
,
0000
0000
0000
0000
,
0000
0000
0000
0000
,
1001
0000
0010
0100
1001
0000
0010
0100
,
1010
0000
0010
0100
0101
0000
1000
0001
,
1001
0000
0001
0010
0110
0000
1000
0100
,
0110
0000
0010
0001
1001
0100
0001
0100
,
0110
0000
0100
0010
1001
0000
0100
0010
,
0101
0000
0100
0010
1010
0000
0001
1000
,
1001
0000
1000
0100
0110
0000
1000
0100
,
0110
0000
0010
0001
1001
0100
0001
1000
,
0001
0100
0010
1000
0100
1000
0001
0000
,
0010
0001
0100
1000
0100
0010
1000
0000
,
0100
0010
0001
0010
0100
0000
0100
1000
,
0000
1000
0010
0100
0000
0001
0001
0001
,
1000
0100
0010
0001
0010
0100
1000
0010
,
0000
0011
0000
0100
0000
1000
0010
1000
,
0001
0100
0010
0100
0001
1000
0001
0010
,
0100
0010
0001
0100
1000
0010
1000
0001
,
0200
0000
0310
0000
1000
1000
0001
0020
,
0000
0230
0000
0310
0000
0001
0001
0100
,
1000
0100
0010
1000
0001
1000
0100
0020
,
0000
0032
0000
0013
0000
0100
0100
0010
,
0001
1000
0010
0100
0010
1000
0001
0200
,
0000
0320
0000
1030
0000
0001
1000
0001
,
1000
0100
0010
0100
1000
0010
0100
0002
,
0000
0023
0000
0031
0000
1000
0010
0100
,
0001
0001
0100
0100
0010
1000
0010
1000
,
0000
0011
0000
1100
0000
0010
0001
0010
,
0100
1000
0001
0010
0001
0100
0010
1000
,
0000
0110
0000
0011
0000
0001
0010
0100
,
1000
1000
0100
0100
0010
0001
0100
0010
,
0000
1001
0000
1100
0000
1000
0010
1000
,
0100
0100
1000
1000
0001
0010
0100
0010
,
0000
1010
0000
0011
0000
2000
0002
0000
,
3003
0000
0000
0000
,
0000
0000
0000
0000
,
1001
0100
0010
0100
0001
1000
1001
0000
,
0110
0001
1000
0100
0001
1000
0110
0000
,
0110
0100
0100
0001
0110
0010
0010
0100
,
1000
0110
0011
1010
,
1001
0100
0010
0100
1000
0100
0001
0000
,
1001
0010
0100
0010
0001
0010
1000
0000
,
0110
0010
0001
0100
0001
1000
0100
0001
,
0020
0000
0000
0030
,
1001
0000
0010
0100
1001
0000
0010
0100
,
1010
0000
0010
0100
0101
0000
1000
0001
,
1001
0000
0001
0010
0110
0000
1000
0100
,
0110
0000
0010
0001
1001
0100
0001
0100
,
0110
0000
0100
0010
1001
0000
0100
0010
,
0101
0000
0100
0010
1010
0000
0001
1000
,
1001
0000
1000
0100
0110
0000
0001
0100
,
0110
0000
0010
0001
1001
0100
0001
0100
,
0010
0000
0000
0000
;

//---------------dance-double - ----------------
#NOTES:
     dance-double:
     :
     Beginner:
     1:
     :
00000000
00000000
00000000
00000000
,
00000000
00000000
00000000
00000000
,
00000000
00000000
00000000
00000000
,
00000000
00000000
00000000
00000000
,
00100000
00000000
00100000
00000000
,
00100000
00000000
00000000
00000000
,
01000000
00000000
01000000
00000000
,
01000000
00000000
00000000
00000000
,
00010000
00000000
00010000
00000000
,
00010000
00000000
00000000
00000000
,
00001000
00000000
00001000
00000000
,
00001000
00000000
00000000
00000000
,
00000200
00000000
00000000
00000300
,
00000100
00000000
00000000
00000000
,
00000020
00000000
00000000
00000030
,
00000010
00000000
00000000
00000000
,
00000002
00000000
00000000
00000003
,
00000001
00000000
00000000
00000000
,
00000200
00000000
00000000
00000300
,
00000100
00000000
00000000
00000000
,
00001000
00001000
00001000
00000000
,
00001000
00000000
00000000
00000000
,
00010000
00010000
00010000
00000000
,
00010000
00000000
00000000
00000000
,
00001000
00001000
00001000
00000000
,
00001000
00000000
00000000
00000000
,
00010000
00010000
00010000
00000000
,
00010000
00000000
00000000
00000000
,
00100000
00000000
01000000
00000000
,
00100000
00000000
00000000
00000000
,
00100000
00000000
01000000
00000000
,
00100000
00000000
00000000
00000000
,
00010000
00000000
10000000
00000000
,
00010000
00000000
00000000
00000000
,
00010000
00000000
10000000
00000000
,
00010000
00000000
00000000
00000000
,
01100000
00000000
00000000
00000000
,
00000000
00000000
00000000
00000000
,
00010000
00000000
00010000
00000000
,
00001000
00001000
00001000
00000000
,
00001000
00000000
00001000
00000000
,
00010000
00010000
00010000
00000000
,
00000010
00000000
00000010
00000000
,
00000100
00000100
00000100
00000000
,
00000001
00000000
00000001
00000000
,
00002000
00000000
00000000
00003000
,
00001000
00000000
00001000
00000000
,
00000100
00000000
00000100
00000000
,
00010000
00000000
00010000
00000000
,
00001000
00000000
00001000
00000000
,
01000000
00000000
01000000
00000000
,
00010000
00000000
00010000
00000000
,
00100000
00000000
00100000
00000000
,
01000000
00000000
01000000
00000000
,
10000000
00000000
00000000
00000000
;

//---------------dance-double - ----------------
#NOTES:
     dance-double:
     :
     Easy:
     2:
     :
00000000
00000000
00000000
00000000
,
00000000
00000000
00000000
00000000
,
00000000
00000000
00000000
00000000
,
00000000
00000000
00000000
00000000
,
10000000
00010000
10000000
00000000
,
00010000
00100000
00010000
00000000
,
01000000
00010000
01000000
00000000
,
00001000
00010000
00001000
00000000
,
00010000
00001000
00010000
00000000
,
00000100
00001000
00000100
00000000
,
00001000
00000010
00001000
00000000
,
00000001
00000100
00000001
00000000
,
00001000
00000100
00001000
00001000
,
00000100
00010000
00001000
00001000
,
00010000
00000000
00100000
00000000
,
01000000
00000000
00010000
00000000
,
00010000
01000000
00010000
00010000
,
01000000
00001000
00010000
00010000
,
00001000
00000000
00000100
00000000
,
00000010
00000000
00001000
00000000
,
00000001
00000100
00000001
00000000
,
00001000
00000000
00001001
00000000
,
00000100
00001000
00010000
00000000
,
00001000
00000000
00011000
00000000
,
00010000
01000000
00100000
00000000
,
01000000
00000000
01100000
00000000
,
10000000
01000000
10000000
00000000
,
00010000
00000000
01100000
00000000
,
10020000
00000000
00000000
00030000
,
00010000
00100000
00010000
00000000
,
00012000
00000000
00000000
00003000
,
00010000
00001000
00010000
00000000
,
00000210
00000000
00000000
00000300
,
00000010
00000100
00000010
00000000
,
00002001
00000000
00000000
00003000
,
00000100
00000010
00000100
00000000
,
00002002
00000000
00000000
00000000
,
00000000
00000000
00000000
00003003
,
00000001
00000100
00000200
00000300
,
00001000
00010000
00020000
00030000
,
00001000
00001000
00010000
00010000
,
01000000
02000000
00000000
03000000
,
10000000
00100000
00200000
00300000
,
00010000
00001000
00002000
00003000
,
00000100
00000100
00000001
00000001
,
00000010
00000020
00000000
00000030
,
00000001
00001000
00000001
00000000
,
00001000
00000010
00001000
00000000
,
00000100
00001000
00000100
00000000
,
00010000
00001000
00010000
00000000
,
00001000
00010000
00001000
00000000
,
01000000
00010000
01000000
00000000
,
00010000
00100000
00010000
00000000
,
10000000
01000000
10000000
00000000
,
10010000
00000000
00000000
00000000
;

//---------------dance-double - ----------------
#NOTES:
     dance-double:
     :
     Medium:
     4:
     :
00000000
00000000
00000000
00000000
,
00000000
00000000
00000000
00000000
,
00000000
00000000
00000000
00000000
,
00000000
00000000
00000000
00000000
,
00100000
00000000
10000000
00000000
00100000
00000000
01000000
10000000
,
01000000
00000000
00010000
00000000
00001000
00000000
00010000
00001000
,
00010000
00000000
00001000
00000000
00000100
00000000
00000010
00000100
,
00000010
00000001
00002002
00003003
,
00000100
00000000
00000001
00000000
00000100
00000000
00000010
00001000
,
00000010
00000000
00001000
00000000
00010000
00000000
00001000
00010000
,
00001000
00000000
00010000
00000000
00100000
00000000
01000000
00100000
,
01000000
10000000
20020000
30030000
,
00100000
00000000
10000000
00000000
01000000
00000000
00010000
00001000
,
00001000
00000000
00010000
00000000
00000100
00000000
00000010
00000100
,
00000100
00000010
00000001
00000100
,
00001000
00000000
00010000
00000000
01000000
00100000
01000000
00100000
,
01000000
10000000
00010000
00100000
,
00001000
00010000
00000000
00010000
00000000
00010000
00001000
00000000
,
00000100
00000100
00000010
00000010
,
00001000
00001000
00000001
00000001
,
00000100
00001000
00010000
00100000
,
01000000
01000000
10010000
00000000
,
00100000
00010000
00001000
00000100
,
00000010
00000010
00001001
00000000
,
00001000
00000100
00010000
00001000
,
00100000
01000000
01100000
00000000
,
00010000
00100000
00001000
00010000
,
00000100
00000010
00000110
00000000
,
00000001
00000100
00001000
00010000
,
01000000
10000000
10010000
00000000
,
10000000
00100000
00010000
00001000
,
00000010
00000001
00001001
00000000
,
00000100
00001000
00010000
01000000
,
10000000
00010000
01100000
00000000
,
00100000
00010000
00001000
00000010
,
00000001
00001000
00002002
00000000
,
00000000
00000000
00000000
00000000
,
00000000
00000000
00000000
00000000
00000000
00003003
00000000
00000000
,
00001000
00000100
00001000
00000000
00010000
00000000
00001000
00000000
,
00100000
00010000
00100000
00000000
10000000
00000000
01000000
00000000
,
00100000
01000000
00100000
01000000
00010000
00001000
00010000
00000000
,
00001000
00010000
00100000
01000000
,
00010000
01000000
00010000
00000000
00001000
00000000
00010000
00000000
,
00000100
00001000
00000100
00000000
00000001
00000000
00000010
00000000
,
00000100
00000010
00000100
00000010
00001000
00010000
00001000
00010000
,
00002000
00000000
00000000
00003000
,
00000010
00000000
00000001
00000000
00000010
00000000
00000100
00000001
,
00000100
00000000
00001000
00000000
00010000
00000000
00001000
00010000
,
00001000
00000000
00010000
00000000
01000000
00000000
00100000
01000000
,
00100000
10000000
20020000
30030000
,
01000000
00000000
10000000
00000000
01000000
00000000
00100000
00010000
,
00100000
00000000
00010000
00000000
00001000
00000000
00010000
00001000
,
00010000
00000000
00001000
00000000
00000010
00000000
00000100
00000010
,
00000100
00000000
00000001
00000000
00000010
00000000
00000100
00001000
,
00000100
00000000
00000000
00000000
;

//---------------dance-double - ----------------
#NOTES:
     dance-double:
     :
     Hard:
     7:
     :
00000000
00000000
00000000
00000000
,
00000000
00000000
00000000
00000000
,
00000000
00000000
00000000
00000000
,
00000000
00000000
00000000
00000000
,
00000010
00000000
00001000
00000010
00000100
00000000
00000001
00000000
,
00001100
00000000
00010000
00001000
00100000
00000000
00001000
00000000
,
01010000
00000000
10000000
00100000
01000000
00000000
00010000
00000000
,
10010000
00000000
01000000
00100000
00010000
00001000
00010000
00001000
,
00011000
00000000
00000100
00001000
00000010
00000000
00001000
00000000
,
00000101
00000000
00000010
00001000
00000001
00000000
00000010
00000000
,
00001100
00000000
00000100
00010000
00001000
00000000
00100000
00000000
,
00011000
00000000
00010000
01000000
10000000
00010000
10000000
00000000
,
00100000
10000000
00100000
10000000
00100000
00010000
00100000
10000000
,
01000000
00100000
01000000
00100000
01000000
10000000
01000000
00010000
,
00001000
00010000
00000010
00001000
00000100
00000000
00000100
00001000
,
00000000
00001000
00000010
00000001
00000000
00000001
00000100
00001000
,
00010000
00001000
00010000
00001000
00100000
00001000
00010000
00001000
,
00000000
00101000
00000000
01010000
00000000
01000000
00100000
10000000
,
00100000
01000000
00010000
10000000
01000000
00010000
00001000
00000100
,
00000010
00000010
00001000
00000100
00000100
00000010
00000001
00001000
,
00000001
00000000
00000100
00000000
00010000
00000010
00001000
00000100
,
00000000
00010000
00000000
00100000
00000000
10000000
00100000
01000000
,
00010000
00100000
01000000
10000000
01000000
01000000
00100000
00001000
,
00000000
00010000
00000000
00000010
00000000
00001000
00000010
00000100
,
00000001
00000001
00000010
00000010
00000100
00000100
00001000
00000010
,
00000000
00010000
00000000
00001000
00000000
01000000
00010000
00100000
,
01000000
01000000
10000000
10000000
00100000
00100000
00010000
00001000
,
00000000
00000010
00000000
00000100
00000000
00001000
00000010
00000100
,
00000001
00000100
00001000
00000100
00000001
00000100
00001000
00010000
,
00001000
00100000
00001000
01000000
00010000
00000000
10000000
00000000
,
00100000
10000000
00100000
00010000
00100000
01000000
00100000
10000000
,
00000000
01000000
01000000
00100000
00000000
00010000
00100000
01000000
,
10000000
01000000
00010000
01000000
10000000
01000000
00010000
00001000
,
00010000
00000010
00010000
00000100
00001000
00000000
00000010
00000000
,
00000100
00000001
00000100
00000010
00000100
00001000
00010000
00001000
,
00000000
00100000
01000000
10000000
00000000
00100000
10010000
00000000
,
00000000
00000000
00000000
00000000
,
00000000
00000000
00000000
00000000
,
00010000
00100000
01000000
10000000
00100000
00010000
00000000
00000000
,
00001000
00000010
00000100
00000001
00001000
00000010
00000000
00000000
,
00010000
00000010
00001000
00000100
00000010
00000001
00000100
00001000
,
00010000
00100000
10000000
01000000
,
00100000
00010000
00010000
10000000
01000000
00010000
00000000
00000000
,
00000010
00001000
00001000
00000001
00000100
00001000
00000000
00000000
,
00001000
00010000
00100000
10000000
01000000
00010000
00001000
00000010
,
00000002
00000000
00000000
00000003
,
00000001
00000100
00001000
00000000
00000001
00000010
00001000
00000000
,
00000001
00000100
00001000
00000000
00010000
00100000
10000000
00000000
,
10000000
01000000
00010000
00000000
10000000
00100000
00010000
00000000
,
10000000
01000000
00010000
00000000
00001000
00000010
00000001
00000010
,
00001000
00000000
00010000
01000000
10100000
00000000
10000000
00100000
,
01010000
00000000
00001000
00000100
00000101
00000000
00000001
00000010
,
00001010
00000000
00010000
00100000
01010000
00000000
00001000
00010000
,
00011000
00000000
00001000
00000010
00000100
00000010
00001000
00000001
,
00000200
00000000
00000000
00000300
;
