#TITLE:Galang;
#ARTIST:M.I.A.;
#BANNER:Galang.png;
#BACKGROUND:Galang-bg.png;
#CDTITLE:./CDTITLES/Dancing Stage UNIVERSE2.png;
#MUSIC:Galang.ogg;
#SAMPLESTART:30.907;
#SAMPLELENGTH:15;
#BPMS:0=101;
#BGCHANGES:4=Galang.avi=1=0=0=0;

//---------------dance-single - ----------------
#NOTES:
     dance-single:
     :
     Beginner:
     1:
     :
0000
0000
0000
0000
,
0000
0000
0000
0000
,
0000
0000
0000
0000
,
0010
0000
0000
0000
,
1000
0000
0000
0000
,
0001
0000
0001
0000
,
0001
0000
0000
0000
,
1000
0000
1000
0000
,
1000
0000
0000
0000
,
0100
0000
0010
0000
,
0100
0000
0000
0000
,
1000
0000
0001
0000
,
1000
0000
0000
0000
,
0010
0010
0010
0000
,
0100
0100
0100
0000
,
0001
0001
0001
0000
,
1000
1000
1000
0000
,
0100
0000
0000
0000
,
0010
0000
0000
0000
,
0001
0000
0000
0000
,
1000
0000
0000
0000
,
0010
0000
0000
0000
,
1000
0000
0000
0000
,
0001
0000
0000
0000
,
0100
0000
0000
0000
,
0001
0000
1000
0000
,
0001
0000
1000
0000
,
0010
0000
0100
0000
,
0010
0000
0100
0000
,
0001
0000
1000
0000
,
0000
0000
0000
0000
,
0100
0000
0100
0000
,
0010
0000
0010
0000
,
0001
0000
0001
0000
,
1000
0000
1000
0000
,
0010
0000
0010
0000
,
0100
0000
0100
0000
,
0001
0000
0001
0000
,
1000
0000
1000
0000
,
0100
0000
0000
0000
;

//---------------dance-single - ----------------
#NOTES:
     dance-single:
     :
     Easy:
     2:
     :
0000
0000
0000
0000
,
0000
0000
0000
0000
,
0000
0000
0000
0000
,
1000
0000
0100
0000
,
0001
0000
0010
0000
,
1000
0000
1000
0000
,
0001
0000
0001
0000
,
0010
0000
0010
0000
,
0100
0000
0100
0000
,
1000
1000
1000
0000
,
0001
0001
0001
0000
,
0010
0000
0001
0000
,
1000
0000
0010
0000
,
0100
0000
0100
0000
,
0100
0000
0100
0000
,
0010
0000
0010
0000
,
0010
0000
0010
0000
,
1000
0000
0001
0000
,
0010
0000
0100
0000
,
1000
0000
0001
0000
,
0100
0000
0010
0000
,
1000
0000
0100
0000
,
0001
0000
0100
0000
,
1000
0000
0010
0000
,
0001
0000
0010
0000
,
0100
0000
1000
0000
,
0010
0000
0010
0000
,
0100
0000
0001
0000
,
0010
0000
0010
0000
,
0100
0100
0100
0200
,
0000
0000
0300
0000
,
0010
0000
0010
0000
,
0010
0000
0010
0000
,
0100
0000
0100
0000
,
0100
0000
0100
0000
,
1000
0000
0001
0000
,
1000
0000
0001
0000
,
1000
1000
1000
0000
,
0001
0001
0001
0000
,
1001
0000
0000
0000
;

//---------------dance-single - ----------------
#NOTES:
     dance-single:
     :
     Medium:
     4:
     :
0000
0000
0000
0000
,
0000
0000
0000
0000
,
0000
0000
0000
0000
,
1000
0001
1000
0001
,
0010
0000
0100
0000
0010
0000
0100
0100
,
0100
1000
0001
0001
,
0010
0001
1000
1000
,
0010
0100
0001
0001
,
0010
0100
1000
1000
,
0001
0101
0010
0010
,
1000
1100
0010
0010
,
0001
0011
0100
0100
,
1000
1010
0100
0100
,
0102
0000
0000
0000
0010
0010
0013
0000
,
2100
0000
0000
0000
0010
0010
3010
0000
,
0012
0000
0000
0000
0100
0100
0103
0000
,
2010
0000
0000
0000
0100
0100
3100
0000
,
0010
0000
0000
0001
1000
0000
0000
0001
,
0100
0000
0000
0010
0100
0000
0001
0000
,
0010
0000
0000
0100
1000
0000
0000
0100
,
0010
0000
0000
0001
0100
0000
0100
0000
,
0010
0000
0000
1000
0001
0000
0000
1000
,
0100
0000
0000
0010
0100
0000
1000
0000
,
0010
0000
0000
0100
0001
0000
0000
0100
,
0010
0000
0000
1000
0100
0000
0100
0000
,
0010
0001
0100
1000
,
0001
0100
1000
0010
,
0100
1000
0010
0001
,
1000
0010
0001
0100
,
0010
0000
0010
0000
1000
0000
0001
0020
,
0000
0000
1000
0031
,
0102
0000
0000
0000
1000
1000
1003
0000
,
2100
0000
0000
0000
0001
0001
3001
0000
,
0120
0000
0000
0000
1000
1000
1030
0000
,
0120
0000
0000
0000
0001
0001
0031
0000
,
1000
0000
0001
0000
0100
0100
0100
0100
,
0001
0000
1000
0000
0100
0100
0100
0100
,
0010
0000
0001
0000
1000
1000
1000
1000
,
0010
0000
1000
0000
0001
0001
0001
0001
,
0100
0000
0000
0000
;

//---------------dance-single - ----------------
#NOTES:
     dance-single:
     :
     Hard:
     8:
     :
0000
0000
0000
0000
,
0000
0000
0000
0000
,
0000
0000
0000
0000
,
0100
0000
0000
1000
0000
0000
0001
0000
0100
0000
0000
0001
0000
0000
1000
0000
,
0010
0000
0000
1000
0000
0000
0001
0000
0010
0000
0000
0010
0000
0000
0010
0000
,
0100
0000
0000
0010
0000
0000
0001
0000
1000
0000
0000
0010
0000
0000
1000
0000
,
0100
0000
0000
0010
0000
0000
0001
0000
1000
0000
0000
1000
0000
0000
1000
0000
,
0001
0000
0000
0010
0000
0000
0100
0000
1000
0000
0000
0010
0000
0000
0100
0000
,
0001
0000
0000
0010
0000
0000
0001
0000
0100
0000
0000
0100
0000
0000
0100
0000
,
0010
0000
1000
0100
0000
0000
0010
0000
0100
0000
1000
0001
0000
0000
0100
0000
,
0001
0000
0010
0100
0000
0000
1000
0000
0001
0000
0000
0001
0000
0000
0001
0000
,
0010
0000
0100
1000
0000
0000
0010
0000
0100
0000
0001
0010
0000
0000
0001
0000
,
1000
0000
0010
0100
0000
0000
0010
0000
1000
0000
0000
1000
0000
0000
1000
0000
,
0001
0000
0100
0010
0000
0000
0000
1000
0001
1000
0001
1000
0001
0000
0000
0000
,
0010
0000
0100
1000
0000
0000
0000
0001
0100
0001
0100
0001
0100
0000
0000
0000
,
0010
0000
1000
0001
0000
0000
0000
0010
0100
0010
0100
0010
0100
0000
0000
0000
,
0001
0000
0010
0100
0000
0000
0000
1000
0010
1000
0010
1000
0010
0000
0000
0000
,
0100
0000
0000
0101
0000
0000
0010
0000
1000
0000
0000
1100
0000
0000
0010
0000
,
0001
0000
0000
1001
0000
0000
0010
0000
0100
0000
0000
0100
0000
0000
0100
0000
,
1000
0000
0000
1010
0000
0000
0100
0000
0001
0000
0000
0011
0000
0000
0100
0000
,
1000
0000
0000
1001
0000
0000
0010
0000
0100
0000
0000
0100
0000
0000
0100
0000
,
0001
0000
0000
1001
0000
0000
1000
0000
0010
0000
0000
0110
0000
0000
0100
0000
,
0001
0000
0000
0011
0000
0000
0010
0000
0100
0000
0000
0100
0000
0000
0100
0000
,
1000
0000
0000
1010
0000
0000
0010
0000
1000
0000
0000
1001
0000
0000
0001
0000
,
0100
0000
0000
0101
0000
0000
0001
0000
0010
0000
0000
0010
0000
0000
0010
0000
,
0100
0000
1000
0001
1000
0000
0100
0000
0020
0000
0000
0000
0032
0000
0000
0000
,
1003
0000
0010
0100
0010
0000
1000
0000
0001
0000
0000
0001
0000
0000
0001
0000
,
1000
0000
0010
0100
0010
0000
1000
0000
0100
0000
0000
0100
0000
0000
0100
0000
,
0010
0000
0001
1000
0001
0000
0100
0000
0010
0000
0000
0010
0000
0000
0010
0000
,
1000
0000
0001
0010
0001
0000
1000
0000
0100
0000
0000
0100
0000
0000
0200
0000
,
0000
0000
0000
0000
0000
0000
0000
0000
0010
0000
0000
0010
0000
0000
0310
0000
,
0100
0000
1000
0010
0000
0000
0000
0100
0001
0100
0001
0100
0001
0000
0000
0000
,
0010
0000
0001
0100
0000
0000
0000
0010
1000
0010
1000
0010
1000
0000
0000
0000
,
0100
0000
1000
0001
0000
0000
0000
0010
0100
0010
0100
0010
0100
0000
0000
0000
,
1000
0000
0010
0100
0000
0000
0000
0001
1000
0001
1000
0001
1000
0000
0000
0000
,
0010
0000
1000
0100
0000
0000
0000
1000
0001
0010
0001
0100
0010
0000
0000
0000
,
1000
0000
0001
0100
0000
0000
0000
0010
1000
0001
0010
0100
1000
0000
0000
0000
,
0010
0000
0100
0001
0000
0000
0000
1000
0100
0001
0100
1000
0100
0000
0000
0000
,
0010
0000
0001
1000
0000
0000
0000
0001
0100
1000
0100
0001
0100
0000
0010
0000
,
0100
0000
0000
0000
;

//---------------dance-double - ----------------
#NOTES:
     dance-double:
     :
     Beginner:
     1:
     :
00000000
00000000
00000000
00000000
,
00000000
00000000
00000000
00000000
,
00000000
00000000
00000000
00000000
,
00000010
00000000
00000000
00000000
,
00000001
00000000
00000000
00000000
,
00000100
00000000
00000100
00000000
,
00000100
00000000
00000000
00000000
,
00001000
00000000
00001000
00000000
,
00001000
00000000
00000000
00000000
,
00010000
00000000
00001000
00000000
,
00010000
00000000
00000000
00000000
,
01000000
00000000
00100000
00000000
,
01000000
00000000
00000000
00000000
,
10000000
10000000
10000000
00000000
,
00100000
00100000
00100000
00000000
,
00010000
00010000
00010000
00000000
,
00001000
00001000
00001000
00000000
,
00000010
00000000
00000000
00000000
,
00000100
00000000
00000000
00000000
,
00001000
00000000
00000000
00000000
,
00000001
00000000
00000000
00000000
,
00000010
00000000
00000000
00000000
,
00001000
00000000
00000000
00000000
,
00010000
00000000
00000000
00000000
,
00100000
00000000
00000000
00000000
,
10000000
00000000
10000000
00000000
,
00010000
00000000
00010000
00000000
,
01000000
00000000
00100000
00000000
,
01000000
00000000
00100000
00000000
,
00010000
00000000
00001000
00000000
,
00000000
00000000
00000000
00000000
,
00010000
00000000
00001000
00000000
,
00010000
00000000
00001000
00000000
,
00000100
00000000
00000000
00000000
,
00000001
00000000
00000000
00000000
,
00000010
00000000
00000100
00000000
,
00000010
00000000
00000100
00000000
,
00001000
00000000
00000000
00000000
,
00000001
00000000
00000000
00000000
,
00000100
00000000
00000000
00000000
;

//---------------dance-double - ----------------
#NOTES:
     dance-double:
     :
     Easy:
     2:
     :
00000000
00000000
00000000
00000000
,
00000000
00000000
00000000
00000000
,
00000000
00000000
00000000
00000000
,
00001000
00010000
00001000
00000000
,
00010000
00001000
00010000
00000000
,
00100000
00000000
10000000
00000000
,
01000000
00000000
00010000
00000000
,
00001000
00000000
00000100
00000000
,
00000001
00000000
00000010
00000000
,
00000001
00001000
00000010
00000000
,
00001000
00000001
00000010
00000000
,
00000100
00000000
00010000
00000000
,
00001000
00000000
01000000
00000000
,
00100000
00000000
00100000
00100000
,
01000000
00000000
01000000
01000000
,
00010000
00000000
00010000
00010000
,
10000000
00000000
10000000
10000000
,
01000000
00000000
00010000
00000000
,
00001000
00000000
00000100
00000000
,
00000001
00000000
00000010
00000000
,
00000100
00000000
00001000
00000000
,
00000001
00000000
00000010
00000000
,
00001000
00000000
00010000
00000000
,
00100000
00000000
10000000
00000000
,
01000000
00000000
00100000
00000000
,
00010000
00000000
01000000
00000000
,
00100000
00000000
10000000
00000000
,
01000000
00000000
00100000
00000000
,
00001000
00000000
00010000
00000000
,
00001000
00001000
00001000
00002000
,
00000000
00000000
00003000
00000000
,
00000010
00000000
00000010
00000010
,
00000001
00000000
00000001
00000001
,
00000100
00000000
00000100
00000100
,
00001000
00000000
00001000
00001000
,
00010000
00000000
00010000
00010000
,
01000000
00000000
01000000
01000000
,
10000000
00000000
10000000
10000000
,
00100000
00000000
00100000
00100000
,
10010000
00000000
00000000
00000000
;

//---------------dance-double - ----------------
#NOTES:
     dance-double:
     :
     Medium:
     4:
     :
00000000
00000000
00000000
00000000
,
00000000
00000000
00000000
00000000
,
00000000
00000000
00000000
00000000
,
00001000
00010000
00000010
00010000
,
00001000
00100000
00001000
00010000
,
00100000
00100000
10000000
00010000
,
00100000
00100000
00001000
00010000
,
00000010
00000010
00000100
00000001
,
00000010
00000010
00000100
00010000
,
00001000
00011000
00100000
10000000
,
00010000
10010000
10000000
01000000
,
00010000
00011000
00000010
00000001
,
00001000
00001001
00000001
00000100
,
00001000
00000000
00000000
00000000
00010000
00001000
00010000
00000000
,
01000000
00000000
00000000
00000000
00100000
00010000
00100000
00000000
,
01000000
00000000
00000000
00000000
10000000
00100000
10000000
00000000
,
00010000
00000000
00000000
00000000
01000000
00100000
01000000
00000000
,
00001000
00000000
00000000
00001000
00010000
00000000
00000000
00010000
,
00000100
00000000
00000000
00000100
00000010
00000000
00000001
00000000
,
00001000
00000000
00000000
00001000
00000010
00000000
00000000
00000010
,
00010000
00000000
00000000
00010000
00001000
00000000
01000000
00000000
,
00100000
00000000
00000000
00100000
10000000
00000000
00000000
10000000
,
01000000
00000000
00000000
01000000
00010000
00000000
00001000
00000000
,
00000100
00000000
00000000
00000100
00000001
00000000
00000000
00000001
,
00001000
00000000
00000000
00001000
00000010
00000000
00010000
00000000
,
00001000
00000010
00000001
00000100
,
00000010
00010000
00001000
00100000
,
00010000
01000000
00100000
10000000
,
01000000
00010000
00001000
00100000
,
00010000
00000000
01000000
00000000
00100000
00000000
10000000
02000000
,
00000000
00000000
00100000
03100000
,
00011000
00000000
00000000
00000000
00010000
00000100
00010000
00000000
,
00001100
00000000
00000000
00000000
00000100
00000010
00000100
00000000
,
00000011
00000000
00000000
00000000
00000001
00001000
00000001
00000000
,
00001010
00000000
00000000
00000000
00000010
00010000
00000010
00000000
,
00011000
00000000
00000000
00000000
00001000
01000000
00001000
00000000
,
01010000
00000000
00000000
00000000
01000000
00100000
01000000
00000000
,
10100000
00000000
00000000
00000000
10000000
00010000
10000000
00000000
,
00110000
00000000
00000000
00000000
00100000
00001000
00100000
00000000
,
00011000
00000000
00000000
00000000
;

//---------------dance-double - ----------------
#NOTES:
     dance-double:
     :
     Hard:
     8:
     :
00000000
00000000
00000000
00000000
,
00000000
00000000
00000000
00000000
,
00000000
00000000
00000000
00000000
,
00100000
00000000
00000000
10000000
00000000
00000000
01000000
00000000
00010000
00000000
00000000
01000000
00000000
00000000
00100000
00000000
,
00001000
00000000
00000000
00010000
00000000
00000000
00000010
00000000
00000100
00000000
00000000
00000100
00000000
00000000
00000100
00000000
,
00000001
00000010
00001000
00000000
00000010
00000001
00000100
00000000
,
00000010
00000000
00010000
00000000
00001000
00000000
00000000
00000000
00100000
00000000
00000000
00100000
00000000
00000000
00100000
00000000
,
01000000
10000000
00010000
00000000
00100000
00001000
01000000
00000000
,
00100000
00000000
00010000
00000000
00001000
00000000
00000000
00000000
00000010
00000000
00000000
00000010
00000000
00000000
00000010
00000000
,
00000001
00000100
00001000
00000000
00010000
01000000
10000000
00000000
,
00100000
00000000
00010000
00000000
00001000
00000000
00000000
00000000
00100000
00000000
00000000
00100000
00000000
00000000
00100000
00000000
,
01000000
10000000
00100000
00000000
01000000
00001000
00010000
00000000
,
00000010
00000000
00000100
00000000
00000001
00000000
00000000
00000000
00000010
00000000
00000000
00000010
00000000
00000000
00000010
00000000
,
00000001
00000000
00001000
00000100
00000000
00000000
00000000
00010000
00001000
00010000
00001000
00010000
00001000
00000000
00000000
00000000
,
01000000
00000000
00100000
10000000
00000000
00000000
00000000
00010000
00100000
00010000
00100000
00010000
00100000
00000000
00000000
00000000
,
00001000
00000000
00010000
00000010
00000000
00000000
00000000
00000100
00000001
00000100
00000001
00000100
00000001
00000000
00000000
00000000
,
00000010
00000000
00000001
00000100
00000000
00000000
00000000
00001000
00010000
00001000
00010000
00001000
00010000
00000000
00000000
00000000
,
00000010
00000000
00000100
00000001
00000000
00000000
00001000
00000000
00000001
00000000
00000010
00000100
00000000
00000000
00010000
00000000
,
00001000
00000000
00100000
01000000
00000000
00000000
00100000
00000000
00010000
00000000
00000000
00010000
00000000
00000000
00010000
00000000
,
10000000
00000000
00100000
00010000
00000000
00000000
00001000
00000000
00100000
00000000
00010000
01000000
00000000
00000000
00001000
00000000
,
00010000
00000000
00000010
00000100
00000000
00000000
00000001
00000000
00001000
00000000
00000000
00001000
00000000
00000000
00001000
00000000
,
00000020
00000000
00000030
00000000
00000100
00000001
00000010
00000001
,
00001000
00000000
00000100
00000000
00000010
00000000
00001000
00000000
00010000
00000000
00000000
00001000
00000000
00000000
00000100
00000000
,
00000001
00000010
00000100
00010000
00001000
01000000
00100000
10000000
,
00010000
00000000
00100000
00000000
01000000
00000000
10000000
00000000
00100000
00000000
00000000
00010000
00000000
00000000
00001000
00000000
,
01000000
00010000
00100000
00001000
00020000
00000000
00032000
00000000
,
00003010
00000000
00000001
00000000
00001000
00000000
00000010
00000000
00000100
00000000
00000000
00000010
00000000
00000000
00010000
00000000
,
00000100
00000010
00000001
00000100
00001000
00010000
01000000
10000000
,
00010000
00000000
00100000
00000000
01000000
00000000
10000000
00000000
00100000
00000000
00000000
00010000
00000000
00000000
00001000
00000000
,
01000000
00010000
00100000
00001000
00010000
00000010
00001000
00000200
,
00000000
00000000
00000000
00000000
00000000
00000000
00000000
00000000
00000310
00000000
00000000
00000001
00000000
00000000
00000100
00000000
,
00000001
00000000
00001000
00000100
00000000
00000000
00000000
00000010
00000001
00001000
00000001
00000010
00000001
00000000
00000000
00000000
,
00000100
00000000
00000010
00010000
00000000
00000000
00000000
00001000
01000000
00001000
00010000
00001000
01000000
00000000
00000000
00000000
,
00100000
00000000
10000000
00010000
00000000
00000000
00000000
00100000
01000000
00100000
00010000
00100000
01000000
00000000
00000000
00000000
,
10000000
00000000
00100000
00010000
00000000
00000000
00000000
00001000
00010000
00001000
00100000
00001000
00010000
00000000
00000000
00000000
,
00000010
00000000
00000100
00000001
00000000
00000000
00000000
00000010
00000001
00000100
00000010
00001000
00000100
00000000
00000000
00000000
,
00010000
00000000
00001000
00100000
00000000
00000000
00000000
01000000
10000000
00100000
01000000
00010000
00100000
00000000
00000000
00000000
,
01000000
00000000
10000000
00010000
00000000
00000000
00000000
00100000
00001000
00010000
00000010
00001000
00000100
00000000
00000000
00000000
,
00000010
00000000
00000001
00000100
00000000
00000000
00000000
00000010
00010000
00001000
00100000
00010000
01000000
00000000
00100000
00000000
,
01000000
00000000
00000000
00000000
;
