#TITLE:D.A.N.C.E.;
#ARTIST:Justice;
#BANNER:D.A.N.C.E.png;
#BACKGROUND:D.A.N.C.E-bg.png;
#CDTITLE:./CDTITLES/Dancing Stage UNIVERSE2.png;
#MUSIC:D.A.N.C.E.ogg;
#SAMPLESTART:2.099;
#SAMPLELENGTH:15;
#DISPLAYBPM:115;
#BPMS:0=115.27;
#BGCHANGES:2=D.A.N.C.E.avi=1=0=0=0,212=D.A.N.C.E-bg.png=1=0=0=1;

//---------------dance-single - ----------------
#NOTES:
     dance-single:
     :
     Beginner:
     1:
     :
0000
0000
0000
0000
,
0000
0000
0000
0000
,
0000
0000
0000
0000
,
1000
0000
0000
0000
,
0001
0000
0001
0001
,
0001
0000
0001
0000
,
0010
0000
0010
0000
,
0100
0000
0100
0000
,
2000
0000
0000
3000
,
1000
1000
0000
0001
,
0001
0000
0000
0000
,
1000
0000
0000
0001
,
0001
0000
0000
0000
,
0100
0100
0100
0000
,
0100
0000
0000
0000
,
0001
0000
0000
0000
,
1000
0000
0000
0000
,
1000
1000
1000
0000
,
1000
0000
0000
0000
,
0100
0000
0000
0000
,
0110
0000
0000
0000
,
0001
0000
0000
0000
,
0001
0001
0001
0000
,
1000
0000
0000
0000
,
1000
1000
1000
0000
,
0010
0000
0000
0000
,
0010
0010
0010
0000
,
0100
0000
0000
0000
,
0100
0100
0100
0000
,
0100
0000
0000
0000
,
0001
0000
0001
0000
,
0001
0000
0000
0000
,
1000
0000
0000
0000
,
1000
1000
1000
0000
,
1000
0000
0000
0000
,
0100
0000
0000
0000
,
0100
0000
0000
0000
,
0020
0000
0000
0030
,
0010
0000
0000
0000
,
0002
0000
0000
0003
,
0001
0000
0000
0000
,
2000
0000
0000
3000
,
1000
0000
0000
0000
,
0020
0000
0000
0030
,
0010
0000
0100
0000
,
0100
0100
0000
0100
,
0100
0000
0000
0000
,
1000
0000
1000
0000
,
0001
0000
0001
0000
,
0010
0010
0000
0010
,
0010
0000
1000
0000
,
1000
0000
0001
0000
,
0001
0000
0000
0000
,
1001
0000
0000
0000
;

//---------------dance-single - ----------------
#NOTES:
     dance-single:
     :
     Easy:
     2:
     :
0000
0000
0000
0000
,
0000
0000
0000
0000
,
0000
0000
0000
0000
,
0010
1000
1000
0000
,
0100
0000
0100
0100
,
0010
0000
0001
0000
,
1000
0001
1000
0000
,
0100
0000
0100
0000
,
0020
0000
0000
0030
,
0110
0000
1002
0000
,
0003
0000
0100
0000
,
0010
0100
0010
0000
,
1002
0000
0000
0003
,
0100
0001
0100
0000
,
0010
0000
1000
0010
,
1000
0000
0100
0000
,
0210
0000
0000
0300
,
1000
0100
1000
0000
,
0100
0000
0010
0000
,
0001
0010
0001
0000
,
2002
0000
3003
0000
,
0110
0000
0000
0000
,
0010
0001
1000
0000
,
1000
0000
0001
0000
,
0100
1000
0001
0000
,
1001
0000
0000
0000
,
1000
0010
0100
0000
,
0100
0000
0001
0000
,
0110
0000
0000
0000
,
0100
0000
1000
0000
,
0001
1000
0001
0000
,
0010
0000
0010
0000
,
0200
0000
0000
0300
,
0110
0000
2001
0000
,
3000
0000
0010
0000
,
0100
0010
0100
0000
,
2001
0000
0000
3000
,
0001
0000
0010
0000
,
0002
0000
0000
0003
,
0100
0000
0010
0000
,
0200
0300
0020
0030
,
1000
0000
0100
0000
,
0200
0000
0000
0300
,
0010
0000
0001
0000
,
0200
0300
0020
0030
,
0010
0010
1000
0001
,
0100
0000
0110
0000
,
0001
0000
0010
0000
,
0001
0001
1000
1000
,
0010
0010
1000
0001
,
0100
0000
0110
0000
,
0001
0000
0010
0000
,
0001
0001
1000
1000
,
1001
0000
0000
0000
;

//---------------dance-single - ----------------
#NOTES:
     dance-single:
     :
     Medium:
     4:
     :
0000
0000
0000
0000
,
0000
0000
0000
0000
,
0000
0000
0000
0000
,
0100
0001
0001
1000
,
0010
0100
0010
0000
0000
0000
0000
0000
,
0110
0000
1000
1000
,
0010
0100
0001
0000
,
0001
1000
0010
0000
,
0100
0100
0100
0000
0010
0000
0000
0000
,
0110
0010
1001
0001
,
1000
1000
0110
0000
,
0100
0100
1001
0000
,
0010
0010
0010
0000
0010
0000
0000
0000
,
0110
0000
0001
0001
,
0100
0010
1000
0000
,
1000
0001
0100
0000
,
0010
0010
0010
0000
0100
0000
0000
0000
,
0110
0100
1001
1000
,
0001
0001
0110
0000
,
0010
0010
1001
0000
,
0100
0100
0100
0000
0100
0000
0000
0000
,
0001
1000
0001
0000
0001
1000
0001
0000
,
0100
0000
0100
0000
0010
0100
0010
0000
,
1000
1000
1000
0000
0001
0001
0001
0000
,
0100
0110
0001
1001
,
0100
0010
0100
0000
0100
0010
0100
0000
,
1000
0000
1000
0000
0001
1000
0001
0000
,
0010
0010
0010
0000
0100
0100
0100
0000
,
0001
1000
0001
1000
0001
0000
0000
0000
,
0110
0100
1001
1000
,
0001
0001
0110
0000
,
0010
0010
1001
0000
,
0100
0100
0100
0000
0100
0000
0000
0000
,
0110
0010
1001
0001
,
1000
1000
0110
0000
,
0100
0100
1001
0000
,
0010
0010
0010
0000
0010
0000
0000
0000
,
1000
0010
0001
0100
,
2000
0001
0000
3001
,
0010
1000
0100
0001
,
0100
0100
0100
0000
0010
0010
0010
0000
,
0001
0100
1000
0010
,
0002
1000
0000
1003
,
0100
1000
0010
0001
,
1000
1000
1000
0000
0001
0000
0001
0000
,
0100
0110
0001
1001
,
0110
0000
0100
0000
0001
0001
0001
0000
,
0010
0100
1000
1000
,
1000
0010
1000
0000
0001
0010
0001
0000
,
0010
0110
1000
1001
,
0110
0000
0010
0000
1000
1000
1000
0000
,
0100
0010
0001
0001
,
0001
0100
0001
0000
1000
0100
1000
0000
,
1001
0000
0000
0000
;

//---------------dance-single - ----------------
#NOTES:
     dance-single:
     :
     Hard:
     7:
     :
0000
0000
0000
0000
,
0000
0000
0000
0000
,
0000
0000
0000
0000
,
1000
0100
1000
0000
0001
0100
0001
0000
,
0010
0000
0001
0000
0100
0000
0000
0000
0110
0000
0000
0000
1001
0000
0000
0010
,
0001
0000
0000
0000
0100
0000
0000
0000
0010
0000
0000
0000
1000
0000
0000
0100
,
0000
0010
0001
0100
0010
1000
0010
0100
,
0000
0000
0100
0000
0001
0000
0000
0000
1001
0000
0000
0000
0000
0010
0000
0110
,
0000
0000
0100
0000
0001
0000
1000
0000
0010
0100
0020
0000
0000
1030
0000
0000
,
0001
0000
0010
0000
0100
0000
0000
0000
1000
0000
0000
0000
0010
0000
0000
1001
,
0000
0100
0001
1000
0100
0010
0001
0010
,
0000
0000
0010
0000
0100
0000
0000
0000
1000
0000
0000
0000
0000
0010
0000
0110
,
0000
0000
0010
0000
0001
0000
1000
0000
0100
0010
0200
0000
0000
1300
0000
0000
,
1100
0000
0000
0000
0110
0000
0000
0000
0011
0000
0000
0000
0001
0000
0000
0010
,
0000
0100
1000
0010
0100
0001
0100
0010
,
0000
0000
0010
0000
1000
0000
0000
0000
1001
0000
0000
0000
0000
0100
0000
0110
,
0000
0000
0010
0000
1000
0000
0001
0000
0100
0010
0200
0000
0000
0301
0000
0000
,
0101
0000
0000
0000
0110
0000
0000
0000
1010
0000
0010
0000
0100
0000
0000
1001
,
0000
0010
1000
0001
0010
0100
1000
0100
,
0000
0000
0100
0000
0010
0000
0000
0000
0001
0000
0000
0000
0000
0100
0000
0110
,
0000
0000
0100
0000
1000
0000
0001
0000
0010
0100
0020
0000
0000
0130
0000
0000
,
0001
0100
0010
0100
1000
0100
0010
0000
,
1000
0000
0010
0000
0100
0000
0001
0000
1000
0000
0100
0010
0100
0000
0000
0000
,
1000
0100
0001
0100
1000
0010
0100
0001
,
1000
1000
0010
0100
0001
0000
1001
0000
,
0010
0001
0100
0001
1000
0010
0100
0000
,
0001
0000
0010
0000
0100
0000
1000
0000
0001
0000
0010
0100
0010
0000
0000
0000
,
0001
0010
0100
1000
0010
0100
0100
0001
,
1000
1000
0100
0100
0020
0000
0030
0000
,
0001
0100
0002
0000
0203
0000
0320
0000
,
0130
0100
0010
1000
0001
0010
0100
1000
,
0000
0000
1000
0000
0200
0000
0000
0000
0320
0000
0000
0000
0000
0031
0000
0011
,
0000
0000
0100
0000
0010
0000
0100
0000
0001
1000
0002
0000
0000
0013
0000
0000
,
0200
0000
0000
0000
2300
0000
0000
0000
3001
0000
0100
0000
0010
0000
0000
1000
,
0000
1000
0010
0100
0001
1000
0100
0001
,
0000
0000
0100
0000
0020
0000
0000
0000
0032
0000
0000
0000
0000
1003
0000
1001
,
0000
0000
0100
0000
0010
0000
1000
0000
0001
0100
0002
0000
0000
1003
0000
0000
,
0010
0000
1000
0000
0000
0100
0000
0000
0010
0000
0000
0001
0000
0000
1000
0000
,
0000
0000
0010
0000
0000
1010
0000
0000
0100
0000
0000
0101
0000
0000
1001
0000
,
0000
0000
1000
0000
0000
1100
0000
0000
0001
0000
0000
0011
0000
0000
0110
0000
,
0010
0100
1000
0000
0010
0100
0001
0000
,
0010
0000
0001
0000
0000
1000
0000
0010
1000
0000
1000
0001
0000
0001
0100
0000
,
0000
0000
0010
0000
0000
1001
0000
0000
1000
0000
0010
1000
0000
1000
0100
0000
,
0000
0000
0010
0000
0000
0011
0000
0000
0100
0000
0000
1100
0000
0000
1001
0000
,
0010
1000
0100
0000
0101
0000
1100
0000
,
0110
0010
0001
1000
0100
1000
0010
0100
,
0110
0000
0000
0000
1010
0000
0000
1000
0100
0000
0010
0000
0001
0000
0010
0000
,
0100
1000
1000
0000
0001
0100
0001
0000
,
0010
0100
0010
0000
1000
0100
1000
0000
0001
0100
0001
0000
0000
0000
0010
0000
,
1010
1000
1100
0100
0110
0010
0011
0000
,
1001
0000
0001
0100
1000
0100
0001
0010
,
0100
0010
0001
0000
1000
0100
0010
0000
,
0010
0001
0010
0000
0100
1000
0100
0000
1000
0010
1000
0000
0000
0001
0000
0000
,
0110
0000
0000
0000
;

//---------------dance-double - ----------------
#NOTES:
     dance-double:
     :
     Beginner:
     1:
     :
00000000
00000000
00000000
00000000
,
00000000
00000000
00000000
00000000
,
00000000
00000000
00000000
00000000
,
10000000
00000000
00000000
00000000
,
01000000
00000000
00010000
00010000
,
00010000
00000000
00001000
00000000
,
00001000
00000000
00001000
00000000
,
00000100
00000000
00000100
00000000
,
00000020
00000000
00000000
00000030
,
00000010
00000010
00000000
00001000
,
00001000
00000000
00000000
00000000
,
00000001
00000000
00000000
00000100
,
00000100
00000000
00000000
00000000
,
00001000
00001000
00001000
00000000
,
00001000
00000000
00000000
00000000
,
00010000
00000000
00000000
00000000
,
00001000
00000000
00000000
00000000
,
00010000
00010000
00010000
00000000
,
00100000
00000000
00000000
00000000
,
00100000
00000000
00000000
00000000
,
01100000
00000000
00000000
00000000
,
10000000
00000000
00000000
00000000
,
10000000
10000000
10000000
00000000
,
01000000
00000000
00000000
00000000
,
00100000
00100000
00100000
00000000
,
00010000
00000000
00000000
00000000
,
00001000
00001000
00001000
00000000
,
00001000
00000000
00000000
00000000
,
00000100
00000100
00000100
00000000
,
00000100
00000000
00000000
00000000
,
00000010
00000000
00000010
00000000
,
00000010
00000000
00000000
00000000
,
00000001
00000000
00000000
00000000
,
00001000
00001000
00001000
00000000
,
00000100
00000000
00000000
00000000
,
00010000
00000000
00000000
00000000
,
00010000
00000000
00000000
00000000
,
00002000
00000000
00000000
00003000
,
00001000
00000000
00000000
00000000
,
00020000
00000000
00000000
00030000
,
00010000
00000000
00000000
00000000
,
00200000
00000000
00000000
00300000
,
00100000
00000000
00000000
00000000
,
02000000
00000000
00000000
03000000
,
10000000
00000000
10000000
00000000
,
01000000
01000000
00000000
00010000
,
00010000
00000000
00000000
00000000
,
00001000
00000000
00001000
00000000
,
00010000
00000000
00010000
00000000
,
00000100
00000100
00000000
00000010
,
00000010
00000000
00000001
00000000
,
00000001
00000000
00000100
00000000
,
00000100
00000000
00000000
00000000
,
00001001
00000000
00000000
00000000
;

//---------------dance-double - ----------------
#NOTES:
     dance-double:
     :
     Easy:
     2:
     :
00000000
00000000
00000000
00000000
,
00000000
00000000
00000000
00000000
,
00000000
00000000
00000000
00000000
,
00000010
00000010
00001000
00000000
,
00000001
00000000
00000100
00000100
,
00001000
00000000
00010000
00000000
,
00001000
00010000
00001000
00000000
,
00100000
00100000
01000000
00000000
,
00010000
10000000
00100000
00000000
,
01000000
01000000
00010000
00000000
,
10000000
00000000
00100000
00100000
,
00010000
00000000
00001000
00000000
,
00010000
00001000
00010000
00000000
,
00000100
00000010
00000010
00000000
,
00001001
00000000
00000100
00000100
,
00001000
00000000
00010000
00000000
,
00011000
00000000
00000000
00000000
,
00010000
00010000
00100000
00000000
,
01000000
00000000
00100000
00000000
,
10000000
10000000
01000000
00000000
,
20020000
00000000
30030000
00000000
,
01100000
00000000
00000000
00000000
,
10000000
01000000
00010000
00000000
,
00001000
00000000
00010000
00000000
,
00001000
00000100
00000001
00000000
,
00000110
00000000
00000000
00000000
,
00000001
00000010
00001000
00000000
,
00010000
00000000
00001000
00000000
,
00010000
00100000
10000000
00000000
,
01000000
00100000
01000000
00000000
,
01000000
00010000
00001000
00000000
,
00010000
00000000
00010000
00000000
,
00002000
00000000
00000000
00003000
,
00011000
00000000
00000100
00000000
,
00000100
00000000
00000001
00000000
,
00001000
00000001
00001000
00000000
,
00000120
00000000
00000000
00000030
,
00000010
00000000
00000001
00000000
,
00000100
00000000
00001000
00000000
,
00010000
00000000
00001000
00000000
,
00020000
00030000
00002000
00003000
,
00010000
00000000
01000000
00000000
,
10000000
00000000
00100000
00000000
,
00010000
00000000
00001000
00000000
,
00020000
00030000
00002000
00003000
,
00100000
00100000
00010000
00010000
,
01000000
00000000
01000000
00000000
,
00010000
00000000
10000000
00000000
,
01000000
01000000
00010000
00010000
,
00001000
00001000
00010000
00010000
,
00000100
00000000
00000100
00000000
,
00000010
00000000
00001000
00000000
,
00000001
00000001
00000100
00000100
,
00000110
00000000
00000000
00000000
;

//---------------dance-double - ----------------
#NOTES:
     dance-double:
     :
     Medium:
     4:
     :
00000000
00000000
00000000
00000000
,
00000000
00000000
00000000
00000000
,
00000000
00000000
00000000
00000000
,
00000010
00001000
00001000
00000001
,
00000100
00000010
00000100
00000000
00000000
00000000
00000000
00000000
,
00001001
00000000
00000100
00000100
,
00001000
00010000
00001000
00000000
,
00010000
00100000
01000000
00000000
,
00100000
00100000
00100000
00000000
10000000
00000000
00000000
00000000
,
10010000
00100000
10010000
01000000
,
10000000
01000000
01100000
00000000
,
00010000
00010000
00011000
00000000
,
00001000
00001000
00001000
00000000
00010000
00000000
00000000
00000000
,
10010000
00000000
00100000
00100000
,
00010000
00001000
00010000
00000000
,
00001000
00000100
00000010
00000000
,
00000100
00000100
00000100
00000000
00000001
00000000
00000000
00000000
,
00001001
00000010
00001001
00000100
,
00000001
00000100
00000110
00000000
,
00001000
00001000
00011000
00000000
,
00010000
00010000
00010000
00000000
00001000
00000000
00000000
00000000
,
00010000
00001000
00010000
00000000
00001000
00010000
00001000
00000000
,
00100000
00000000
00100000
00000000
01000000
00100000
01000000
00000000
,
10000000
10000000
10000000
00000000
00010000
00010000
00010000
00000000
,
01000000
01010000
00010000
00011000
,
00001000
00010000
00001000
00000000
00010000
00001000
00010000
00000000
,
00000100
00000000
00000100
00000000
00000010
00000100
00000010
00000000
,
00001000
00001000
00001000
00000000
00000001
00000001
00000001
00000000
,
00000010
00000100
00000010
00000100
00000010
00000000
00000000
00000000
,
00001001
00000000
00000100
00000100
,
00001000
00010000
00001000
00000000
,
00010000
00100000
01000000
00000000
,
00100000
00100000
00100000
00000000
10000000
00000000
00000000
00000000
,
10010000
00100000
10010000
01000000
,
10000000
01000000
01100000
00000000
,
00010000
00010000
00011000
00000000
,
00001000
00001000
00001000
00000000
00010000
00000000
00000000
00000000
,
00001000
00000010
00000001
00000100
,
00002000
00000000
00000000
00003000
,
00010000
00100000
10000000
01000000
,
00010000
00010000
00010000
00000000
00001000
00001000
00001000
00000000
,
00010000
01000000
10000000
00100000
,
00020000
00000000
00000000
00030000
,
00001000
00000100
00000001
00000010
,
00001000
00001000
00001000
00000000
00010000
00000000
00010000
00000000
,
00011000
00001000
00100000
00010000
,
00110000
00000000
00000000
00000000
01000000
01000000
01000000
00000000
,
10000000
00010000
00100000
00100000
,
00001000
00010000
00001000
00000000
00001000
00010000
00001000
00000000
,
00011000
00010000
00000100
00001000
,
00001100
00000000
00000000
00000000
00000010
00000010
00000010
00000000
,
00000001
00001000
00000100
00000100
,
00010000
00001000
00010000
00000000
00010000
00001000
00010000
00000000
,
00011000
00000000
00000000
00000000
;

//---------------dance-double - ----------------
#NOTES:
     dance-double:
     :
     Hard:
     7:
     :
00000000
00000000
00000000
00000000
,
00000000
00000000
00000000
00000000
,
00000000
00000000
00000000
00000000
,
00000010
00001000
00000100
00000000
00000010
00000001
00000100
00000000
,
00001000
00010000
00100000
00000000
10100000
00000000
11000000
00000000
,
01100000
00000000
00000000
00000000
00100000
00000000
00000000
00000000
00010000
00000000
00000000
00000000
10000000
00000000
00000000
00010000
,
00000000
10000000
01000000
00010000
00001000
00010000
00000010
00001000
,
00000000
00000000
00001000
00000000
00000100
00000000
00000000
00000000
00000010
00000000
00000000
00000000
00000000
00000001
00000000
00001001
,
00000000
00000000
00000010
00000000
00000001
00000000
00000100
00000000
00001000
00010000
00002000
00000000
00000000
00103000
00000000
00000000
,
00001000
00000000
00100000
00000000
00010000
00000000
00000000
00000000
01000000
00000000
00000000
00000000
00100000
00000000
00000000
10010000
,
00000000
01000000
10000000
00100000
01000000
00010000
10000000
01000000
,
00000000
00000000
01000000
00000000
00010000
00000000
00000000
00000000
00001000
00000000
00000000
00000000
00000000
00010000
00000000
00011000
,
00000000
00000000
00010000
00000000
00001000
00000000
00000100
00000000
00000010
00000100
00000010
00000000
00000000
00001001
00000000
00000000
,
00000100
00000000
00000000
00000000
00001000
00000000
00000000
00000000
00100000
00000000
00000000
00000000
00001000
00000000
00000000
00010000
,
00000000
00001000
00100000
00010000
01000000
00100000
00010000
00001000
,
00000000
00000000
00001000
00000000
00000100
00000000
00000000
00000000
00000010
00000000
00000000
00000000
00000000
00001000
00000000
00001010
,
00000000
00000000
00000001
00000000
00000100
00000000
00001000
00000000
00010000
00001000
00020000
00000000
00000000
00030100
00000000
00000000
,
00010100
00000000
00000000
00000000
00011000
00000000
00000000
00000000
00110000
00000000
00100000
00000000
01000000
00000000
00000000
11000000
,
00000000
00010000
00100000
10000000
00100000
00010000
10000000
01000000
,
00000000
00000000
01000000
00000000
00010000
00000000
00000000
00000000
00001000
00000000
00000000
00000000
00000000
00000010
00000000
00000110
,
00000000
00000000
00000010
00000000
00000001
00000000
00001000
00000000
00000100
00000010
00000200
00000000
00000000
00001300
00000000
00000000
,
00000001
00000100
00001000
00010000
01000000
10000000
00010000
00000000
,
10000000
00000000
00100000
00000000
00010000
00000000
00001000
00000000
00000010
00000000
00000001
00001000
00000001
00000000
00000000
00000000
,
00000010
00000100
00000001
00000010
00001000
00010000
00100000
10000000
,
00100000
00010000
00001000
00010000
01000000
00000000
01100000
00000000
,
00100000
00010000
10000000
01000000
00010000
00001000
00010000
00000000
,
00000010
00000000
00000100
00000000
00000010
00000000
00001000
00000000
00000001
00000000
00000100
00000010
00000100
00000000
00000000
00000000
,
00001000
00010000
00100000
00010000
00001000
00000010
00000010
00000100
,
00010000
00001000
00100000
00010000
20000000
00000000
30000000
00000000
,
00010000
01000000
00010000
10000000
00100000
01000000
00100000
10000000
,
00100000
00000000
00010000
00100000
00001000
00010000
00000100
00001000
,
00000001
00000000
00001000
00000000
00000100
00000000
00000000
00000000
00001001
00000000
00000000
00000000
00000000
00000100
00000000
00001001
,
00000000
00000000
00000010
00000000
00000100
00000000
00001000
00000000
00010000
00001000
00020000
00000000
00000000
00031000
00000000
00000000
,
00100000
00000000
00010000
00000000
00010000
00000000
10000000
00000000
01000000
00000000
01000000
00000000
00100000
00000000
00000000
00110000
,
00000000
10000000
00100000
01000000
00010000
00100000
00001000
00010000
,
00000100
00000000
00010000
00000000
00001000
00000000
00000000
00000000
00011000
00000000
00000000
00000000
00000000
00000010
00000000
00001010
,
00000000
00000000
00000100
00000000
00000010
00000000
00001000
00000000
00000001
00000100
00000002
00000000
00000000
00001003
00000000
00000000
,
00000010
00000000
00000100
00000000
00000000
00001000
00000000
00000000
00010000
00000000
00000000
00100000
00000000
00000000
10000000
00000000
,
00000000
00000000
00010000
00000000
00000000
01000000
00000000
00000000
00100000
00000000
00000000
00010000
00000000
00000000
00001000
00000000
,
00000000
00000000
00000100
00000000
00000000
00000001
00000000
00000000
00001000
00000000
00000000
00000100
00000000
00000000
00010000
00000000
,
00001000
00010000
00001000
00000000
00100000
00010000
00100000
00000000
,
01000000
00000000
00100000
00000000
00000000
10000000
00000000
00000000
01000000
00000000
00000000
00010000
00000000
00000000
00100000
00000000
,
00000000
00000000
00001000
00000000
00000000
00000100
00000000
00000000
00000001
00000000
00000000
00000010
00000000
00000000
00001000
00000000
,
00000000
00000000
00010000
00000000
00000000
00000100
00000000
00000000
00010000
00000000
00000000
00001000
00000000
00000000
00100000
00000000
,
00010000
10000000
00010000
00000000
10000000
00000000
01000000
00000000
,
00100000
00000000
00000000
00000000
00010000
00000000
00000000
00000000
00001000
00000000
00000000
00000000
00000010
00000000
00000000
00001001
,
00000000
00000010
00000001
00000100
00001000
00010000
00100000
01000000
,
00010000
10000000
01000000
00000000
01000000
10000000
00010000
00000000
,
00100000
00010000
00100000
00000000
00001000
00010000
00001000
00000000
01000000
00010000
01000000
00000000
00000000
00001000
00000000
00000000
,
00011000
00000000
00101000
00000000
00110000
00010000
01000000
00000000
,
01100000
00100000
00010000
00001000
00000100
00000010
00001000
00000001
,
00001000
00000100
00000010
00000100
00000100
00000000
00000011
00000000
,
00000010
00000001
00000010
00000000
00000100
00001000
00000100
00000000
00010000
00001000
00010000
00000000
00100000
00000000
00000000
00000000
,
01100000
00000000
00000000
00000000
;
