#TITLE:Chicken Payback;
#ARTIST:The Bees;
#BANNER:Chicken Payback.png;
#BACKGROUND:Chicken Payback-bg.png;
#CDTITLE:./CDTITLES/Dancing Stage UNIVERSE2.png;
#MUSIC:Chicken Payback.ogg;
#SAMPLESTART:22.179;
#SAMPLELENGTH:15;
#DISPLAYBPM:105:150;
#BPMS:0=138.462,6=144.385,9=141.732,11=138.889,16=141.732,20=134.328,21=141.732,25=139.535,29=140.078,33=139.175,36=150,37=143.617,40=140.625,41=139.175,44=141.856,53=143.617,56=147.541,57=139.896,60=145.161,61=141.176,65=139.896,68=142.857,73=141.361,76=147.541,77=142.292,81=141.176,85=145.161,89=141.361,92=145.161,93=141.732,97=142.105,100=147.541,101=141.732,105=142.105,108=142.405,113=142.857,117=144,121=140.625,124=143.141,132=144.231,137=142.857,140=145.161,141=142.857,145=146.739,148=143.312,153=139.896,156=141.892,163=142.857,165=142.292,169=140.625,172=141.066,177=141.361,180=142.857,181=143.426,185=139.896,188=150,189=142.292,193=144,197=142.857,204=143.312,209=143.617,212=140.625,214=145.161,218=126.761,219=104.651,220=104.956;
#BGCHANGES:2=Chicken Payback.avi=1=0=0=0;

//---------------dance-single - ----------------
#NOTES:
     dance-single:
     :
     Beginner:
     1:
     :
0000
0000
0000
0000
,
0000
0000
0000
0000
,
0000
0000
0000
0000
,
0001
0000
0001
0000
,
1000
0000
1000
0000
,
0010
0010
0000
0000
,
0100
0100
0000
0000
,
0001
0001
0000
0000
,
1000
1000
0000
0000
,
0100
0000
0100
0000
,
1000
0000
1000
0000
,
0010
0000
0010
0000
,
0001
0000
0001
0000
,
0010
0000
0000
0000
,
0100
0000
0000
0000
,
0010
0000
0000
0000
,
0100
0000
0000
0000
,
0001
0000
0000
0000
,
1000
0000
0000
0000
,
0001
0000
0000
0000
,
1000
0000
0000
0000
,
0001
0000
0000
0000
,
0100
0000
0000
0000
,
0001
0000
0000
0000
,
1000
0000
0000
0000
,
0010
0010
0000
0000
,
0100
0100
0000
0000
,
0001
0001
0000
0000
,
1000
1000
0000
0000
,
0001
0000
0000
0000
,
0100
0000
0000
0000
,
0001
0000
0000
0000
,
0100
0000
0000
0000
,
1000
0000
0000
0000
,
0010
0000
0000
0000
,
1000
0000
0000
0000
,
0010
0000
0000
0000
,
1000
0000
0000
0000
,
0100
0000
0000
0000
,
0010
0000
0000
0000
,
0001
0000
0000
0000
,
1000
1000
0000
0000
,
0010
0010
0000
0000
,
0100
0100
0000
0000
,
0001
0001
0000
0000
,
1000
0000
1000
0000
,
0100
0000
0100
0000
,
0010
0000
0010
0000
,
0001
0000
0001
0000
,
0010
0000
0010
0000
,
0100
0000
0100
0000
,
1000
0000
1000
0000
,
0001
0000
0001
0000
,
0010
0000
0010
0000
,
0100
0000
0100
0000
;

//---------------dance-single - ----------------
#NOTES:
     dance-single:
     :
     Easy:
     3:
     :
0000
0000
0000
0000
,
0000
0000
0000
0000
,
0000
0000
0000
0000
,
1000
0000
0001
0000
,
0010
0000
1001
0000
,
1000
0001
0000
0100
,
0010
0100
0000
0001
,
0010
0001
0000
1000
,
0100
1000
0000
0010
,
0100
0010
0000
0001
,
0010
0001
0000
0010
,
1000
0010
0000
0100
,
0001
0100
0000
0010
,
1000
0000
0100
0000
,
0010
0000
0001
0000
,
0100
0000
0010
0000
,
1000
0001
1000
0001
,
0010
0000
0100
0000
,
1000
0000
0001
0000
,
0100
0000
0010
0000
,
0100
0010
1000
0001
,
0010
0000
0001
0000
,
1000
0000
0100
0000
,
0010
0000
0100
0000
,
1000
0000
0001
0000
,
0100
0100
0010
0010
,
1000
0010
0100
0010
,
1000
1000
0001
0001
,
0100
0001
0100
0010
,
1000
0000
0001
0000
,
0100
0000
1000
0000
,
0100
0000
0001
0000
,
0010
0100
1000
0001
,
0100
0000
0001
0000
,
1000
0000
0100
0000
,
0010
0000
0001
0000
,
1000
0100
0010
0001
,
1000
0000
0010
0000
,
0100
0000
0010
0000
,
0001
0000
0010
0000
,
1000
0001
0001
1000
,
0100
0010
0000
0010
,
0001
1000
0000
1000
,
0010
0100
0000
0100
,
0001
0010
0000
0010
,
0100
1000
0000
1000
,
0010
0001
0000
0001
,
0010
0100
0000
0100
,
0001
1000
0000
1000
,
0001
0100
0000
0010
,
0100
1000
0000
0001
,
1000
0010
0000
0100
,
0010
0001
0000
1000
,
0100
0000
0010
0000
,
0001
0000
1000
0001
;

//---------------dance-single - ----------------
#NOTES:
     dance-single:
     :
     Medium:
     5:
     :
0000
0000
0000
0000
,
0000
0000
0000
0000
,
0000
0000
0000
0000
,
0001
1000
0000
0001
1000
0001
0000
1000
,
0010
0000
0100
0000
,
0001
0000
1000
0000
0000
0100
0000
0000
,
0010
0000
0100
0000
0000
1000
0000
0000
,
1000
0000
0001
0000
0000
0010
0000
0000
,
0100
0000
0010
0000
0000
0001
0000
0000
,
0100
0000
0001
0000
0000
1000
0000
0000
,
0010
0000
0100
0000
0000
0001
0000
0000
,
1000
0000
0100
0000
0000
0010
0000
0000
,
0001
0000
1000
0000
0000
0010
0000
0000
,
0110
0001
1000
0100
,
1000
0001
0010
0001
,
0100
0001
0010
0100
,
1000
0010
0100
0010
,
1001
0100
0010
1000
,
0010
0100
0001
0100
,
0001
0010
1000
0010
,
0001
0100
1000
0100
,
1001
0010
1000
0001
,
0100
0001
0010
1000
,
0010
0000
0100
0000
1000
0001
0010
0000
,
0100
0000
1000
0000
0001
0010
0100
0000
,
1000
0000
1010
0000
0000
0101
0000
0000
,
0001
0000
0011
0000
0000
1100
0000
0000
,
1000
0000
0110
0000
0000
1001
0000
0000
,
0001
0000
0110
0000
0000
1001
0000
0000
,
1010
0000
0001
0000
0100
0001
0100
0000
,
0101
0000
1000
0000
0010
1000
0010
0000
,
0110
0000
0001
0010
1000
0010
0001
0000
,
1000
0010
0001
0010
1000
0000
1001
0000
,
0010
0000
1000
0000
0001
1000
0100
0000
,
0010
0000
0001
0000
1000
0001
0100
0000
,
0010
0000
1000
0100
1000
0001
1000
0000
,
0100
0000
0001
0010
0001
1000
0001
0000
,
1000
0000
0001
0000
1000
0001
1000
0000
,
0001
0000
1000
0000
0001
1000
0001
0000
,
0010
0000
0001
0100
1000
0100
0001
0000
,
1000
0000
0010
1000
0100
0001
0100
0000
,
1000
0000
0010
0100
0000
0001
0000
0000
,
0010
0000
0001
1000
0000
0100
0000
0000
,
0010
0000
0100
0000
1000
0010
1000
0010
,
0000
1000
0100
1000
0100
1000
0000
0001
,
0100
0000
0010
0000
0100
0001
0100
0001
,
0000
0010
0001
0010
0001
0010
0000
0000
,
0100
0000
0010
0000
0001
1000
0001
1000
,
0000
0010
0100
0010
0100
0010
0000
1000
,
0100
0000
0010
0000
0001
0100
1000
0100
,
0000
0001
0010
1000
0010
0001
0000
0000
,
0100
0000
0010
0000
1000
0100
0010
0001
,
0000
0000
0011
0000
0000
1100
0000
0000
,
1000
0100
0000
0100
0010
0000
0010
0001
,
0000
0001
1000
0000
0110
0000
1001
0000
;

//---------------dance-single - ----------------
#NOTES:
     dance-single:
     :
     Hard:
     7:
     :
0000
0000
0000
0000
,
0000
0000
0000
0000
,
0000
0000
0000
0000
,
0001
0100
0000
0001
1000
0100
0000
1000
,
0010
0000
0100
0000
,
0001
0000
1000
0100
0000
0100
1000
0000
,
0010
0000
0100
0001
0000
0001
0100
0000
,
1000
0000
0001
0010
0000
0010
0001
0000
,
0100
0000
0010
1000
0000
1000
0010
0000
,
0100
0000
0001
0010
0000
0001
1000
0000
,
0001
0000
1000
0100
0000
1000
0001
0000
,
0010
0000
0001
0100
0000
1000
0010
0000
,
1000
0000
0100
0001
0000
0010
1000
0000
,
0110
0000
0001
1000
0100
1000
0001
0000
,
1000
0000
0010
0100
0001
0100
0010
0000
,
0100
0000
0001
0010
0100
1000
0010
0100
,
0000
0010
0100
0001
1000
0200
0300
0000
,
1001
0000
0100
0010
1000
0010
0100
0000
,
0010
0000
1000
0001
0010
0001
1000
0000
,
0001
0010
1000
0010
0001
0100
1000
0100
,
0010
1000
0100
0001
0200
0000
0300
0000
,
1001
0000
0010
1000
0100
1000
0010
0000
,
1000
0000
0001
0010
0001
0100
0001
0000
,
0000
1000
0010
0100
0001
0010
0100
1000
,
0001
0000
1000
0000
0100
0010
0001
1000
,
0010
0000
1010
0000
0000
0101
0000
0000
,
0100
0000
1100
0000
0000
0011
0000
0000
,
1000
0000
0110
0000
0000
1001
0000
0000
,
0001
0000
0110
0000
0000
1001
0000
0000
,
1010
0000
0100
0001
0100
0010
1000
0000
,
0101
0000
0010
1000
0010
0100
0001
0000
,
0110
0000
0001
0010
1000
0010
0100
0000
,
1000
0010
0001
0010
0110
0000
1001
0000
,
0010
1000
0001
0100
0001
1000
0100
0000
,
0011
0000
1000
0100
1000
0001
0100
0000
,
0000
0010
0001
0100
0001
0010
0100
1000
,
0000
0010
1000
0100
1000
0010
0200
0000
,
0301
1000
0010
0100
0001
1000
0010
0000
,
0001
0000
0010
1000
0001
0010
1000
0000
,
0000
0010
0001
0100
1000
0100
0001
1000
,
0000
0001
1000
0010
0001
0010
1000
0001
,
0100
0000
0010
0100
0000
1001
0000
0000
,
0010
0000
1000
0001
0000
0110
0000
0000
,
0001
0000
0010
0100
1000
0010
0001
0010
,
0000
1000
0100
0001
0100
1000
0000
0001
,
0100
0000
0010
0000
1000
0100
1000
0010
,
0000
0100
0001
0010
0001
1000
0000
0000
,
0100
0000
0010
0000
0001
0100
1000
0100
,
0000
0001
0010
1000
0010
0001
0000
0100
,
0010
0000
0001
0000
0010
1000
0100
0001
,
0000
0100
0010
0001
0100
1000
0000
0000
,
0100
0000
0001
0000
1000
0100
0010
0001
,
0000
0000
1100
0000
0000
0011
0000
0000
,
1000
0100
0000
0100
0001
0000
0001
0010
,
0000
0010
1000
0000
0101
0000
1010
0000
;

//---------------dance-double - ----------------
#NOTES:
     dance-double:
     :
     Beginner:
     1:
     :
00000000
00000000
00000000
00000000
,
00000000
00000000
00000000
00000000
,
00000000
00000000
00000000
00000000
,
00010000
00000000
00010000
00000000
,
00001000
00000000
00001000
00000000
,
00000010
00000010
00000000
00000000
,
00000001
00000001
00000000
00000000
,
00001000
00001000
00000000
00000000
,
00000100
00000100
00000000
00000000
,
00010000
00000000
00010000
00000000
,
00001000
00000000
00001000
00000000
,
00100000
00000000
00100000
00000000
,
00010000
00000000
00010000
00000000
,
00100000
00000000
00000000
00000000
,
01000000
00000000
00000000
00000000
,
00100000
00000000
00000000
00000000
,
01000000
00000000
00000000
00000000
,
10000000
00000000
00000000
00000000
,
00010000
00000000
00000000
00000000
,
10000000
00000000
00000000
00000000
,
00010000
00000000
00000000
00000000
,
00100000
00000000
00000000
00000000
,
00001000
00000000
00000000
00000000
,
00010000
00000000
00000000
00000000
,
00000100
00000000
00000000
00000000
,
00001000
00001000
00000000
00000000
,
00000100
00000100
00000000
00000000
,
00000010
00000010
00000000
00000000
,
00000001
00000001
00000000
00000000
,
00000100
00000000
00000000
00000000
,
00001000
00000000
00000000
00000000
,
00010000
00000000
00000000
00000000
,
01000000
00000000
00000000
00000000
,
10000000
00000000
00000000
00000000
,
00100000
00000000
00000000
00000000
,
00010000
00000000
00000000
00000000
,
00001000
00000000
00000000
00000000
,
00000010
00000000
00000000
00000000
,
00001000
00000000
00000000
00000000
,
00010000
00000000
00000000
00000000
,
01000000
00000000
00000000
00000000
,
10000000
10000000
00000000
00000000
,
00100000
00100000
00000000
00000000
,
01000000
01000000
00000000
00000000
,
00010000
00010000
00000000
00000000
,
00100000
00000000
00100000
00000000
,
00001000
00000000
00001000
00000000
,
00010000
00000000
00010000
00000000
,
00000100
00000000
00000100
00000000
,
00001000
00000000
00001000
00000000
,
00000100
00000000
00000100
00000000
,
00010000
00000000
00010000
00000000
,
00001000
00000000
00001000
00000000
,
00100000
00000000
00100000
00000000
,
01000000
00000000
01000000
00000000
;

//---------------dance-double - ----------------
#NOTES:
     dance-double:
     :
     Easy:
     3:
     :
00000000
00000000
00000000
00000000
,
00000000
00000000
00000000
00000000
,
00000000
00000000
00000000
00000000
,
10000000
00000000
00010000
00000000
,
00100000
00000000
10010000
00000000
,
10000000
00010000
00000000
01000000
,
00100000
01000000
00000000
00010000
,
00100000
00010000
00000000
01000000
,
00001000
01000000
00000000
00001000
,
00010000
00001000
00000000
00010000
,
00000100
00010000
00000000
00000010
,
00001000
00000010
00000000
00000100
,
00000001
00000100
00000000
00000010
,
00001000
00000000
00000100
00000000
,
00000010
00000000
00000001
00000000
,
00000100
00000000
00001000
00000000
,
00010000
00001000
00010000
00001000
,
00100000
00000000
01000000
00000000
,
10000000
00000000
00010000
00000000
,
01000000
00000000
00100000
00000000
,
00010000
00001000
00010000
00001000
,
00100000
00000000
00001000
00000000
,
00010000
00000000
00000100
00000000
,
00001000
00000000
00000001
00000000
,
00000100
00000000
00000010
00000000
,
00001000
00001000
00000100
00000100
,
00010000
00001000
00010000
00001000
,
00100000
00100000
00010000
00010000
,
10000000
00010000
10000000
00010000
,
00100000
00000000
00010000
00000000
,
01000000
00000000
10000000
00000000
,
01000000
00000000
00010000
00000000
,
00100000
00001000
00010000
00000100
,
00001000
00000000
00000001
00000000
,
00001000
00000000
00000100
00000000
,
00000010
00000000
00000001
00000000
,
00001000
00000100
00000010
00000001
,
00001000
00000000
00000010
00000000
,
00000100
00000000
00001000
00000000
,
00010000
00000000
00100000
00000000
,
10000000
00010000
00010000
10000000
,
01000000
00100000
00000000
00100000
,
00001000
00010000
00000000
00010000
,
00001000
00000100
00000000
00000100
,
00000001
00000010
00000000
00000010
,
00000100
00010000
00000000
00010000
,
00001000
00100000
00000000
00100000
,
00010000
01000000
00000000
01000000
,
00100000
10000000
00000000
10000000
,
00010000
01000000
00000000
00100000
,
01000000
00010000
00000000
10000000
,
01000000
00100000
00000000
00001000
,
00010000
00000100
00000000
00000010
,
00000001
00000000
00001000
00000000
,
00000010
00000000
00010000
00001000
;

//---------------dance-double - ----------------
#NOTES:
     dance-double:
     :
     Medium:
     5:
     :
00000000
00000000
00000000
00000000
,
00000000
00000000
00000000
00000000
,
00000000
00000000
00000000
00000000
,
00001000
00010000
00000000
00001000
00010000
00001000
00000000
00010000
,
00000010
00000000
00000100
00000000
,
00000001
00000000
00001000
00000000
00000000
00000100
00000000
00000000
,
00000010
00000000
00000100
00000000
00000000
00001000
00000000
00000000
,
00000001
00000000
00000010
00000000
00000000
00001000
00000000
00000000
,
00010000
00000000
00100000
00000000
00000000
01000000
00000000
00000000
,
00100000
00000000
10000000
00000000
00000000
00010000
00000000
00000000
,
00100000
00000000
01000000
00000000
00000000
10000000
00000000
00000000
,
00010000
00000000
01000000
00000000
00000000
00100000
00000000
00000000
,
10000000
00000000
00010000
00000000
00000000
00100000
00000000
00000000
,
01100000
00010000
10000000
01000000
,
10000000
00010000
00100000
00010000
,
01000000
00010000
00100000
01000000
,
10000000
00100000
00010000
00001000
,
00011000
00010000
00000010
00001000
,
00000010
00000100
00000001
00000100
,
00000001
00000010
00001000
00000010
,
00000001
00000100
00001000
00010000
,
00011000
00100000
00010000
10000000
,
01000000
10000000
00100000
00010000
,
00100000
00000000
01000000
00000000
00010000
10000000
00100000
00000000
,
01000000
00000000
00010000
00000000
10000000
00100000
01000000
00000000
,
10000000
00000000
10100000
00000000
00000000
01010000
00000000
00000000
,
00010000
00000000
00110000
00000000
00000000
00011000
00000000
00000000
,
00001000
00000000
00000110
00000000
00000000
00001001
00000000
00000000
,
00000001
00000000
00000110
00000000
00000000
00001001
00000000
00000000
,
00001010
00000000
00000001
00000000
00000100
00000001
00000100
00000000
,
00000101
00000000
00001000
00000000
00000010
00010000
00000010
00000000
,
00011000
00000000
00001000
00010000
00100000
00010000
00001000
00000000
,
00010000
00001000
00000100
00001000
00010000
00000000
00011000
00000000
,
00100000
00000000
10000000
00000000
00010000
10000000
01000000
00000000
,
00100000
00000000
00010000
00000000
10000000
00010000
01000000
00000000
,
00100000
00000000
10000000
01000000
10000000
00010000
10000000
00000000
,
00100000
00000000
00010000
00001000
00010000
00000100
00010000
00000000
,
00000010
00000000
00000100
00000000
00000010
00000100
00000010
00000000
,
00000100
00000000
00000010
00000000
00000100
00000010
00000100
00000000
,
00000010
00000000
00001000
00000100
00000001
00000100
00001000
00000000
,
00000001
00000000
00000010
00000001
00000100
00001000
00010000
00000000
,
00001000
00000000
00100000
00010000
00000000
01000000
00000000
00000000
,
00100000
00000000
10000000
00010000
00000000
01000000
00000000
00000000
,
00100000
00000000
01000000
00000000
00010000
00100000
00010000
00100000
,
00000000
00001000
00010000
00001000
00010000
00001000
00000000
00000010
,
00000001
00000000
00000100
00000000
00000010
00001000
00000010
00001000
,
00000000
00000100
00010000
00000100
00010000
00000100
00000000
00000000
,
00000010
00000000
00001000
00000000
00010000
00001000
00010000
00001000
,
00000000
00100000
01000000
00100000
01000000
00100000
00000000
00010000
,
01000000
00000000
00100000
00000000
10000000
01000000
00010000
01000000
,
00000000
10000000
00100000
00010000
00001000
00010000
00000000
00000000
,
00000100
00000000
00000010
00000000
00000001
00000010
00000100
00001000
,
00000000
00000000
00001100
00000000
00000000
00000011
00000000
00000000
,
00000001
00000010
00000000
00000010
00000100
00000000
00000100
00001000
,
00000000
00001000
00000001
00000000
00000110
00000000
00001001
00000000
;

//---------------dance-double - ----------------
#NOTES:
     dance-double:
     :
     Hard:
     7:
     :
00000000
00000000
00000000
00000000
,
00000000
00000000
00000000
00000000
,
00000000
00000000
00000000
00000000
,
00000001
00000100
00000000
00000010
00010000
00001000
00000000
01000000
,
00010000
00000000
00100000
00000000
,
00010000
00000000
10000000
01000000
00000000
01000000
10000000
00000000
,
00100000
00000000
01000000
00010000
00000000
00010000
01000000
00000000
,
00001000
00000000
00010000
00000100
00000000
00000100
00010000
00000000
,
00001000
00000000
00000010
00000001
00000000
00000001
00000010
00000000
,
00000100
00000000
00001000
00000010
00000000
00001000
00000001
00000000
,
00001000
00000000
00000001
00000100
00000000
00000001
00001000
00000000
,
00000010
00000000
00001000
00000100
00000000
00000001
00000010
00000000
,
00001000
00000000
00010000
00001000
00000000
00100000
01000000
00000000
,
01100000
00000000
10000000
00010000
01000000
00010000
10000000
00000000
,
00010000
00000000
00100000
01000000
10000000
01000000
00100000
00000000
,
01000000
00000000
10000000
00100000
01000000
00010000
00100000
00001000
,
00000000
00010000
00001000
00000100
00000010
00002000
00003000
00000000
,
00001001
00000000
00000100
00000010
00000001
00000010
00000100
00000000
,
00000010
00000000
00000001
00001000
00000010
00001000
00000001
00000000
,
00001000
00000010
00000001
00000010
00001000
00000100
00000001
00000100
,
00000010
00000001
00000100
00001000
00020000
00000000
00030000
00000000
,
00011000
00000000
00100000
00010000
01000000
00010000
00100000
00000000
,
00010000
00000000
10000000
00100000
10000000
01000000
10000000
00000000
,
00000000
00010000
00100000
01000000
10000000
00100000
01000000
00010000
,
00100000
00000000
00001000
00000000
00010000
00000100
00001000
00000001
,
00000010
00000000
00000011
00000000
00000000
00001100
00000000
00000000
,
00000100
00000000
00000101
00000000
00000000
00001010
00000000
00000000
,
00010000
00000000
00011000
00000000
00000000
00110000
00000000
00000000
,
10000000
00000000
10010000
00000000
00000000
11000000
00000000
00000000
,
00110000
00000000
01000000
10000000
01000000
00100000
00010000
00000000
,
11000000
00000000
00100000
00010000
00100000
01000000
10000000
00000000
,
01100000
00000000
10000000
00100000
00010000
00001000
00010000
00000000
,
00001000
00010000
00001000
00000100
00000001
00000000
00001001
00000000
,
00000010
00001000
00000001
00000100
00000001
00001000
00000100
00000000
,
00000011
00000000
00001000
00000100
00001000
00000001
00000100
00000000
,
00000000
00000010
00000001
00000100
00000001
00000010
00000100
00001000
,
00000000
00000010
00001000
00000100
00010000
00001000
00200000
00000000
,
00310000
10000000
00100000
01000000
00010000
10000000
00100000
00000000
,
00010000
00000000
00100000
10000000
00010000
00100000
10000000
00000000
,
00000000
00100000
00010000
01000000
10000000
01000000
00010000
10000000
,
00000000
00010000
10000000
00100000
00010000
00100000
10000000
00010000
,
01000000
00000000
00100000
01000000
00000000
10010000
00000000
00000000
,
00100000
00000000
00001000
00010000
00000000
00011000
00000000
00000000
,
00001000
00000000
00000100
00000010
00001000
00000100
00000001
00000100
,
00000000
00001000
00000010
00000001
00000010
00001000
00000000
00000001
,
00000100
00000000
00000010
00000000
00001000
00000100
00001000
00000010
,
00000000
00000100
00000001
00000010
00000001
00001000
00000000
00000000
,
00000100
00000000
00010000
00000000
00001000
00010000
01000000
00010000
,
00000000
00001000
00010000
00100000
00010000
00001000
00000000
01000000
,
00100000
00000000
10000000
00000000
00100000
10000000
01000000
00010000
,
00000000
01000000
00100000
00010000
01000000
10000000
00000000
00000000
,
01000000
00000000
00010000
00000000
00100000
00001000
00010000
00000100
,
00000000
00000000
00001100
00000000
00000000
00000011
00000000
00000000
,
00001000
00000100
00000000
00000100
00000001
00000000
00000001
00000010
,
00000000
00000010
00001000
00000000
00000101
00000000
00001010
00000000
;
