#TITLE:Atlantis to Interzone;
#ARTIST:The Klaxons;
#BANNER:Atlantis to Interzone.png;
#BACKGROUND:Atlantis to Interzone-bg.png;
#MUSIC:Atlantis to Interzone.ogg;
#SAMPLESTART:14.199;
#SAMPLELENGTH:15;
#DISPLAYBPM:150:170;
#BPMS:0=150,108=170.012,236=162.26;
#BGCHANGES:4=Atlantis to Interzone.avi=1=0=0=0;

//---------------dance-single - ----------------
#NOTES:
     dance-single:
     :
     Beginner:
     2:
     :
0000
0000
0000
0000
,
0000
0000
0000
0000
,
0000
0000
0000
0000
,
0000
0000
0000
0000
,
0000
0000
0000
0000
,
1000
0000
1000
0000
,
0001
0000
0001
0000
,
0100
0000
0100
0000
,
0010
0000
0010
0000
,
1000
1000
0000
1000
,
0000
1000
0000
0000
,
0100
0100
0000
0100
,
0000
0100
0000
0000
,
0010
0010
0000
0010
,
0000
0010
0000
0000
,
0001
0001
0000
0001
,
0000
0001
0000
0001
,
0100
0000
0100
0000
,
0010
0000
0010
0000
,
1000
0000
1000
0000
,
0001
0000
0001
0000
,
1000
0000
1000
0000
,
0100
0000
0100
0000
,
0010
0000
0010
0000
,
0001
0000
0001
0000
,
1000
0000
1000
0000
,
1000
0000
0000
0000
,
1001
0000
0000
0000
,
0000
0000
0000
0000
,
0000
0000
0000
0000
,
0000
0000
0000
0000
,
0010
0000
0000
0000
,
1000
0000
0000
0000
,
0100
0000
0000
0000
,
0001
0000
0000
0000
,
0010
0000
0010
0000
,
0010
0000
0000
0000
,
1000
0000
1000
0000
,
1000
0000
0000
0000
,
0001
0000
0001
0000
,
0001
0000
0000
0000
,
0100
0000
0100
0000
,
0100
0000
0000
0000
,
1000
0000
0001
0000
,
1000
0000
0000
0000
,
0020
0000
0000
0030
,
0010
0000
0000
0000
,
0001
0000
1000
0000
,
0001
0000
0000
0000
,
0200
0000
0000
0300
,
0100
0000
0000
0000
,
0010
0000
0100
0000
,
0010
0000
0000
0000
,
2000
0000
0000
3000
,
1000
0000
0000
0000
,
0100
0000
0010
0000
,
0100
0000
0000
0000
,
0002
0000
0000
0003
,
0001
0000
0000
0000
,
1001
0000
0000
0000
,
1000
0000
0000
0000
,
0001
0000
0000
0000
,
0100
0000
0000
0000
,
1001
0000
0000
0000
;

//---------------dance-single - ----------------
#NOTES:
     dance-single:
     :
     Easy:
     3:
     :
0000
0000
0000
0000
,
0000
0000
0000
0000
,
0000
0000
0000
0000
,
0000
0000
0000
0000
,
0000
0000
0000
0000
,
1000
0100
1000
0000
,
0001
0100
0001
0000
,
0010
0100
0010
0000
,
1000
0001
1000
0000
,
0001
0100
0001
0100
,
0010
1000
0010
0000
,
1000
0100
1000
0100
,
0010
0000
0010
0000
,
0001
1000
0001
1000
,
0010
0010
0010
0000
,
0100
0010
0100
0010
,
1000
1000
0001
0001
,
0100
0100
0010
0000
,
1000
1000
0010
0000
,
0001
0001
0100
0000
,
1000
1000
0100
0000
,
0001
0010
0100
0000
,
1000
0010
0100
0000
,
0010
0010
0001
0000
,
0010
0010
1000
0000
,
0100
0100
0001
0000
,
0100
0100
1000
0000
,
1001
0000
0000
0000
,
0000
0000
0000
0000
,
0000
0000
0000
0000
,
0000
0000
0000
0000
,
1000
0000
1000
0000
,
0001
0000
0001
0000
,
0100
0000
0100
0000
,
0010
0000
0010
0000
,
1000
0000
0100
0100
,
0010
0000
0001
0001
,
0001
0000
0100
0100
,
0010
0000
1001
0000
,
0010
0100
0010
0000
,
0001
0000
0100
0010
,
0100
0000
0010
0000
,
1000
0000
0100
0000
,
2000
0000
3000
0000
,
0002
0000
0003
0001
,
2000
0000
0000
0000
,
3000
0000
0000
0000
,
0020
0000
0030
0000
,
0200
0000
0300
0100
,
0020
0000
0000
0000
,
0030
0000
0000
0000
,
0010
0001
1000
0001
,
2000
0000
3000
0000
,
0220
0000
0000
0000
,
0330
0000
0000
0000
,
0100
1000
0001
1000
,
0002
0000
0003
0000
,
0220
0000
0000
0000
,
0330
0000
0000
0000
,
1001
0000
0000
0000
,
1000
0000
0000
0000
,
0100
0000
0000
0000
,
0010
0000
0000
0000
,
0110
0000
0000
0000
;

//---------------dance-single - ----------------
#NOTES:
     dance-single:
     :
     Medium:
     5:
     :
0000
0000
0000
0000
,
0000
0000
0000
0000
,
0000
0000
0000
0000
,
0000
0000
0000
0000
,
0000
0000
0000
0000
,
1000
0100
1000
0000
2000
0000
3000
0000
,
0001
0010
0001
0000
0002
0000
0003
0000
,
0100
0010
0100
0000
0020
0000
0030
0000
,
1000
0001
1000
0000
0200
0000
0300
0000
,
0010
0001
0100
1000
,
0010
0000
1000
0000
0100
0001
0100
0000
,
0010
1000
0100
0001
,
0010
0000
0001
0000
0100
1000
0100
0000
,
0010
0010
0100
0000
0010
0000
1001
0000
,
0001
0100
0001
0000
1000
0000
0010
0000
,
1000
1000
0001
0000
1000
0000
0110
0000
,
1000
0100
1000
0000
0001
0100
0001
0000
,
0010
0100
0010
0000
0002
0000
0003
0000
,
1000
0001
1000
0000
0200
0000
0300
0000
,
1000
0100
1000
0000
0020
0000
0030
0000
,
0001
0100
0001
0000
2000
0000
3000
0000
,
0010
0001
1000
0000
2020
0000
3030
0000
,
0100
1000
0001
0000
0202
0000
0303
0000
,
0001
1000
0100
0000
2200
0000
3300
0000
,
1000
0001
0010
0000
0022
0000
0033
0000
,
0100
0010
0100
1000
0001
0000
1000
0000
,
0001
1000
0001
0100
0010
0000
0100
0000
,
1002
0000
0000
0003
,
0200
0000
0000
0300
,
0020
0000
0000
0030
,
2002
0000
0000
3003
,
1000
0001
0101
0000
,
0001
1000
1010
0000
,
0100
0010
0011
0000
,
0100
0010
1010
0000
,
1001
0010
1000
0100
,
0010
0100
0110
0110
,
0110
0001
0100
0010
,
1000
0100
1000
0010
,
0100
0100
0010
0010
,
1000
0001
0001
0010
,
0100
0100
0001
1000
,
0100
0010
0100
0110
,
0002
0103
0200
0310
,
2000
3001
0100
0100
,
0020
1000
1000
1030
,
0100
0001
1000
0110
,
2000
3010
0020
0130
,
0002
1003
0010
0010
,
0200
0001
0001
0301
,
0010
1000
0001
0110
,
2000
3001
0020
0130
,
1001
0010
0001
0200
,
0010
0010
0010
0310
,
1000
1000
0100
0100
,
0002
1003
0200
0310
,
1001
0100
1000
0020
,
0100
0100
0100
0130
,
0001
0001
0100
0100
,
1001
0000
0000
0000
,
1100
0000
0000
0000
,
0011
0000
0000
0000
,
0101
0000
0000
0000
,
0110
0000
0000
0000
;

//---------------dance-single - ----------------
#NOTES:
     dance-single:
     :
     Hard:
     8:
     :
0000
0000
0000
0000
,
0000
0000
0000
0000
,
0000
0000
0000
0000
,
0000
0000
0000
0000
,
0000
0000
0000
0000
,
1000
0000
0000
0000
0100
0000
0000
0000
0010
0000
0000
0010
0000
0000
0010
0000
,
0100
0000
0000
0000
0010
0000
0000
0000
0001
0000
0000
0001
0000
0000
0001
0000
,
0100
0000
0000
0000
1000
0000
0000
0000
0010
0000
0000
0010
0000
0000
0010
0000
,
1000
0000
0000
0000
0001
0000
0000
0000
1000
0000
0000
1000
0000
0000
1000
0000
,
0100
0010
0100
0000
0010
0001
0010
0000
,
0001
0100
0010
0100
0001
1000
0100
0000
,
0010
0100
0010
0000
0100
1000
0100
1000
,
0010
0100
0001
0000
0010
0100
0001
0000
,
1000
0010
0100
0001
0020
0000
0130
0000
,
1000
0001
1000
0000
0010
0100
0010
0000
,
0001
0010
0100
1000
0020
0000
1030
0000
,
1000
0010
0100
0000
1000
0010
0100
0000
,
0001
0000
0000
0000
0011
0000
0000
0000
0100
0000
0000
0100
0000
0000
0100
0000
,
1000
0000
0000
0000
1010
0000
0000
0000
0100
0000
0000
0100
0000
0000
0100
0000
,
0010
0000
1000
0000
0001
0000
0000
0000
0010
0000
0000
0010
0000
0000
0010
0000
,
0001
0000
1000
0000
0100
0000
0000
0000
1000
0000
0000
1000
0000
0000
1000
0000
,
0010
0000
0100
0000
0010
1000
0000
0000
0001
0000
0000
0001
0000
0000
0001
0000
,
0010
0000
0100
0000
0010
0001
0000
0000
1000
0000
0000
1000
0000
0000
1000
0000
,
1010
0000
0010
0000
0100
0001
0000
0000
0010
0000
0000
0010
0000
0000
0010
0000
,
0011
0000
0001
0000
1000
0010
0000
0000
0100
0000
0000
0100
0000
0000
0100
0000
,
0010
0000
0100
0000
0001
1000
0000
0000
1010
0000
0000
0010
0000
0000
0101
0000
,
0100
0000
0001
0000
0010
0100
0000
0000
0010
0000
0000
1001
0000
0000
0100
0000
,
2002
0000
0000
3000
,
0200
0000
0000
0000
0000
0000
0000
0000
0000
0000
0000
0000
0000
0003
0000
0000
,
0020
0000
0000
0330
,
0000
1000
1000
0000
0001
1000
0100
0000
,
1000
1000
1000
1000
,
0100
0100
0100
0100
,
0001
0001
0001
0001
,
0010
0010
0010
0010
,
1000
0100
1000
0000
1000
0000
1000
0000
,
0100
0000
0100
0000
0100
1000
0100
0010
,
0001
0011
0001
1001
,
0010
0110
0010
1010
,
1000
0010
1000
0001
1000
0000
1010
0000
,
0100
0000
0100
0001
0100
0010
0100
1000
,
0001
0101
0001
1001
,
0010
0000
0110
0000
0010
0100
0010
0000
,
1000
0010
1000
0000
1000
0100
1000
0000
,
0100
1000
0100
0000
0100
0001
0100
0000
,
0001
0001
0001
1001
,
0010
0010
0010
0110
,
0001
0010
0001
0000
0001
0100
0001
0000
,
0100
0001
0100
0000
0100
1000
0100
0000
,
1000
1010
1000
1010
,
0010
0110
0010
0110
,
1000
0100
1000
0001
1000
0010
1000
0000
,
0100
1100
0100
1100
,
0001
0010
0001
1000
0001
0100
0001
0000
,
0010
0011
0010
0011
,
1000
0010
1000
0100
1000
0001
1000
0010
,
0100
0001
0100
0010
0100
1000
0100
0010
,
0001
0100
0001
1000
0001
0010
0001
0100
,
0010
1000
0010
0100
0010
0001
0010
0000
,
1001
0000
0000
0000
0000
0000
0000
0000
0000
0000
0000
0100
0000
0000
0000
0000
0000
0000
0000
0000
0000
0000
1000
0000
0000
0000
0000
0000
0000
0000
0000
0000
0001
0000
0000
0000
0000
0000
0000
0000
0000
0000
0000
0010
0000
0000
0000
0000
0000
0000
0000
0000
0000
0000
0100
0000
0000
0000
0000
0000
0000
0000
0000
0000
,
1000
0000
0000
0000
0000
0000
0000
0000
0000
0000
0000
0100
0000
0000
0000
0000
0000
0000
0000
0000
0000
0000
0010
0000
0000
0000
0000
0000
0000
0000
0000
0000
0001
0000
0000
0000
0000
0000
0000
0000
0000
0000
0000
0010
0000
0000
0000
0000
0000
0000
0000
0000
0000
0000
0100
0000
0000
0000
0000
0000
0000
0000
0000
0000
,
1000
0000
0000
0000
0000
0000
0000
0000
0000
0000
0000
0001
0000
0000
0000
0000
0000
0000
0000
0000
0000
0000
1000
0000
0000
0000
0000
0000
0000
0000
0000
0000
0010
0000
0000
0000
0000
0000
0000
0000
0000
0000
0000
0100
0000
0000
0000
0000
0000
0000
0000
0000
0000
0000
0010
0000
0000
0000
0000
0000
0000
0000
0000
0000
,
1000
0000
0000
0000
0000
0000
0000
0000
0000
0000
0000
0001
0000
0000
0000
0000
0000
0000
0000
0000
0000
0000
0010
0000
0000
0000
0000
0000
0000
0000
0000
0000
0100
0000
0000
0000
0000
0000
0000
0000
0000
0000
0000
1000
0000
0000
0000
0000
0000
0000
0000
0000
0000
0000
0100
0000
0000
0000
0000
0000
0000
0000
0000
0000
,
0110
0000
0000
0000
;

//---------------dance-double - ----------------
#NOTES:
     dance-double:
     :
     Beginner:
     2:
     :
00000000
00000000
00000000
00000000
,
00000000
00000000
00000000
00000000
,
00000000
00000000
00000000
00000000
,
00000000
00000000
00000000
00000000
,
00000000
00000000
00000000
00000000
,
10000000
00000000
10000000
00000000
,
01000000
00000000
01000000
00000000
,
00100000
00000000
00100000
00000000
,
00010000
00000000
00010000
00000000
,
01000000
01000000
00000000
01000000
,
00000000
01000000
00000000
00000000
,
00001000
00001000
00000000
00001000
,
00000000
00001000
00000000
00000000
,
00010000
00010000
00000000
00010000
,
00000000
00010000
00000000
00000000
,
00001000
00001000
00000000
00001000
,
00000000
00001000
00000000
00001000
,
00010000
00000000
00010000
00000000
,
00000100
00000000
00000100
00000000
,
00001000
00000000
00001000
00000000
,
00000100
00000000
00000100
00000000
,
00000010
00000000
00000010
00000000
,
00000001
00000000
00000001
00000000
,
00000010
00000000
00000010
00000000
,
00000100
00000000
00000100
00000000
,
00001000
00000000
00001000
00000000
,
00001000
00000000
00000000
00000000
,
00000110
00000000
00000000
00000000
,
00000000
00000000
00000000
00000000
,
00000000
00000000
00000000
00000000
,
00000000
00000000
00000000
00000000
,
00001000
00000000
00000000
00000000
,
00010000
00000000
00000000
00000000
,
01000000
00000000
00000000
00000000
,
00100000
00000000
00000000
00000000
,
01000000
00000000
01000000
00000000
,
01000000
00000000
00000000
00000000
,
00010000
00000000
00010000
00000000
,
00010000
00000000
00000000
00000000
,
10000000
00000000
10000000
00000000
,
10000000
00000000
00000000
00000000
,
01000000
00000000
01000000
00000000
,
01000000
00000000
00000000
00000000
,
00100000
00000000
01000000
00000000
,
00100000
00000000
00000000
00000000
,
02000000
00000000
00000000
03000000
,
01000000
00000000
00000000
00000000
,
00010000
00000000
00001000
00000000
,
00010000
00000000
00000000
00000000
,
00020000
00000000
00000000
00030000
,
00010000
00000000
00000000
00000000
,
00001000
00000000
00010000
00000000
,
00001000
00000000
00000000
00000000
,
00002000
00000000
00000000
00003000
,
00001000
00000000
00000000
00000000
,
00000100
00000000
00000010
00000000
,
00000100
00000000
00000000
00000000
,
00000200
00000000
00000000
00000300
,
00000100
00000000
00000000
00000000
,
00001001
00000000
00000000
00000000
,
00000100
00000000
00000000
00000000
,
00001000
00000000
00000000
00000000
,
00010000
00000000
00000000
00000000
,
00011000
00000000
00000000
00000000
;

//---------------dance-double - ----------------
#NOTES:
     dance-double:
     :
     Easy:
     3:
     :
00000000
00000000
00000000
00000000
,
00000000
00000000
00000000
00000000
,
00000000
00000000
00000000
00000000
,
00000000
00000000
00000000
00000000
,
00000000
00000000
00000000
00000000
,
00000001
00000001
00000010
00000000
,
00000100
00000100
00001000
00000000
,
00010000
00010000
00001000
00000000
,
00010000
00010000
00001000
00000000
,
00100000
00010000
00100000
00010000
,
01000000
00100000
01000000
00000000
,
00100000
10000000
00100000
10000000
,
01000000
00000000
01000000
00000000
,
00010000
00001000
00010000
00001000
,
00000100
00000100
00000100
00000000
,
00000010
00000100
00000010
00000100
,
00001000
00001000
00000001
00000001
,
00000100
00000100
00001000
00000000
,
00001000
00001000
00010000
00000000
,
00010000
00010000
01000000
00000000
,
01000000
01000000
00100000
00000000
,
01000000
10000000
00010000
00000000
,
00010000
10000000
01000000
00000000
,
00010000
00010000
00001000
00000000
,
00001000
00001000
00010000
00000000
,
00000100
00000100
00001000
00000000
,
00001000
00001000
00000010
00000000
,
00000110
00000000
00000000
00000000
,
00000000
00000000
00000000
00000000
,
00000000
00000000
00000000
00000000
,
00000000
00000000
00000000
00000000
,
00000010
00000000
00000010
00000000
,
00000001
00000000
00000001
00000000
,
00000100
00000000
00000100
00000000
,
00001000
00000000
00001000
00000000
,
00010000
00000000
00001000
00001000
,
00100000
00000000
00010000
00010000
,
01000000
00000000
00100000
00100000
,
10000000
00000000
10010000
00000000
,
01000000
01000000
00010000
00000000
,
00001000
00000000
00010000
00010000
,
00001000
00000000
00000100
00000000
,
00000001
00000000
00000010
00000000
,
00000200
00000000
00000300
00000000
,
00000020
00000000
00000030
00000010
,
00002000
00000000
00000000
00000000
,
00003000
00000000
00000000
00000000
,
00002000
00000000
00003000
00000000
,
00020000
00000000
00030000
00010000
,
00200000
00000000
00000000
00000000
,
00300000
00000000
00000000
00000000
,
00100000
10000000
00100000
10000000
,
02000000
00000000
03000000
00000000
,
02200000
00000000
00000000
00000000
,
03300000
00000000
00000000
00000000
,
00010000
00001000
00010000
00001000
,
00020000
00000000
00030000
00000000
,
00022000
00000000
00000000
00000000
,
00033000
00000000
00000000
00000000
,
00000110
00000000
00000000
00000000
,
00001000
00000000
00000000
00000000
,
00000010
00000000
00000000
00000000
,
00000100
00000000
00000000
00000000
,
00001001
00000000
00000000
00000000
;

//---------------dance-double - ----------------
#NOTES:
     dance-double:
     :
     Medium:
     5:
     :
00000000
00000000
00000000
00000000
,
00000000
00000000
00000000
00000000
,
00000000
00000000
00000000
00000000
,
00000000
00000000
00000000
00000000
,
00000000
00000000
00000000
00000000
,
00001000
00000100
00001000
00000000
00000200
00000000
00000300
00000000
,
00000010
00000001
00000010
00000000
00000002
00000000
00000003
00000000
,
00000100
00001000
00000100
00000000
00002000
00000000
00003000
00000000
,
00010000
00001000
00010000
00000000
00002000
00000000
00003000
00000000
,
00100000
00010000
01000000
00010000
,
10000000
00000000
01000000
00000000
00100000
00010000
00100000
00000000
,
00001000
00010000
00000100
00001000
,
00000010
00000000
00001000
00000000
00000001
00000100
00000001
00000000
,
00001000
00001000
00000100
00000000
00010000
00000000
00011000
00000000
,
00001000
00010000
00001000
00000000
00100000
00000000
00010000
00000000
,
01000000
01000000
00100000
00000000
10000000
00000000
01100000
00000000
,
00010000
01000000
00010000
00000000
10000000
01000000
10000000
00000000
,
01000000
00100000
01000000
00000000
00020000
00000000
00030000
00000000
,
00001000
00010000
00001000
00000000
00000200
00000000
00000300
00000000
,
00000010
00001000
00000010
00000000
00000200
00000000
00000300
00000000
,
00000001
00000100
00000001
00000000
00002000
00000000
00003000
00000000
,
00000100
00001000
00000100
00000000
00022000
00000000
00033000
00000000
,
00001000
01000000
00010000
00000000
02020000
00000000
03030000
00000000
,
00010000
10000000
01000000
00000000
22000000
00000000
33000000
00000000
,
10000000
00010000
00100000
00000000
00220000
00000000
00330000
00000000
,
00100000
00001000
00010000
00001000
00000100
00000000
00000010
00000000
,
00000100
00000010
00001000
00000001
00000100
00000000
00001000
00000000
,
00021000
00000000
00000000
00030000
,
00200000
00000000
00000000
00300000
,
20000000
00000000
00000000
30000000
,
20020000
00000000
00000000
30030000
,
10000000
01000000
01100000
00000000
,
00010000
00001000
00011000
00000000
,
00000100
00000001
00000011
00000000
,
00001000
00000010
00001010
00000000
,
00011000
00001000
00010000
00100000
,
10000000
01000000
01100000
01100000
,
01100000
00010000
00001000
00010000
,
00000010
00000100
00000010
00001000
,
00000001
00000001
00000100
00000100
,
00001000
00010000
00010000
00001000
,
00100000
00100000
00010000
10000000
,
01000000
00100000
00100000
01100000
,
20000000
31000000
00020000
00031000
,
00000200
00000301
00001000
00001000
,
00000020
00000100
00000100
00000130
,
00000010
00001000
00000001
00000110
,
00000002
00000103
00002000
00013000
,
02000000
13000000
00010000
00010000
,
02000000
00100000
00100000
03100000
,
00010000
10000000
00100000
01100000
,
00020000
00130000
00002000
00013000
,
00011000
00001000
00000100
00000020
,
00000100
00000100
00000100
00000130
,
00000001
00000001
00000100
00000100
,
00002000
00003100
00020000
00031000
,
00011000
00010000
00100000
02000000
,
00100000
00100000
00100000
03100000
,
10000000
10000000
01000000
01000000
,
10010000
00000000
00000000
00000000
,
00011000
00000000
00000000
00000000
,
00000110
00000000
00000000
00000000
,
00001001
00000000
00000000
00000000
,
00011000
00000000
00000000
00000000
;

//---------------dance-double - ----------------
#NOTES:
     dance-double:
     :
     Hard:
     8:
     :
00000000
00000000
00000000
00000000
,
00000000
00000000
00000000
00000000
,
00000000
00000000
00000000
00000000
,
00000000
00000000
00000000
00000000
,
00000000
00000000
00000000
00000000
,
10000000
00000000
00000000
00000000
01000000
00000000
00000000
00000000
00010000
00000000
00000000
00001000
00000000
00000000
00010000
00000000
,
00001000
00000000
00000000
00000000
00000100
00000000
00000000
00000000
00000010
00000000
00000000
00000100
00000000
00000000
00000010
00000000
,
00001000
00000000
00000000
00000000
00000001
00000000
00000000
00000000
00000100
00000000
00000000
00000001
00000000
00000000
00000100
00000000
,
00001000
00000000
00000000
00000000
00010000
00000000
00000000
00000000
00100000
00000000
00000000
01000000
00000000
00000000
00100000
00000000
,
10000000
00100000
10000000
00000000
01000000
10000000
01000000
00000000
,
01000000
00010000
00001000
00010000
01000000
00100000
00010000
00000000
,
00100000
00001000
00010000
00000000
00010000
00001000
00010000
00001000
,
00000100
00000010
00001000
00000000
00000100
00000010
00001000
00000000
,
00000010
00000001
00000100
00001000
00020000
00000000
00031000
00000000
,
00100000
00010000
00100000
00000000
01000000
10000000
01000000
00000000
,
00100000
10000000
01000000
00010000
00002000
00000000
00013000
00000000
,
00100000
00010000
01000000
00000000
00100000
00010000
01000000
00000000
,
00001000
00000000
00000000
00000000
00011000
00000000
00000000
00000000
00010000
00000000
00000000
00000100
00000000
00000000
00001000
00000000
,
00000100
00000000
00000000
00000000
00000110
00000000
00000000
00000000
00000001
00000000
00000000
00001000
00000000
00000000
00000100
00000000
,
00010000
00000000
00001000
00000000
00010000
00000000
00000000
00000000
00100000
00000000
00000000
01000000
00000000
00000000
00100000
00000000
,
10000000
00000000
01000000
00000000
00010000
00000000
00000000
00000000
00001000
00000000
00000000
00010000
00000000
00000000
00001000
00000000
,
00000100
00000000
00000000
00000000
00000010
00001000
00000000
00000000
00000001
00000000
00000000
00000001
00000000
00000000
00000001
00000000
,
00000100
00000000
00001000
00000000
00010000
00001000
00000000
00000000
00100000
00000000
00000000
00100000
00000000
00000000
00100000
00000000
,
00010000
00000000
01000000
00000000
00100000
01000000
00000000
00000000
00010000
00000000
00000000
00010000
00000000
00000000
00010000
00000000
,
10000000
00000000
01000000
00000000
00100000
00010000
00000000
00000000
01000000
00000000
00000000
01000000
00000000
00000000
01000000
00000000
,
00001000
00000000
00010000
00000000
00001000
00010000
00000000
00000000
00010100
00000000
00000000
00001000
00000000
00000000
00001100
00000000
,
00000100
00000000
00000010
00000000
00000100
00000010
00000000
00000000
00000001
00000000
00000000
00000110
00000000
00000000
00000100
00000000
,
00002002
00000000
00000000
00003000
,
00000203
00000000
00000000
00000000
,
00002300
00000000
00000000
00003000
,
00000000
00010000
00010000
00000000
00010000
00100000
01000000
00000000
,
10000000
10000000
01000000
01000000
,
00010000
00000000
00010000
00000000
00001000
00010000
00001000
00000000
,
00000100
00000100
00000001
00000001
,
00000010
00000000
00000010
00000000
00001000
00010000
00001000
00000000
,
00010000
00001000
00010000
00000000
00100000
00000000
00100000
00000000
,
10000000
00000000
10000000
00000000
01000000
10000000
01000000
00100000
,
00010000
00110000
00001000
00011000
,
00000100
00001100
00000001
00000101
,
00000010
00000001
00000010
00000100
00001000
00000000
00001100
00000000
,
00010000
00000000
00010000
00001000
00100000
00010000
00100000
01000000
,
10000000
10000000
01000000
01000000
,
00010000
00010000
00001000
00001000
,
00000010
00001000
00000010
00000000
00000001
00000010
00000001
00000000
,
00000100
00000001
00000100
00000000
00001000
00000100
00001000
00000000
,
00010000
00010000
00100000
10100000
,
10000000
10000000
01000000
01000000
,
00010000
00001000
00010000
00000000
00001000
00000100
00001000
00000000
,
00000100
00000001
00000100
00000000
00000001
00000100
00000001
00000000
,
00000010
00000110
00001000
00001100
,
00010000
00011000
00100000
00110000
,
10000000
00100000
10000000
00010000
01000000
00100000
01000000
00000000
,
00010000
00110000
00001000
00001000
,
00000100
00001000
00000100
00000010
00000001
00001000
00000001
00000000
,
00000010
00000010
00001000
00001000
,
00010000
00001000
00010000
00001000
00100000
00010000
00100000
01000000
,
10000000
00100000
10000000
00010000
01000000
10000000
01000000
00000000
,
00010000
00100000
00010000
01000000
00001000
00010000
00001000
00000010
,
00000100
00001000
00000100
00000010
00000001
00001000
00000001
00000000
,
00001001
00000000
00000000
00000000
00000000
00000000
00000000
00000000
00000000
00000000
00000000
00000010
00000000
00000000
00000000
00000000
00000000
00000000
00000000
00000000
00000000
00000000
00000001
00000000
00000000
00000000
00000000
00000000
00000000
00000000
00000000
00000000
00000100
00000000
00000000
00000000
00000000
00000000
00000000
00000000
00000000
00000000
00000000
00001000
00000000
00000000
00000000
00000000
00000000
00000000
00000000
00000000
00000000
00000000
00010000
00000000
00000000
00000000
00000000
00000000
00000000
00000000
00000000
00000000
,
01000000
00000000
00000000
00000000
00000000
00000000
00000000
00000000
00000000
00000000
00000000
10000000
00000000
00000000
00000000
00000000
00000000
00000000
00000000
00000000
00000000
00000000
01000000
00000000
00000000
00000000
00000000
00000000
00000000
00000000
00000000
00000000
00010000
00000000
00000000
00000000
00000000
00000000
00000000
00000000
00000000
00000000
00000000
00001000
00000000
00000000
00000000
00000000
00000000
00000000
00000000
00000000
00000000
00000000
00010000
00000000
00000000
00000000
00000000
00000000
00000000
00000000
00000000
00000000
,
00100000
00000000
00000000
00000000
00000000
00000000
00000000
00000000
00000000
00000000
00000000
00010000
00000000
00000000
00000000
00000000
00000000
00000000
00000000
00000000
00000000
00000000
00001000
00000000
00000000
00000000
00000000
00000000
00000000
00000000
00000000
00000000
00000100
00000000
00000000
00000000
00000000
00000000
00000000
00000000
00000000
00000000
00000000
00000001
00000000
00000000
00000000
00000000
00000000
00000000
00000000
00000000
00000000
00000000
00000010
00000000
00000000
00000000
00000000
00000000
00000000
00000000
00000000
00000000
,
00000100
00000000
00000000
00000000
00000000
00000000
00000000
00000000
00000000
00000000
00000000
00010000
00000000
00000000
00000000
00000000
00000000
00000000
00000000
00000000
00000000
00000000
00001000
00000000
00000000
00000000
00000000
00000000
00000000
00000000
00000000
00000000
00100000
00000000
00000000
00000000
00000000
00000000
00000000
00000000
00000000
00000000
00000000
00010000
00000000
00000000
00000000
00000000
00000000
00000000
00000000
00000000
00000000
00000000
00100000
00000000
00000000
00000000
00000000
00000000
00000000
00000000
00000000
00000000
,
10010000
00000000
00000000
00000000
;
