#TITLE:The Creeps;
#ARTIST:Camille Jones vs. Fedde Le Grand;
#BANNER:The Creeps.png;
#BACKGROUND:The Creeps-bg.png;
#MUSIC:The Creeps.ogg;
#SAMPLESTART:76.935;
#SAMPLELENGTH:15;
#DISPLAYBPM:128;
#BPMS:0=127.901,132=127.898,208=127.886;
#BGCHANGES:2.5=The Creeps.avi=1=0=0=0;

//---------------dance-single - ----------------
#NOTES:
     dance-single:
     :
     Beginner:
     1:
     :
0000
0000
0000
0000
,
0000
0000
0000
0000
,
0000
0000
0000
0000
,
0001
0000
0001
0000
,
1000
0000
0000
0000
,
0010
0000
0000
0000
,
0100
0000
0000
0000
,
1000
0000
0000
0000
,
0001
0000
0000
0000
,
0010
0000
0000
0000
,
0100
0000
0000
0000
,
1000
0000
0000
0000
,
0010
0000
0000
0000
,
0001
0000
0000
0000
,
1000
0000
0000
0000
,
0100
0000
0000
0000
,
0010
0000
0000
0000
,
0010
0000
0000
0000
,
0010
0000
0000
0000
,
1000
0000
0000
0000
,
0100
0000
0000
0000
,
0100
0000
0001
0000
,
0010
0000
1000
0000
,
0100
0000
0100
0000
,
0010
0000
0000
0000
,
0001
0000
1000
0000
,
0100
0000
0010
0000
,
0001
0000
1000
0000
,
0001
0000
0000
0000
,
0010
0000
0100
0000
,
1000
0000
1000
0000
,
0010
0000
0100
0000
,
0010
0000
0100
0000
,
0001
0000
0010
0000
,
0100
0000
1000
0000
,
0100
0000
0010
0000
,
0001
0000
0000
0000
,
1000
0000
0010
0000
,
0100
0000
0001
0000
,
0010
0000
0100
0000
,
1000
0000
1000
0000
,
0001
0000
0010
0000
,
0001
0000
1000
0000
,
0100
0000
1000
0000
,
0010
0000
0000
0000
,
0100
0000
0000
0000
,
0010
0000
0000
0000
,
0001
0000
0000
0000
,
1000
0000
0000
0000
,
0010
0000
1000
0000
,
0001
0000
0100
0000
,
1000
0000
0010
0000
,
0100
0000
0010
0000
,
0001
0000
0000
0000
;

//---------------dance-single - ----------------
#NOTES:
     dance-single:
     :
     Easy:
     3:
     :
0000
0000
0000
0000
,
0000
0000
0000
0000
,
0000
0000
0000
0000
,
1000
0000
1000
0000
,
0001
0001
0000
0000
,
0010
0000
0100
0000
,
1000
0000
0001
0000
,
0010
0000
0100
0000
,
1000
0000
0100
0000
,
0001
0000
0000
0000
,
1000
0000
0000
0000
,
0100
0000
0000
0000
,
0001
0000
0000
0000
,
0100
0000
0000
0000
,
1000
0000
0000
0000
,
0010
0000
0000
0000
,
1000
0000
0000
0000
,
0001
0000
0000
0000
,
1000
0000
0000
0000
,
0010
0000
0000
0000
,
0100
0000
0000
0000
,
1000
1000
0010
0000
,
0100
0100
0001
0000
,
0001
0000
0010
0000
,
0100
0100
1000
0000
,
0010
0010
1000
0000
,
0100
0100
0001
0000
,
0010
0000
1000
0000
,
0100
0100
0001
0000
,
0010
0000
0001
0000
,
0100
0000
1000
0000
,
0010
0000
1000
0000
,
0100
0000
0001
0000
,
0010
0100
0001
0000
,
0100
0000
1000
0000
,
0010
0010
0000
1000
,
0100
0000
0001
0000
,
0001
0000
0100
0000
,
0010
0010
1000
0000
,
0100
0000
0010
0000
,
0001
0001
0100
0000
,
1000
0100
0010
0000
,
0001
0001
0010
0000
,
1000
1000
0100
0000
,
0001
0010
0100
0000
,
1000
1000
0001
0000
,
0010
0100
0001
0000
,
0110
0000
0001
0000
,
1000
0100
0010
0000
,
0001
0001
1000
0000
,
0100
0010
1000
0000
,
0110
0000
1000
0000
,
0001
0010
0100
0000
,
1001
0000
0000
0000
;

//---------------dance-single - ----------------
#NOTES:
     dance-single:
     :
     Medium:
     7:
     :
0000
0000
0000
0000
,
0000
0000
0000
0000
,
0000
0000
0000
0000
,
0010
0001
0000
1000
0100
0000
0000
0000
,
0010
1000
0000
0001
0100
0000
1100
0000
,
0001
1000
0000
0100
0010
0000
0001
0000
,
0100
0010
0000
1000
0001
0000
0100
0000
,
1000
0001
0000
0010
0100
0000
1000
0000
,
0010
0100
0000
0001
1000
0000
0010
0000
,
0200
0000
0010
0000
0000
0001
0000
0000
1300
0000
0000
0000
0010
0000
0000
0000
,
2000
0000
0010
0000
0000
0001
0000
0000
3100
0000
0000
0000
1000
0000
0000
0000
,
0200
0000
0010
0000
0000
0001
0000
0000
1300
0000
0000
0000
0001
0000
0000
0000
,
0020
0000
0001
0000
0000
1000
0000
0000
0130
0000
0000
0000
1000
0010
0000
0000
,
0100
0001
0000
0010
1000
0100
1000
0000
,
0010
0100
0000
1000
0001
1000
0010
0000
,
0100
0010
0000
0010
1000
0100
0010
0000
,
0001
1000
0000
1000
0100
0010
0110
0000
,
1010
1010
0000
0000
0100
0100
0001
0000
,
0011
0011
0000
0000
1000
0100
0100
0000
,
0101
0101
0000
0000
0010
0010
1000
0000
,
1100
0000
1100
0000
0000
0000
0000
0000
0001
0000
0000
0000
0100
0010
0000
0000
,
1000
0100
0001
0000
0010
0000
1100
0000
,
0001
0010
1000
0000
0100
0000
0011
0000
,
0001
0010
1000
0000
0100
0000
0011
0000
,
1000
0100
0001
0000
0010
0000
1100
0000
,
1000
0100
0010
0001
0000
0000
0110
0000
,
0010
0001
1000
0100
0000
0000
0101
0000
,
0010
1000
0001
0100
0000
0000
1100
0000
,
0001
1000
0010
0100
0000
0000
0101
0000
,
0010
1000
0100
0000
1000
0000
0001
0010
,
0100
0000
1000
0000
0010
0100
0001
0000
,
0010
1000
0100
0000
1000
0000
0001
0010
,
0100
0000
1000
0000
0010
0100
0001
1000
,
0100
0001
0010
0000
0001
0000
1000
0100
,
0010
0000
0001
0000
0100
0010
1000
0000
,
0100
0001
0010
0000
0001
0000
1000
0100
,
0010
0001
0000
0110
,
1000
0100
1000
0000
0010
0100
0001
0000
,
0001
0010
1000
0000
1000
0010
0001
0000
,
0001
0010
0001
0000
0100
0010
1000
0000
,
1000
0100
0001
0000
0001
0100
0101
0000
,
0010
1000
0100
1000
0001
0000
0011
0000
,
0010
0100
1000
0001
1000
0000
0110
0000
,
0010
0001
0010
0100
1000
0000
0101
0000
,
0010
1000
0100
0010
0001
1000
1001
0000
,
0100
0010
0001
1000
0001
0000
0110
0000
,
0100
1000
0100
0010
0001
0000
1010
0000
,
0100
0001
0010
0100
1000
0001
1001
0000
,
1000
0100
1000
0010
0100
0001
0010
0100
,
1000
0001
1001
0000
0010
0100
0110
0000
,
0100
1000
1100
0000
0010
0001
0011
0000
,
1000
0010
1010
0000
0110
0000
0101
0000
,
0010
1000
0100
0000
0100
0001
0010
0000
,
1001
0000
0000
0000
;

//---------------dance-single - ----------------
#NOTES:
     dance-single:
     :
     Hard:
     8:
     :
0000
0000
0000
0000
,
0000
0000
0000
0000
,
0000
0000
0000
0000
,
0001
0000
1000
0000
0000
0000
0000
0010
0001
0000
0000
0000
1000
0000
0000
0000
,
0010
0000
1000
0000
0000
0000
0000
0001
0100
0000
0010
0000
1000
0000
0000
0000
,
1000
0000
0010
0000
0100
0000
0001
0000
0010
0000
0000
0001
0010
0000
0000
0000
,
0100
0000
1000
0000
0001
0000
0010
0000
0100
0000
0000
1000
0100
0000
0000
0000
,
0001
0000
0100
0000
0010
0000
1000
0000
0100
0000
0000
1000
0100
0000
0000
0000
,
0010
0000
0001
0000
1000
0000
0000
0100
0010
0000
0000
0001
0010
0000
0000
0000
,
2000
0000
0010
0000
0000
0001
0000
0000
3100
0000
0010
0000
0001
0000
0000
0000
,
0002
0000
0010
0000
0000
1000
0000
0000
0103
0000
0010
0000
1000
0000
0000
0000
,
0002
0000
0100
0000
0000
1000
0000
0000
0013
0000
0100
0000
1000
0000
0000
0000
,
2000
0000
0100
0000
0000
0001
0000
0000
3010
0000
0100
0000
0001
0000
0000
0000
,
1000
0000
0100
0000
1000
0100
0000
0000
0001
0000
0000
0000
0110
0000
0000
0000
,
0001
0000
0100
0000
0001
0100
0000
0000
1000
0000
0000
0000
0110
0000
0000
0000
,
0001
0000
0010
0000
0001
0010
0000
0000
1000
0000
0000
0000
0110
0000
0000
0000
,
1000
0000
0010
0000
1000
0010
0000
0000
0001
0000
0000
0000
1000
0001
0000
1000
,
0010
0010
0100
0100
0001
0001
1000
1000
,
0001
0100
1000
0100
0001
0000
0110
0000
,
0100
0100
0010
0010
1000
1000
0001
0001
,
1000
0000
0010
0000
0001
0000
0010
0000
1000
0000
0000
0000
0001
0100
0000
0000
,
0010
1000
0100
0010
0001
0010
1000
0010
,
0001
1000
0100
0010
0100
1000
0001
0100
,
0100
0001
0010
0100
1000
0100
0001
0100
,
1000
0001
0010
0100
0010
0001
1000
0000
,
0001
0100
1000
0100
0001
0010
0100
1000
,
0001
1000
0010
0100
0001
0010
0100
0000
,
1000
0010
0001
0010
1000
0100
0010
0001
,
1000
0000
0001
0000
0100
0000
0010
0000
1000
0000
0100
1000
0001
0000
0000
0000
,
0001
0000
0100
0000
0001
0100
0000
0010
1000
0000
0000
0100
0001
0000
0000
0000
,
1000
0000
0100
0000
1000
0100
0000
0010
0001
0000
0000
1000
0100
0000
0000
0000
,
1000
0000
0010
0000
1000
0010
0000
0100
0001
0000
0000
0000
1100
0000
0000
0000
,
0001
0000
0010
0000
0001
0010
0000
0100
1000
0000
0000
0000
0001
1000
0000
0000
,
0100
1000
0010
0100
0001
0100
0101
1000
,
0100
0010
0001
0010
0100
1000
1100
0010
,
0100
1000
0010
0100
0001
1000
1001
0010
,
0002
0000
1000
0000
0000
0000
0003
1000
0020
0000
0000
0000
0130
0001
0000
0000
,
0001
0000
0010
0000
0100
1000
0000
1000
0100
0010
0000
0000
0011
0000
0000
0000
,
1000
0000
0010
0000
0100
0001
0000
0001
0100
0000
0000
0000
1010
0000
0000
0000
,
0001
0000
0100
0000
0010
1000
0000
1000
0010
0100
0000
0000
0101
0000
0000
0000
,
1000
0000
0100
0000
0010
0001
0000
0001
0010
0000
0100
0000
1100
0000
0000
0000
,
0010
0000
1000
0000
0100
0010
0000
0010
0001
0000
0100
0000
1000
0000
0100
0000
,
0001
0000
0000
0000
0000
0000
0000
0000
0010
0000
0000
0000
0000
0000
0000
0000
0100
0000
0000
0000
1000
0000
0000
0000
0000
0000
0000
0000
1000
0000
0000
0000
0020
0000
0000
0000
0000
0000
0000
0000
0000
0000
0000
0000
0000
0000
0000
0000
1030
0000
0000
0000
0000
0001
0000
0000
0000
0000
0010
0000
0000
0000
0000
0000
,
0100
0000
1000
0000
0010
0100
0000
0100
0001
0000
0010
0000
0100
0000
1000
0000
,
0010
0000
0100
0000
0100
0001
0000
0001
0200
0000
0000
0000
0301
0000
0000
0000
,
0010
0000
0001
0000
1000
0010
0000
0010
1000
0000
0100
0000
0010
0000
0001
0000
,
0100
0000
0000
0000
0000
0000
0000
0000
0010
0000
0000
0000
0000
0000
0000
0000
0010
0000
0000
0000
1000
0000
0000
0000
0000
0000
0000
0000
1000
0000
0000
0000
0020
0000
0000
0000
0000
0000
0000
0000
0000
0000
0000
0000
0000
0000
0000
0000
1030
0000
0000
0000
0000
0001
0000
0000
0000
0000
0010
0000
0000
0000
0000
0000
,
0100
0000
1000
0000
0010
0100
0000
0100
0001
0000
0100
0000
1000
0000
0100
0000
,
0001
0000
1000
0000
0010
0100
0000
0100
0001
0000
0000
0000
0110
0000
0000
0000
,
1000
0100
1000
0010
0100
0001
0101
0010
,
0001
0100
0001
0010
0100
1000
1100
0010
,
1000
0100
0011
0100
1000
0010
1100
0001
,
0110
0000
0000
0000
1001
0000
0000
0000
0100
1000
0100
0000
0010
0000
0001
0100
,
0010
0000
0000
0000
0000
0000
0010
0100
1000
0000
0000
0000
0000
0000
0000
0000
;

//---------------dance-double - ----------------
#NOTES:
     dance-double:
     :
     Beginner:
     1:
     :
00000000
00000000
00000000
00000000
,
00000000
00000000
00000000
00000000
,
00000000
00000000
00000000
00000000
,
01000000
00000000
00010000
00000000
,
00001000
00000000
00000000
00000000
,
00000010
00000000
00000001
00000000
,
00000100
00000000
00000000
00000000
,
00001000
00000000
00010000
00000000
,
01000000
00000000
00000000
00000000
,
10000000
00000000
00000000
00000000
,
00100000
00000000
00000000
00000000
,
00001000
00000000
00000000
00000000
,
00000010
00000000
00000000
00000000
,
00000001
00000000
00000100
00000000
,
00001000
00000000
00000000
00000000
,
00010000
00000000
00100000
00000000
,
10000000
00000000
00000000
00000000
,
10000000
10000000
00000000
00000000
,
00100000
00100000
00000000
00000000
,
00001000
00001000
00000000
00000000
,
00000100
00000100
00000000
00000000
,
00000001
00000000
00000000
00000000
,
00000100
00000000
00001000
00000000
,
00010000
00000000
00000000
00000000
,
01000000
00000000
10000000
00000000
,
10000000
00000000
00000000
00000000
,
00100000
00000000
00010000
00000000
,
00001000
00000000
00000000
00000000
,
00000010
00000000
00000010
00000000
,
00000001
00000000
00000010
00000000
,
00000100
00000000
00000000
00000000
,
00001000
00000000
00001000
00000000
,
00010000
00000000
00000000
00000000
,
00010000
00000000
00010000
00000000
,
00100000
00000000
00000000
00000000
,
01000000
00000000
10000000
00000000
,
10000000
00000000
00000000
00000000
,
01000000
01000000
00000000
00000000
,
00010000
00010000
00000000
00000000
,
00001000
00001000
00000000
00000000
,
00000010
00000010
00000000
00000000
,
00000001
00000000
00000000
00000000
,
00000100
00000000
00000000
00000000
,
00001000
00000000
00000000
00000000
,
00010000
00000000
00000000
00000000
,
00100000
00000000
00000000
00000000
,
10000000
00000000
00000000
00000000
,
01000000
00000000
00000000
00000000
,
00001000
00000000
00000000
00000000
,
00000010
00000000
00000010
00000000
,
00000001
00000000
00000001
00000000
,
00000010
00000000
00000010
00000000
,
00001000
00000000
00001000
00000000
,
00010000
00000000
00000000
00000000
;

//---------------dance-double - ----------------
#NOTES:
     dance-double:
     :
     Easy:
     3:
     :
00000000
00000000
00000000
00000000
,
00000000
00000000
00000000
00000000
,
00000000
00000000
00000000
00000000
,
20000000
00000000
00000000
30000000
,
00020000
00000000
00000000
00030000
,
00002000
00010000
00000000
00013000
,
00000020
00001000
00000000
00001030
,
00000002
00000010
00000000
00000013
,
00000100
00010000
00001000
00000000
,
01000000
00000000
00000000
00000000
,
00100000
00000000
10000000
00000000
,
01000000
00000000
00000000
00000000
,
00010000
00000000
00000000
00000000
,
00000100
00000000
00000000
00000000
,
00000001
00000000
00000000
00000000
,
00000100
00000000
00001000
00000000
,
00010000
00000000
00000000
00000000
,
01000000
10000000
00000000
00000000
,
00100000
00010000
00000000
00000000
,
00010000
00001000
00000000
00000000
,
00000010
00000001
00000000
00001001
,
00000010
00000000
00001000
00000000
,
00100000
00000000
01000000
00000000
,
10000000
00000000
00100000
00000000
,
00010000
00000000
00001000
00000000
,
00000010
00000000
00000001
00000000
,
00000100
00000000
00001000
00000000
,
00010000
00000000
01000000
00000000
,
10000000
00000000
01100000
00000000
,
00010000
00010000
00000000
00100000
,
00001000
00000000
00010000
00000000
,
00000100
00000100
00000000
00000010
,
00000001
00000000
00000100
00000000
,
00001000
00001000
00000000
00100000
,
00010000
00000000
10000000
00000000
,
00100000
00000000
01000000
00000000
,
00001000
00000000
00010000
00000000
,
00000001
00000001
00000100
00000000
,
00001000
00001000
00010000
00000000
,
01000000
01000000
00100000
00000000
,
10000000
00000000
10010000
00000000
,
00100000
01000000
01000000
00000000
,
00010000
00001000
00001000
00000000
,
00000010
00000001
00000001
00000000
,
00000100
00000000
00000110
00000000
,
00000001
00000000
00000110
00000000
,
00001000
00000000
00011000
00000000
,
00100000
00000000
01100000
00000000
,
10000000
00000000
10010000
00000000
,
00100000
00010000
00001000
00000000
,
00010000
00000000
00000100
00000000
,
00001000
00000100
00000010
00000000
,
00000001
00000000
00000100
00000000
,
00001001
00000000
00010000
00000000
;

//---------------dance-double - ----------------
#NOTES:
     dance-double:
     :
     Medium:
     6:
     :
00000000
00000000
00000000
00000000
,
00000000
00000000
00000000
00000000
,
00000000
00000000
00000000
00000000
,
10000000
01000000
00100000
00000000
00010000
00000000
00100000
00000000
,
00001000
00010000
00000100
00000000
00001000
00000100
00000001
00000000
,
00000100
00000000
00001000
00000000
00000010
00000100
00001000
00000000
,
00010000
00000000
00001000
00000000
00100000
00010000
01000000
00000000
,
00100000
00000000
10000000
00000000
01000000
10000000
00010000
00000000
,
00100000
00010000
00011000
00000000
,
00000100
00001000
00000000
00000010
00000100
00000000
00000001
00000000
,
00000010
00000100
00000000
00010000
00001000
00000000
00100000
00000000
,
01000000
10000000
00000000
00100000
00010000
00000000
01000000
00000000
,
01000000
00010000
00001000
00000000
00010000
00001000
00000100
00000000
,
00000001
00000010
00000100
00000000
00000010
00000000
00001100
00000000
,
00001000
00000100
00010000
00000000
00001000
01000000
00100000
00000000
,
10000000
01000000
00010000
00000000
01000000
00000000
11000000
00000000
,
01000000
00100000
00010000
00000000
00001000
00010000
00000010
00000000
,
00002000
00000000
00000000
00000001
00003010
00000000
00001100
00000000
,
00020000
00000000
00000000
00000100
00031000
00000000
00011000
00000000
,
00200000
00000000
00000000
00010000
01300000
00000000
10100000
00000000
,
00100000
10000000
01000000
00100000
00010000
00000000
01010000
00000000
,
10000000
01000000
00100000
00000000
01000000
00100000
00010000
00000000
,
00100000
00001000
00010000
00000100
00001000
00000000
00000011
00000000
,
00000001
00000010
00000100
00001000
00000000
00000001
00000100
00000000
,
00000010
00010000
00001000
01000000
00010000
00000000
11000000
00000000
,
10000000
00100000
00010000
00000000
01000000
00100000
00010000
00000000
,
00100000
00010000
00001000
00010000
00000100
00000000
00001100
00000000
,
00000001
00000100
00001000
00000100
00000000
00000010
00001000
00000000
,
00000010
00000000
00010000
00001000
00100000
00010000
10000000
00000000
,
10000000
01000000
10000000
00100000
01000000
00000000
00110000
00000000
,
00001000
00010000
00000100
00001000
00000010
00000000
00000101
00000000
,
00000010
00000001
00000010
00000100
00001000
00000000
00011000
00000000
,
00100000
00001000
01000000
00010000
10000000
00100000
01000000
00000000
,
10000000
01000000
00000000
01000000
00100000
00000000
00010000
00001000
,
00000100
00000000
00000010
00000000
00000001
00000100
00001000
00000000
,
00000001
00000010
00000000
00000010
00000100
00000000
00010000
00001000
,
00100000
00000000
01000000
00000000
10000000
00100000
00010000
00000000
,
00100000
10000000
01000000
00000000
01000000
00010000
00001000
00000000
,
00001000
00000100
00000001
00000020
00000000
00000000
00000130
00000000
,
00000010
00000001
00000010
00000000
00000010
00001000
00010000
00000000
,
00010000
00100000
10000000
02000000
00000000
00000000
03100000
00000000
,
00100000
01000000
00001000
00000000
00010000
00000010
00001000
00000000
,
00000100
00001000
00000010
00000000
00000100
00000000
00000011
00000000
,
00000100
00000010
00010000
00000000
00001000
01000000
00010000
00000000
,
00100000
00010000
01000000
00000000
00100000
00000000
11000000
00000000
,
10000000
00100000
01000000
00020000
00000000
00000000
00130000
00001000
,
00010000
00000000
00000010
00001000
00000100
00000001
00000100
00000000
,
00000001
00000100
00000010
00002000
00000000
00000000
00003100
00010000
,
00001000
00000000
01000000
00010000
00100000
10000000
00100000
00000000
,
10000000
00100000
01000000
00010000
00100000
00000000
00010000
00000000
,
00000010
00000100
00000001
00001000
00000010
00000000
00001000
00100000
,
00010000
00000000
10000000
01000000
00100000
00000000
00010000
00100000
,
00001000
00000000
00010000
00000010
00001000
00000100
00000010
00000001
,
00001000
00000000
00000000
00000100
00000001
00000000
00000000
00000000
;

//---------------dance-double - ----------------
#NOTES:
     dance-double:
     :
     Hard:
     8:
     :
00000000
00000000
00000000
00000000
,
00000000
00000000
00000000
00000000
,
00000000
00000000
00000000
00000000
,
01000000
00100000
10000000
01000000
00100000
00000000
00110000
00000000
,
00100000
00001000
00010000
00001000
00000100
00000000
00000110
00000000
,
00000001
00000001
00000010
00000100
00001000
00000000
00000100
00010000
,
00001000
00000000
00010000
00001000
00100000
00000000
01000000
10000000
,
00100000
00100000
01000000
01000000
00001000
00010000
00000100
00000000
,
00001000
00000000
00000010
00000000
00001000
00000100
00000001
00000000
,
00000200
00000000
00001000
00000000
00000000
00010000
00000000
00000000
00001300
00000000
00000000
00000000
00011000
00000000
00000000
00000000
,
00200000
00000000
00001000
00000000
00000000
00010000
00000000
00000000
00301000
00000000
00000000
00000000
01010000
00000000
00000000
00000000
,
00020000
00000000
01000000
00000000
00000000
10000000
00000000
00000000
00130000
00000000
00000000
00000000
11000000
00000000
00000000
00000000
,
01000000
00100000
00010000
00000000
00100000
00001000
00010000
00000000
,
00000100
00001000
00000010
00000000
00000100
00000010
00000001
00000000
,
00000010
00001000
00000100
00010000
00001000
00000000
00110000
00000000
,
10000000
00000000
00100000
00000000
00000000
01000000
00000000
00010000
00100000
00000000
00000000
00000000
00001000
00000000
00000000
00000000
,
00010000
00000100
00001000
00000010
00000100
00000000
00000011
00000000
,
00000001
00000000
00000100
00000000
00000000
00000010
00000000
00001000
00000100
00000000
00000000
00000000
00010000
00000000
00000000
00000000
,
00001000
00100000
00010000
01000000
00100000
00000000
11000000
00000000
,
10000000
00100000
01000000
00010000
00100000
00001000
00010000
00000000
,
00000100
00000000
00000100
00000000
00000010
00000100
00000000
00000000
00000001
00000000
00000001
00000000
00000100
00001000
00000000
00000000
,
00000010
00000000
00000001
00000000
00001000
00000100
00000000
00000000
00010000
00000000
00001000
00000000
00100000
00000000
00010000
00000000
,
10000000
00000000
00100000
00000000
01000000
00010000
00000000
00000000
00100000
00000000
01000000
00000000
10000000
00010000
00000000
00000000
,
01000000
00000000
00010000
00000000
00100000
00001000
00000000
00000000
00010000
00000000
00000100
00000000
00001000
00000000
00000010
00000000
,
00000100
00000000
00000001
00000000
00000010
00000001
00000000
00000000
00001000
00000000
00000100
00000000
00001000
00000010
00000000
00000000
,
00000100
00000000
00000001
00000000
00001000
00000100
00000000
00000000
00010000
00000000
00001000
00000000
00100000
00000000
00010000
00000000
,
01000000
00000000
10000000
00000000
01000000
00010000
00000000
00000000
00100000
00000000
10000000
00000000
00100000
00010000
00000000
00000000
,
01000000
00000000
00010000
00000000
00100000
00001000
00000000
00000000
00010000
00000000
00000100
00000000
00001000
00000000
00000010
00000000
,
00000100
00000000
00000001
00000000
00000010
00001000
00000000
00000000
00000010
00000000
00000001
00000000
00000101
00000000
00000000
00000000
,
00000100
00000010
00001000
00000100
00010000
00001000
00100000
00010000
,
10000000
01000000
00110000
00000000
00010000
00100000
11000000
00000000
,
00100000
01000000
00010000
00100000
00001000
00010000
00000100
00001000
,
00000001
00000000
00000010
00000000
00001100
00000000
00000000
00000000
00001000
00000000
00000100
00000000
00000010
00000001
00000000
00000000
,
00001000
00000010
00000100
00000000
00000001
00000010
00001000
00000000
,
00010000
00001000
00100000
00000000
00010000
00100000
10000000
00000000
,
00010000
01000000
00100000
00000000
10000000
01000000
00010000
00000000
,
00001000
00010000
00000200
00002300
,
00003001
00000010
00000100
00001000
00000010
00000100
00000001
00000010
,
00001000
00000000
00010000
00000000
00001000
00010000
00000000
00000000
01000000
00000000
00100000
00000000
00010000
00000000
00000000
00000000
,
10000000
00100000
01000000
00010000
00100000
01000000
10000000
00100000
,
01000000
00000000
00001000
00000000
00010000
00001000
00000000
00000000
00010000
00000000
00000010
00000000
00000100
00000000
00000000
00000000
,
00000001
00000000
00000010
00000000
00000100
00001000
00000000
00000000
00000010
00001000
00000000
00000000
00001100
00000000
00000000
00000000
,
00010000
00000000
00001000
00000000
00100000
00010000
00000000
00000000
01000000
00000000
00100000
00000000
10000000
00000000
01000000
00000000
,
10000000
00000000
00100000
00000000
01000000
00010000
00000000
00000000
01000000
00010000
00000000
00000000
00110000
00000000
00000000
00000000
,
00001000
00000000
00010000
00000000
00000100
00001000
00000000
00000000
00000010
00000000
00000100
00000000
00000001
00000000
00000001
00000000
,
00000010
00000000
00000100
00000000
00001000
00000001
00000000
00000100
00000010
00000000
00010000
00000000
00001000
00000000
00100000
00000000
,
00010000
00000000
10000000
00000000
00100000
01000000
00000000
00010000
10000000
00000000
00000000
00000000
01100000
00000000
00000000
00000000
,
10000000
00000000
00100000
00000000
01000000
00010000
00000000
00100000
00010000
00000000
00000000
00000000
00011000
00000000
00000000
00000000
,
00000100
00000000
00001000
00000000
00000010
00000100
00000000
00001000
00000001
00000000
00000000
00000000
00000010
00000100
00000000
00000000
,
00000010
00000000
00000001
00000000
00001000
00000100
00000000
00001000
00000100
00000000
00010000
00000000
00001000
00010000
00000000
00001000
,
00010000
00000000
00001000
00000000
01000000
00010000
00000000
01000000
00010000
00000000
10000000
00000000
00100000
00000000
00000000
00000000
,
10000000
00000000
00010000
00000000
00100000
00010000
00000000
00000000
00010000
00001000
00000000
00000000
00001000
00000010
00000000
00000000
,
00000100
00000001
00001000
00000010
00001000
00000100
00000010
00000001
,
00001001
00000000
00000000
00002000
00003010
00000000
00000000
00000000
;
