#TITLE:Superfreak;
#ARTIST:Beatfreakz;
#BANNER:Superfreak.png;
#BACKGROUND:Superfreak-bg.png;
#CDTITLE:./CDTITLES/Dancing Stage UNIVERSE.png;
#MUSIC:Superfreak.ogg;
#SAMPLESTART:59.519;
#SAMPLELENGTH:15;
#DISPLAYBPM:133;
#BPMS:0=133.067;
#BGCHANGES:0=Superfreak.avi=1=0=0=0,196=Superfreak-bg.png=1=0=0=1;

//---------------dance-single - ----------------
#NOTES:
     dance-single:
     :
     Beginner:
     1:
     :
0000
0000
0000
0000
,
0000
0000
0000
0000
,
0000
0000
0000
0000
,
0000
0000
0000
0000
,
0000
0000
0000
0000
,
0001
0000
0000
0000
,
0100
0000
0000
0000
,
1000
0000
0000
0000
,
0010
0000
0100
0100
,
0100
0000
1000
0000
,
0100
0000
0000
0000
,
0010
0000
0001
0000
,
1000
0000
0000
0000
,
1000
0000
0001
0000
,
0100
0000
0000
0000
,
0010
0000
1000
0000
,
0001
0000
1000
1000
,
1000
0000
0010
0000
,
0100
0000
0000
0000
,
0001
0000
0010
0000
,
1000
0000
0000
0000
,
0100
0000
1000
0000
,
0010
0010
0000
0000
,
0100
0000
0001
0000
,
1000
0000
0001
0001
,
1000
0000
0001
0001
,
0001
0000
0100
0100
,
0100
0000
0010
0010
,
0010
0000
1000
0000
,
0200
0000
0000
0300
,
0000
0000
0000
0000
,
0010
0000
0000
0000
,
0110
0000
0000
0000
,
1000
0000
0100
0000
,
0001
0000
0100
0000
,
0010
0000
1000
0000
,
0001
0000
0100
0000
,
0001
0000
0100
0000
,
1000
0000
0100
0000
,
0010
0000
1000
0000
,
0001
0000
1000
0000
,
0002
0000
0003
0000
,
2000
0000
3000
0000
,
0100
0000
0100
0000
,
0010
0000
0100
0000
,
0002
0000
0003
0000
,
2000
0000
3000
0000
,
0100
0000
0100
0000
,
0010
0000
0100
0000
,
0110
0000
0000
0000
;

//---------------dance-single - ----------------
#NOTES:
     dance-single:
     :
     Easy:
     3:
     :
0000
0000
0000
0000
,
0000
0000
0000
0000
,
0000
0000
0000
0000
,
0000
0000
0000
0000
,
0000
0000
0000
0000
,
0010
0000
0001
0000
,
1000
0001
0100
0000
,
0010
0000
1000
0000
,
0001
1000
0100
0000
,
0001
1000
0010
0100
,
0010
0000
1000
0000
,
0100
0010
0001
1000
,
0001
0000
1000
0000
,
0001
0010
0100
0010
,
0001
0000
0100
0000
,
0010
1000
0100
1000
,
0010
0000
0100
0000
,
0001
1000
0100
0100
,
1000
0001
0100
0000
,
1000
0001
0010
0010
,
0001
1000
0100
0000
,
0010
0010
0100
0100
,
1000
1001
0000
1001
,
1000
0100
0010
0001
,
0200
0000
0000
0300
,
0010
0010
0010
0000
,
0100
0100
0100
0000
,
0001
1000
1001
0000
,
1000
1000
0100
0100
,
0020
0030
0002
0003
,
0200
0300
0020
0030
,
2000
0000
0000
3000
,
1001
0000
0000
0000
,
0110
0100
0010
0000
,
0001
0010
1000
0000
,
1001
0001
1000
0000
,
0100
0001
0010
0000
,
1000
0001
1000
0000
,
0100
0000
0010
0000
,
0001
1000
0001
0000
,
0100
0000
0010
0000
,
1000
0100
1000
0100
,
0010
0001
0020
0030
,
0001
0100
0001
0000
,
1000
1000
0010
0000
,
0001
0100
0001
0100
,
0010
1000
0020
0030
,
1000
1000
0100
0100
,
0010
0010
0001
0001
,
1001
0000
0000
0000
;

//---------------dance-single - ----------------
#NOTES:
     dance-single:
     :
     Medium:
     5:
     :
0000
0000
0000
0000
,
0000
0000
0000
0000
,
0000
0000
0000
0000
,
0000
0000
0000
0000
,
0000
0000
0000
0000
,
0010
1000
0100
0000
0000
0010
0001
0100
,
0000
0001
1000
0001
,
0010
0001
0100
0000
0000
0010
1000
0100
,
0000
2002
0000
3003
,
0010
0100
1000
0010
,
0100
0100
0001
1000
,
0010
0100
0001
0010
,
0100
0100
1000
0001
,
0100
0010
1000
0100
,
1000
1000
0001
0010
,
0100
0010
0001
0100
,
0001
0001
1000
0010
,
1000
0100
0010
0001
0100
0000
0000
0000
,
0010
0000
0100
0000
,
0001
0100
0010
1000
0100
0000
0000
0000
,
0010
0000
0100
0000
,
0010
1000
0100
0010
0001
0000
0000
0000
,
0100
0000
0001
0000
,
0010
0001
0100
0010
1000
0000
0000
0000
,
0100
0000
1000
0000
,
0010
0000
0010
0000
0100
0010
0100
0000
,
0001
0000
0001
0000
1000
0001
1000
0000
,
0100
0000
0100
0000
0010
0100
0010
0000
,
0001
0000
1000
0000
,
0020
0000
0030
0000
,
2000
0000
3000
0000
,
0200
0000
0300
0000
,
0002
0000
0003
0000
,
0010
0000
0100
1000
0100
0000
0000
0010
,
0001
0000
0000
1000
0010
0000
1000
0000
,
0001
0100
0010
0000
0000
0100
0010
1000
,
0000
0100
0010
0001
,
0100
0000
0010
1000
0010
0000
0000
0100
,
0001
0000
0000
1000
0100
0000
1000
0000
,
0001
0010
0100
0000
0000
0010
0100
1000
,
0000
0010
0100
0001
,
2000
3200
0320
0032
,
2003
3020
0230
0302
,
1003
0100
1000
0000
0000
0001
0100
0001
,
0000
0010
0000
0010
0000
0100
0000
1000
,
0002
0203
0320
2030
,
3002
0023
0230
2300
,
3001
0100
0001
0000
1000
0100
1000
0000
,
0001
0000
0010
0100
1000
0020
0000
0000
,
0130
0000
0000
0000
;

//---------------dance-single - ----------------
#NOTES:
     dance-single:
     :
     Hard:
     7:
     :
0000
0000
0000
0000
,
0000
0000
0000
0000
,
0000
0000
0000
0000
,
0000
0000
0000
0000
,
0000
0000
0000
0000
,
1000
0010
0001
0100
,
1000
0000
0010
0000
0100
0001
0010
0000
,
0100
1000
0010
0001
,
0100
0000
1000
0000
0010
0001
0100
0010
,
1000
0000
0001
0100
0001
0000
0010
0000
,
1000
0100
0000
0000
0001
0100
0000
0000
,
0010
0000
1000
0100
0010
0001
1000
0000
,
0100
0000
0010
0000
1000
0000
0100
0010
,
0001
0000
1000
0010
1000
0000
0100
0000
,
0001
0010
0000
0000
1000
0010
0000
0000
,
0100
0000
0001
0010
0100
1000
0001
0000
,
0010
0000
0100
0000
0001
1000
0001
1000
,
0010
0100
0000
0001
0000
0100
0000
1000
,
0010
0100
0010
0000
1000
0100
0010
0001
,
0100
0010
0000
1000
0000
0001
0000
1000
,
0100
0010
0100
0000
1000
0010
0100
0001
,
0010
0001
0000
0110
0000
1001
0000
0110
,
0100
1000
0000
0001
0100
0010
0000
0100
,
0010
1000
0000
1010
0000
1001
0000
0101
,
0001
0010
0000
0100
1000
0001
1001
0000
,
1010
0000
0000
0000
0101
0000
0000
1000
0000
0000
0100
0000
0100
0000
0000
0000
,
0011
0000
0000
0000
1100
0000
0000
0001
0000
0000
0100
0000
0100
0000
0000
0000
,
1001
0000
0000
0000
0110
0000
0000
1000
0000
0000
0001
0000
0010
0000
0000
0000
,
0001
0100
0010
0000
1000
0100
1000
0100
,
0000
0001
0000
0010
0000
1000
0100
0010
,
0000
0001
0000
1000
0000
0100
1000
0020
,
0000
0000
0000
0000
0000
0030
0000
1001
,
0000
0000
0000
0000
0010
0100
0010
0000
,
0001
0000
1000
0100
0010
0001
0001
0000
,
0000
1000
1000
0000
0000
0001
0001
0000
,
1000
0000
0100
1000
0010
0100
0100
0000
,
0000
0001
0001
0000
0000
0100
0100
0000
,
1000
0000
0001
0010
0100
1000
1000
0000
,
0000
0001
0001
0000
0000
1000
1000
0000
,
0001
0000
0010
0001
0100
0010
0010
0000
,
0000
1000
1000
0000
0000
0001
0010
0100
,
1000
0000
0010
0001
0100
0000
0010
0000
,
1010
0000
1001
0000
0101
0001
0010
0000
,
1000
0000
0010
0100
0001
0010
0010
0000
,
0000
1000
1000
0000
0000
0001
0001
0000
,
0200
0320
2030
3002
,
0013
0100
1000
0000
1001
0000
0110
0000
,
1000
0000
0010
0100
0001
0010
0010
0000
,
0000
0100
1000
0000
0000
0001
0100
0010
,
1001
0000
0000
0000
;

//---------------dance-double - ----------------
#NOTES:
     dance-double:
     :
     Beginner:
     1:
     :
00000000
00000000
00000000
00000000
,
00000000
00000000
00000000
00000000
,
00000000
00000000
00000000
00000000
,
00000000
00000000
00000000
00000000
,
00000000
00000000
00000000
00000000
,
00000001
00000000
00000000
00000000
,
00000100
00000000
00000000
00000000
,
00000010
00000000
00000000
00000000
,
00010000
00000000
00001000
00001000
,
00001000
00000000
01000000
00000000
,
00100000
00000000
00000000
00000000
,
00010000
00000000
10000000
00000000
,
00100000
00000000
00000000
00000000
,
01000000
00000000
00001000
00000000
,
00010000
00000000
00000000
00000000
,
00000010
00000000
00000100
00000000
,
00001000
00000000
00000001
00000001
,
00000001
00000000
00000100
00000000
,
00001000
00000000
00000000
00000000
,
00010000
00000000
01000000
00000000
,
10000000
00000000
00000000
00000000
,
00100000
00000000
00010000
00000000
,
01000000
01000000
00000000
00000000
,
00001000
00000000
00010000
00000000
,
00000000
00000000
00000010
00000010
,
00001000
00000000
00000100
00000100
,
00000100
00000000
00000001
00000001
,
00000001
00000000
00001000
00001000
,
00001000
00000000
00000010
00000000
,
00020000
00000000
00000000
00030000
,
00000000
00000000
00000000
00000000
,
00001000
00000000
00000000
00000000
,
00011000
00000000
00000000
00000000
,
01000000
00000000
00100000
00000000
,
01000000
00000000
00010000
00000000
,
10000000
00000000
01000000
00000000
,
00010000
00000000
00001000
00000000
,
00000010
00000000
00000001
00000000
,
00001000
00000000
00000001
00000000
,
00001000
00000000
00000010
00000000
,
00010000
00000000
00001000
00000000
,
02000000
00000000
03000000
00000000
,
00020000
00000000
00030000
00000000
,
00100000
00000000
00100000
00000000
,
01000000
00000000
00100000
00000000
,
20000000
00000000
30000000
00000000
,
00020000
00000000
00030000
00000000
,
01000000
00000000
00001000
00000000
,
00010000
00000000
00001000
00000000
,
00011000
00000000
00000000
00000000
;

//---------------dance-double - ----------------
#NOTES:
     dance-double:
     :
     Easy:
     3:
     :
00000000
00000000
00000000
00000000
,
00000000
00000000
00000000
00000000
,
00000000
00000000
00000000
00000000
,
00000000
00000000
00000000
00000000
,
00000000
00000000
00000000
00000000
,
00001000
00000000
00010000
00000000
,
00000100
00001000
00000100
00000000
,
00000010
00000000
00000001
00000000
,
00000100
00000010
00000100
00000000
,
00001000
00010000
00001000
00100000
,
00010000
00000000
00100000
00000000
,
01000000
00100000
00010000
01000000
,
00100000
00000000
10000000
00000000
,
01000000
00010000
00001000
00010000
,
00001000
00000000
00000100
00000000
,
00000010
00001000
00000001
00001000
,
00000010
00000000
00000100
00000000
,
00001000
00010000
00001000
00001000
,
00100000
00010000
01000000
00000000
,
00100000
10000000
01000000
01000000
,
00010000
00001000
00010000
00000000
,
00000100
00000010
00000100
00000010
,
00000001
00001001
00000000
00000100
,
00001000
00010000
00100000
01000000
,
00200000
00000000
00000000
00300000
,
00010000
00010000
00010000
00000000
,
00001000
00001000
00001000
00000000
,
00100000
01000000
01100000
00000000
,
00010000
00010000
00001000
00001000
,
00000200
00000300
00000002
00000003
,
00002000
00003000
00000020
00000030
,
00000200
00000000
00000000
00000300
,
00001001
00000000
00000000
00000000
,
00011000
00010000
00001000
00000000
,
00100000
01000000
00100000
00000000
,
10010000
00010000
10000000
00000000
,
01000000
00010000
00001000
00000000
,
00010000
00001000
00010000
00000000
,
00000100
00000000
00000010
00000000
,
00001000
00000001
00001000
00000000
,
00000100
00000000
00000010
00000000
,
00000001
00000100
00000001
00000100
,
00001000
00010000
00002000
00003000
,
00010000
00100000
00010000
00000000
,
10000000
10000000
01000000
00000000
,
10000000
01000000
10000000
01000000
,
00010000
00001000
00020000
00030000
,
00000010
00000010
00001000
00001000
,
00000001
00000001
00000100
00000100
,
00000110
00000000
00000000
00000000
;

//---------------dance-double - ----------------
#NOTES:
     dance-double:
     :
     Medium:
     5:
     :
00000000
00000000
00000000
00000000
,
00000000
00000000
00000000
00000000
,
00000000
00000000
00000000
00000000
,
00000000
00000000
00000000
00000000
,
00000000
00000000
00000000
00000000
,
00000100
00001000
00000010
00000000
00000000
00000100
00000001
00000010
,
00000000
00000100
00010000
00001000
,
00100000
00010000
01000000
00000000
00000000
01000000
00100000
10000000
,
00000000
20020000
00000000
30030000
,
00100000
10000000
01000000
00100000
,
00001000
00001000
00010000
00001000
,
00000100
00000010
00001000
00000100
,
00000010
00000010
00000001
00001000
,
00000010
00000100
00001000
00010000
,
00100000
00100000
01000000
00010000
,
00100000
01000000
10000000
01000000
,
10000000
10000000
00010000
00100000
,
00001000
00010000
00001000
00000100
00000010
00000000
00000000
00000000
,
00001000
00000000
00000001
00000000
,
00000010
00000100
00001000
00000100
00010000
00000000
00000000
00000000
,
00001000
00000000
00010000
00000000
,
00001000
00010000
01000000
00100000
00010000
00000000
00000000
00000000
,
01000000
00000000
00100000
00000000
,
10000000
00010000
00100000
01000000
10000000
00000000
00000000
00000000
,
00010000
00000000
00100000
00000000
,
00001000
00000000
00001000
00000000
00010000
00001000
00010000
00000000
,
00000100
00000000
00000100
00000000
00001000
00000100
00001000
00000000
,
00000010
00000000
00000010
00000000
00000100
00000001
00000100
00000000
,
00000001
00000000
00000100
00000000
,
00000020
00000000
00000030
00000000
,
00020000
00000000
00030000
00000000
,
00002000
00000000
00003000
00000000
,
00200000
00000000
00300000
00000000
,
00010000
00000000
10000000
01000000
10000000
00000000
00000000
01000000
,
00100000
00000000
00000000
10000000
00010000
00000000
01000000
00000000
,
00001000
00010000
00001000
00000000
00000000
00010000
00001000
00000100
,
00000000
00000010
00001000
00000001
,
00000010
00000000
00000001
00000100
00000001
00000000
00000000
00000100
,
00000010
00000000
00000000
00010000
00001000
00000000
00010000
00000000
,
00100000
00010000
01000000
00000000
00000000
00100000
10000000
01000000
,
00000000
10000000
01000000
00010000
,
00002000
00003020
00000032
00002003
,
00003020
00000230
00020300
00030000
,
01000000
00010000
01000000
00000000
00000000
00100000
10000000
00100000
,
00000000
10000000
00000000
10000000
00000000
00010000
00000000
10000000
,
00200000
02300000
03002000
00023000
,
00032000
00003200
00000320
00002030
,
00003001
00000010
00000001
00000000
00001000
00000100
00001000
00000000
,
00010000
00000000
00001000
01000000
00100000
02000000
00000000
00000000
,
03100000
00000000
00000000
00000000
;

//---------------dance-double - ----------------
#NOTES:
     dance-double:
     :
     Hard:
     7:
     :
00000000
00000000
00000000
00000000
,
00000000
00000000
00000000
00000000
,
00000000
00000000
00000000
00000000
,
00000000
00000000
00000000
00000000
,
00000000
00000000
00000000
00000000
,
00100000
10000000
00010000
00000000
10000000
00000000
01000000
00000000
,
00010000
00000000
00001000
00100000
00010000
01000000
00001000
00000000
,
00010000
00001000
00000100
00000000
00000010
00000000
00001000
00000000
,
00000001
00000000
00000100
00001000
00010000
00002000
00000000
00003000
,
00101000
00000000
00100000
00010000
01000000
00000000
00100000
10000000
,
01000000
00000000
00010000
00001000
00000100
00000000
00000110
00000000
,
00001001
00000000
00000010
00000100
00001000
00000000
00000001
00000100
,
00001000
00000000
00010000
00100000
10000000
00000000
11000000
00000000
,
00100000
10000000
01000000
00010000
00001000
00001000
00010000
00000100
,
00001000
00000000
00000000
00000001
00000010
00000000
00001100
00000000
,
00000010
00000001
00001000
00000100
00010000
00000000
00011000
00001000
,
00100000
00000000
02000000
20000000
03000000
00000000
30000000
00000000
,
00100000
10000000
00010000
10000000
01000000
00010000
00001000
00000000
,
00010000
00000010
00001000
00000000
00010000
00000100
00001000
00000000
,
00000010
00001000
00000001
00000100
00001000
00010000
00001000
00000000
,
00100000
00001000
00010000
00000000
00001000
01000000
00010000
00000000
,
00100000
00010000
10000000
01000000
00010000
00001000
00100000
00010000
,
01000000
01001000
00010000
00011000
,
00001000
00010000
00000010
00001000
00000100
00000001
00000010
00000000
,
00001010
00000000
00000000
00000001
00000100
00000000
00000000
00000000
,
00001000
00010000
01000000
10000000
00100000
00000000
10010000
00000000
,
00100000
00010000
00001000
00000100
00000010
00000000
00001001
00000000
,
00000001
00000010
00000100
00000000
00000010
00000100
00001000
00000000
,
00001100
00010100
00011000
00101000
,
00010000
01000000
10000000
00100000
,
00010000
00000000
00001000
00000000
00000100
00000000
00000001
00000010
,
00000000
00000000
00000000
00000000
00000000
00000000
00000000
00011000
,
00000000
00010000
00010000
00000000
00001000
00000000
00100000
00000000
,
10010000
00000000
00100000
10000000
01000000
00010000
00010000
00001000
,
00000100
00000010
00000010
00001000
00000001
00000100
00000100
00000000
,
00001010
00000000
00000001
00000100
00001000
00010000
00100000
00010000
,
00001000
00010000
01000000
00100000
00010000
00100000
00000000
00000000
,
01100000
00000000
10010000
01000000
00010000
00100000
00100000
00001000
,
00010000
00000100
00000100
00000010
00000001
00000100
00000100
00000000
,
00001000
00010000
00100000
10000000
00100000
00010000
00001000
00000100
,
00000010
00001000
00000100
00000010
00000001
00000100
00000000
00000000
,
00000010
00001000
00000010
00001000
00000100
00010000
00000100
00010000
,
00001000
01000000
00001000
01000000
00100000
00000000
10010000
00000000
,
00100000
00010000
01000000
00000000
10100000
00000000
10000000
01000000
,
00010000
00000000
00001000
00010000
00001000
00100000
01000000
00000000
,
00100000
00010000
00100000
00010000
01000000
00001000
01000000
00001000
,
00010000
00000100
00010000
00000100
00000010
00000000
00001001
00000000
,
00000001
00000100
00001000
00010000
01000000
10000000
01000000
00010000
,
00001000
00000010
00000001
00000100
00001000
00010000
00000000
00100000
,
10000000
00000000
00000000
00000000
;
