#TITLE:Rock Steady;
#ARTIST:All Saints;
#BANNER:Rock Steady.png;
#BACKGROUND:Rock Steady-bg.png;
#MUSIC:Rock Steady.ogg;
#SAMPLESTART:36.132;
#SAMPLELENGTH:15;
#DISPLAYBPM:137;
#BPMS:0=136.997;
#BGCHANGES:2.5=Rock Steady.avi=1=0=0=0;

//---------------dance-single - ----------------
#NOTES:
     dance-single:
     :
     Beginner:
     1:
     :
0000
0000
0000
0000
,
0000
0000
0000
0000
,
0000
0000
0000
0000
,
0000
0000
0000
0000
,
0000
0000
0000
0000
,
1000
0000
1000
0000
,
0001
0000
0000
0000
,
0100
0000
0100
0000
,
0010
0000
0000
0000
,
0001
0000
0001
0000
,
1000
0000
0100
0000
,
0010
0000
0000
0000
,
0100
0000
0000
0000
,
0001
0000
1000
0000
,
0010
0000
0100
0000
,
0100
0000
0000
0000
,
1000
0000
0000
0000
,
1000
0000
0001
0000
,
0100
0000
0000
0000
,
0010
0000
0010
0000
,
0010
0000
0000
0000
,
1001
0000
0000
0000
,
1000
0000
0001
0000
,
1001
0000
0000
0000
,
0100
0000
0010
0000
,
0110
0000
0000
0000
,
0100
0000
0010
0000
,
0110
0000
0000
0000
,
0010
0000
1000
0000
,
1000
0000
0100
0000
,
0001
0001
0000
0000
,
0001
0000
0010
0000
,
1000
1000
0000
0000
,
1000
0000
0010
0000
,
0100
0000
0001
0000
,
1000
1000
0000
0000
,
0001
0000
0000
0000
,
0010
0000
0100
0000
,
1000
0000
0001
0000
,
0010
0010
0000
0000
,
0100
0000
0000
0000
,
0001
0000
0000
0000
,
1000
0000
0000
0000
,
0010
0000
0000
0000
,
0010
0000
0000
0000
,
1000
0000
0000
0000
,
0001
0000
0000
0000
,
0100
0000
0010
0000
,
0110
0000
0000
0000
,
0000
0000
0000
0010
,
0010
0000
0100
0000
,
0001
0000
0000
0000
,
0100
0000
0010
0000
,
1000
0000
0000
0000
,
1000
0000
0100
0000
,
0001
0000
0000
0000
,
0001
0000
0010
0000
,
1000
0000
0000
0000
;

//---------------dance-single - ----------------
#NOTES:
     dance-single:
     :
     Easy:
     3:
     :
0000
0000
0000
0000
,
0000
0000
0000
0000
,
0000
0000
0000
0000
,
0000
0000
0000
0000
,
0000
0000
0000
0000
,
1000
0000
1000
0000
,
0001
0001
0000
0010
,
0100
0000
0010
0000
,
1000
0000
0001
0000
,
0100
0100
0000
0000
,
1000
0000
0001
0000
,
0100
0100
0000
0000
,
0001
0000
0010
0000
,
1001
0000
0010
0000
,
1000
0000
0100
0000
,
0110
0000
0001
0000
,
0100
0000
0010
0000
,
1000
0000
0100
0000
,
0010
0000
0001
0000
,
1001
0000
0001
0000
,
0010
0000
0100
0000
,
1000
1000
0010
0000
,
0100
0000
0000
0000
,
0001
0000
0010
0000
,
0100
1000
1000
0000
,
0010
0000
0100
0000
,
0001
0000
0000
0000
,
0100
0000
1000
0000
,
0100
0100
0001
0000
,
0010
0000
0100
0000
,
1000
0000
0001
0001
,
0010
0000
0100
0000
,
1000
0000
0000
0000
,
0010
0000
0010
0000
,
0001
0000
0001
0000
,
1000
0000
0000
0000
,
0010
0000
0000
0000
,
0100
0000
1000
0000
,
0010
0000
0100
0000
,
0001
0000
0000
0000
,
1000
0000
0000
0000
,
0100
0000
0001
0000
,
0010
0010
0100
0000
,
1000
0000
0100
0000
,
0001
0000
0000
0000
,
1000
0000
0010
0000
,
0001
0001
0010
0000
,
1000
0000
0100
0000
,
0010
0000
0000
0000
,
0000
0000
0000
0000
,
0001
0001
0100
0000
,
0010
0000
0000
0000
,
1000
0000
0100
0000
,
0010
0001
0001
0000
,
0100
0000
0010
0000
,
1000
0000
0000
0000
,
0010
0000
0001
0000
,
0010
0010
1000
0000
,
1001
0000
0000
0000
;

//---------------dance-single - ----------------
#NOTES:
     dance-single:
     :
     Medium:
     6:
     :
0000
0000
0000
0000
,
0000
0000
0000
0000
,
0000
0000
0000
0000
,
0000
0000
0000
0000
,
0000
0000
0000
0000
,
1000
0000
0001
0000
0100
0001
0010
0000
,
0010
1000
0100
0000
0100
1000
0010
0000
,
1000
0000
0001
0000
0001
0100
1000
0000
,
1000
0010
1000
0001
,
0010
0000
0001
0000
0100
1000
0100
0000
,
0100
0000
0001
0000
0010
0001
0010
0000
,
0100
0000
1000
0000
0010
1000
0010
0000
,
0100
0000
0001
0000
0010
0001
0010
0000
,
0100
0000
0000
1000
0010
0000
0100
0000
,
0001
0000
0000
0010
0100
0000
1000
0000
,
0010
0000
0100
0000
1000
0010
1000
0000
,
0001
0000
0010
0000
0100
1000
0100
0000
,
0010
0000
0001
0000
0100
0000
1000
0010
,
0100
0000
1000
0000
0100
0000
0001
0010
,
0100
0000
0010
0000
1000
0001
0010
0000
,
0100
0001
1000
0000
0100
1000
0001
0000
,
0110
0000
0001
0000
0100
1000
0100
0000
,
0010
0000
0001
0000
1000
0010
1000
0000
,
0010
1010
0101
1000
,
0010
0100
0010
0000
0010
0001
1000
0100
,
0010
0000
0100
0000
1000
0010
0100
0000
,
0001
0010
0100
0000
1000
0100
0001
0000
,
0001
0000
0100
0000
0010
0001
0100
0000
,
0100
0001
0010
0000
1001
0000
0000
0000
,
0110
0000
1000
0000
0001
0010
0100
0000
,
0110
0000
0001
0000
1000
0010
0100
0000
,
1001
0000
0100
0000
0001
0100
1000
0000
,
1001
0000
0010
0000
1000
0010
0001
0000
,
0001
0010
0100
0000
0010
0000
1000
0000
,
0100
0010
0001
0000
1000
0000
0001
0000
,
0100
0010
1000
0000
0010
0000
0100
0000
,
0101
0000
1100
0000
0000
0100
0010
0000
,
1010
0000
0011
0000
0000
1000
0100
0000
,
1100
0000
0101
0000
0000
0010
0001
0000
,
1000
0000
0010
0000
0001
0100
0001
0000
,
1000
0100
0001
0000
0001
0100
1000
0000
,
1000
0110
0001
1100
,
1000
0101
0010
1001
,
0110
0012
1000
0103
,
2100
0001
0010
3100
,
0021
0100
1000
0130
,
0210
1000
0010
0301
,
1000
0010
1000
0000
0100
0001
0100
0000
,
0002
0000
0000
0000
,
0003
0000
0000
0000
,
0110
0000
1000
0000
0010
0001
0010
0000
,
0100
0000
1000
0000
0001
0100
0001
0000
,
0100
0101
1010
0001
,
0100
0010
0100
0000
0100
1000
0001
0010
,
0100
0000
0010
0000
0001
0100
0010
0000
,
1000
0100
0010
0000
0001
0010
1000
0000
,
1000
0000
0010
0000
0100
1000
0010
0000
,
0010
1000
0100
0000
1100
0000
0011
0000
,
1001
0000
0000
0000
;

//---------------dance-single - ----------------
#NOTES:
     dance-single:
     :
     Hard:
     7:
     :
0000
0000
0000
0000
,
0000
0000
0000
0000
,
0000
0000
0000
0000
,
0000
0000
0000
0000
,
0000
0000
0000
0000
,
1100
0000
0000
0000
0010
0000
0000
0001
0100
0000
0100
0000
0010
0000
1000
0000
,
1000
0000
0010
0000
0100
0001
0010
0100
,
1000
0000
0000
0000
0010
0000
0000
0100
0001
0000
0001
0000
0010
0000
0100
0000
,
0100
0000
0000
0000
1000
0000
0000
0001
0010
0000
0100
0000
1000
0000
0010
0000
,
0011
0000
0000
0000
0100
0000
0000
1000
0010
0000
0010
0000
0100
0000
0001
0000
,
0001
0000
0000
0000
0100
0000
0000
0010
1000
0000
0001
0000
0010
0000
0100
0000
,
0011
0110
2200
0000
,
0000
0000
0000
3300
,
1000
0000
0010
0000
0100
0000
0001
0000
0010
0000
0000
0100
1000
0000
0010
0000
,
0100
0000
0001
0000
0100
0000
1000
0000
0100
0000
0000
0010
1000
0000
0010
0000
,
0001
0000
0000
0000
0010
0000
0000
0001
1000
0000
0010
0000
0100
0000
0001
0000
,
0011
0000
1100
0000
0001
1000
0100
0010
,
0020
0000
0001
0000
1000
1000
1030
0010
,
0200
0000
1000
0000
0001
0001
0301
0100
,
1000
0000
0000
0000
0020
0000
0000
0000
0001
0000
0000
1000
0000
0000
0130
0000
,
0200
0000
0000
0001
0000
0000
1000
0000
0310
0000
0000
0000
0100
0000
0000
0000
,
1100
1000
0010
0000
0100
0001
0010
0100
,
1000
0100
0010
0001
0000
0001
1000
0010
,
0110
0000
0011
0000
1010
0000
0100
0001
,
0010
0100
1000
0100
0000
1000
0001
0100
,
0010
0000
1010
0000
0101
0001
0010
0100
,
1000
0001
1000
1010
0000
0100
0001
0010
,
1100
0000
1010
0000
0011
0000
0100
1000
,
0100
0010
0001
0000
0001
1000
0010
0100
,
0110
0000
1100
0000
1000
0010
0100
1000
,
0110
0000
0101
0000
0001
0010
0100
0001
,
0110
0000
0011
0000
0001
0100
1000
0100
,
0110
0000
0000
0000
1100
0000
0000
0000
1000
0000
0010
0100
0010
0000
0000
0000
,
2000
0000
0100
0001
0100
0000
3010
0000
,
0020
0000
1000
0100
1000
0000
0130
0000
,
2100
0002
0000
3003
,
0010
0100
0001
0000
0010
0100
1000
0000
,
0020
0000
1000
0000
0130
0001
0010
0000
,
0200
0000
0001
0000
1300
0010
0100
0000
,
0011
0000
1100
0000
0010
0100
0001
0010
,
0120
0000
0001
0000
0031
0010
0001
1000
,
0100
0000
0000
0100
0000
0000
0010
0000
0001
0000
0010
0000
0001
0000
1000
0000
,
0100
0000
0000
1000
0000
0000
0010
0000
0100
0000
0001
0000
0010
0000
0100
0000
,
1010
0000
0101
0000
0010
0001
1000
0000
,
0010
0000
1100
0000
1000
0100
0010
0001
,
1000
0000
0000
0100
0000
0000
0010
0000
0001
0000
0000
1000
0000
0000
0100
0000
,
1000
0000
0000
0001
0000
0000
0100
0000
0010
0000
1000
0000
0001
0000
0100
0000
,
0110
0000
0101
0000
0100
1000
0100
0010
,
2200
0000
0000
3300
,
0000
0000
0000
0000
0000
0000
1000
0100
,
0011
0001
0100
0000
0010
0100
1000
0100
,
0001
0010
0100
1000
0010
1000
0001
0100
,
0110
0000
1100
0000
0101
0100
0001
1000
,
0100
0010
0001
0010
0001
1000
0100
0010
,
0110
0000
1100
0000
1010
1000
0100
0010
,
0001
1000
0001
0101
0000
0010
1000
0100
,
0011
0000
0101
0000
1100
1000
0010
0100
,
0001
1000
0010
0100
0100
0001
1000
0010
,
0101
0000
0000
0000
;

//---------------dance-double - ----------------
#NOTES:
     dance-double:
     :
     Beginner:
     1:
     :
00000000
00000000
00000000
00000000
,
00000000
00000000
00000000
00000000
,
00000000
00000000
00000000
00000000
,
00000000
00000000
00000000
00000000
,
00000000
00000000
00000000
00000000
,
00000001
00000000
00000000
00000000
,
00000010
00000000
00000000
00000000
,
00001000
00000000
00000000
00000000
,
00010000
00000000
00000000
00000000
,
00100000
00000000
00000000
00000000
,
10000000
00000000
00000000
00000000
,
01000000
00000000
00000000
00000000
,
00010000
00000000
00000000
00000000
,
00001000
00000000
00000000
00000000
,
00000010
00000000
00000000
00000000
,
00000001
00000000
00000000
00000000
,
00000100
00000000
00000000
00000000
,
00001000
00000000
00000000
00000000
,
00010000
00000000
00000000
00000000
,
01000000
00000000
00000000
00000000
,
10000000
00000000
01000000
00000000
,
00100000
00000000
00000000
00000000
,
00001000
00000000
00000000
00000000
,
00000010
00000000
00000000
00000000
,
00000001
00000000
00000000
00000000
,
00000100
00000000
00000000
00000000
,
00001000
00000000
00000000
00000000
,
00010000
00000000
00100000
00000000
,
10000000
00000000
00000000
00000000
,
01000000
00000000
00000000
00000000
,
00010000
00000000
00000000
00000000
,
00001000
00000000
00000000
00000000
,
00000010
00000000
00000000
00000000
,
00000001
00000000
00000000
00000000
,
00000010
00000000
00000000
00000000
,
00000100
00000100
00000000
00000000
,
00001000
00001000
00000000
00000000
,
00001000
00000000
00000000
00000000
,
00010000
00000000
00000000
00000000
,
00100000
00100000
00000000
00000000
,
01000000
00000000
00000000
00000000
,
10000000
00000000
00000000
00000000
,
01000000
00000000
00000000
00000000
,
00010000
00000000
00001000
00000000
,
00000100
00000000
00000000
00000000
,
00000010
00000000
00000000
00000000
,
00000001
00000000
00000000
00000000
,
00000010
00000010
00000000
00000000
,
00000100
00000000
00000000
00000000
,
00000000
00000000
00000000
00000000
,
00010000
00000000
00000000
00000000
,
00100000
00000000
00000000
00000000
,
01000000
00000000
10000000
00000000
,
00100000
00000000
00000000
00000000
,
00010000
00000000
00001000
00000000
,
00000010
00000000
00000000
00000000
,
00000001
00000000
00000010
00000000
,
00000100
00000000
00000000
00000000
,
00001000
00000000
00000000
00000000
;

//---------------dance-double - ----------------
#NOTES:
     dance-double:
     :
     Easy:
     3:
     :
00000000
00000000
00000000
00000000
,
00000000
00000000
00000000
00000000
,
00000000
00000000
00000000
00000000
,
00000000
00000000
00000000
00000000
,
00000000
00000000
00000000
00000000
,
00000001
00000010
00000100
00000000
,
00001000
00010000
00100000
00000000
,
01000000
01000000
10000000
00000000
,
01000000
00000000
00010000
00000000
,
00001000
00001000
00000010
00000000
,
00000100
00000001
00000010
00000000
,
00000100
00000000
00010000
00000000
,
00001000
00000000
00100000
00000000
,
00001000
00001000
00010000
00000000
,
01000000
00000000
10000000
00000000
,
00100000
00000000
00010000
00000000
,
00010000
00010000
00001000
00000000
,
00000100
00000000
00000001
00000000
,
00000010
00000000
00000100
00000000
,
00000001
00000001
00001000
00000000
,
00000100
00000000
00010000
00000000
,
00011000
00000000
01000000
00000000
,
00100000
00100000
00100000
00000000
,
10000000
00000000
01000000
00000000
,
00001000
00010000
00010000
00000000
,
00011000
00000000
00000010
00000000
,
00000001
00000001
00000000
00000000
,
00000010
00000000
00001000
00000000
,
00010000
00000000
00001000
00000000
,
01000000
00000000
00100000
00000000
,
10000000
10000000
10000000
00000000
,
01100000
00000000
00010000
00000000
,
00011000
00000000
00001000
00000000
,
00000110
00000000
00000001
00000000
,
00000010
00000000
00001000
00000000
,
00010000
00000000
00100000
00000000
,
10000000
00000000
01000000
00000000
,
00010000
00000000
00001000
00000000
,
00000100
00000000
00000001
00000000
,
00000010
00000010
00000000
00000000
,
00000100
00000000
00001000
00000000
,
00010000
00010000
01000000
00000000
,
00100000
00100000
10000000
00000000
,
01000000
00000000
00010000
00000000
,
00001000
00001000
00000100
00000000
,
00000001
00000000
00000010
00000000
,
00001000
00001000
00010000
00000000
,
01000000
10000000
01000000
00000000
,
00100000
00000000
00000000
00000000
,
00000000
00000000
00000000
00000000
,
00011000
00000000
00000010
00000000
,
00000100
00000100
00000100
00000000
,
00000001
00000000
00000010
00000000
,
00010000
00001000
00001000
00000000
,
00011000
00000000
01000000
00000000
,
10000000
10000000
00000000
00000000
,
01000000
00000000
00010000
00000000
,
00001000
00000000
00010000
00000000
,
00011000
00000000
00000000
00000000
;

//---------------dance-double - ----------------
#NOTES:
     dance-double:
     :
     Medium:
     7:
     :
00000000
00000000
00000000
00000000
,
00000000
00000000
00000000
00000000
,
00000000
00000000
00000000
00000000
,
00000000
00000000
00000000
00000000
,
00000000
00000000
00000000
00000000
,
00000010
00000100
00000001
00000000
00000010
00000000
00001000
00000000
,
00010000
00001000
00100000
00000000
01000000
00000000
10000000
00000000
,
00100000
01000000
00001000
00000000
00010000
00000000
00000010
00000000
,
00001000
00000100
00000010
00000101
,
00000010
00001000
00000100
00000000
00000100
00010000
00001000
00000000
,
00010000
00001000
01000000
00100000
,
10000000
01000000
00010000
01010000
,
00001000
00010000
00000100
00001100
,
00000110
00000000
00000100
00000000
00000001
00000010
00000001
00000000
,
00001100
00000000
00010000
00000000
00001000
00010000
00001000
00000000
,
00100000
00000000
00010000
00000000
10000000
01000000
10000000
00000000
,
01000000
00010000
00001000
00000010
,
00000001
00000010
00000001
00000000
00001100
00000000
00000010
00000000
,
00001000
00000100
00010000
00000000
00011000
00000000
01000000
00000000
,
00010000
01000000
00100000
00000000
11000000
00000000
01100000
00000000
,
00100000
00001000
00010000
00000010
,
00001001
00000000
00000100
00000000
00010000
00001000
00100000
00000000
,
01100000
00000000
10000000
00000000
01000000
00100000
00010000
00000000
,
00011000
00000000
00000100
00000000
00001000
00010000
00000010
00000000
,
00000001
00000100
00001000
00000100
00000001
00000000
00001000
00000000
,
00011000
00000000
00001000
00000000
00000100
00001000
00010000
00000000
,
00001000
00010000
00100000
00000000
01000000
00100000
01000000
00000000
,
10100000
00000000
11000000
00000000
00100000
00000000
00001000
00010000
,
00000100
00000000
00010000
00000000
00000010
00001000
00000001
00000100
,
00000010
00000000
00001000
00000000
00000100
00010000
00001000
00100000
,
00010000
00000000
10000000
00000000
01000000
10000000
00010000
00100000
,
01000000
00000000
10000000
00000000
01000000
00100000
00010000
00001000
,
00000100
00001000
00000001
00000110
,
00000002
00000023
00002030
00003020
,
00002030
00023000
00032000
00203000
,
02300000
23000000
00000000
00000000
,
30100000
00000000
01000000
00010000
01000000
00000000
11000000
00000000
,
20000000
32000000
03020000
02030000
,
03020000
00032000
00023000
00030200
,
00000320
00000032
00001003
00000010
,
00000100
00000010
00000001
00000000
00000001
00000010
00001000
00000000
,
00000010
00000000
00010000
00000000
00000100
00010000
00001000
00000000
,
00100000
00000000
00001000
00000000
00010000
00001000
01000000
00000000
,
00010000
00100000
10000000
00000000
10000000
00100000
00010000
00000000
,
01000000
00001000
00010000
00000000
00011000
00000000
00010010
00000000
,
00000100
00000001
00000010
00000000
00000010
00000100
00001000
00000000
,
00001000
00000010
00010000
00000000
00010000
00001000
01000000
00000000
,
01000000
00010000
00100000
01000000
10000000
00000000
01010000
00000000
,
20200000
00000000
00000000
00000000
,
30300000
00000000
00000000
00000000
,
10010000
00000000
00100000
00000000
00001000
00010000
00000100
00000000
,
00000110
00000000
00000001
00000000
00000010
00000100
00001000
00000000
,
00011000
00000000
00100000
00000000
00010000
00001000
01000000
00000000
,
10000000
00100000
00010000
00100000
10000000
00000000
00010000
00000000
,
00011000
00000000
00010000
00000000
00100000
00010000
00001000
00000000
,
00010000
00001000
00000100
00000000
00000010
00000100
00000010
00000000
,
00000101
00000000
00000011
00000000
00000100
00000000
00010000
00001000
,
00100000
00000000
00001000
00000000
01000000
00010000
10000000
00100000
,
01010000
00000000
00000000
00000000
;

//---------------dance-double - ----------------
#NOTES:
     dance-double:
     :
     Hard:
     8:
     :
00000000
00000000
00000000
00000000
,
00000000
00000000
00000000
00000000
,
00000000
00000000
00000000
00000000
,
00000000
00000000
00000000
00000000
,
00000000
00000000
00000000
00000000
,
00000001
00001000
00000010
00010000
00001000
00000000
00101000
00000000
,
01000000
00100000
10000000
00010000
01000000
00000000
10100000
00000000
,
01000000
00010000
00001000
00000000
00010000
00001000
00000010
00000000
,
00000001
00000100
00001000
00000100
00001000
00010000
00100000
00000000
,
10000000
00100000
00010000
00000000
00011000
00000000
00001100
00000000
,
00000010
00001000
00000010
00000000
00000110
00000000
00000011
00000000
,
00000100
00010000
00001000
00000000
00010000
00001000
00100000
00000000
,
01000000
10000000
00010000
00100000
01000000
00000000
10010000
00000000
,
10000000
01000000
00010000
00000000
00001000
00010000
01000000
00000000
,
00010000
00001000
00000010
00000100
00001000
00000001
00000010
00000000
,
00000001
00000010
00001000
00000000
00000010
00001000
00010000
00000000
,
00001000
00010000
01000000
00000000
00010000
10000000
00100000
00000000
,
02100000
00000000
13000000
00000000
01000000
00100000
00010000
00000000
,
00102000
00000000
00013000
00000000
00000010
00001000
00000001
00000000
,
00000201
00000310
00001020
00010030
,
00021000
00130000
01100000
00000000
,
10000000
00000000
11000000
00000000
01000000
00100000
00001000
00010000
,
00000010
00001000
00000100
00001000
00000000
00000010
00000100
00000001
,
00000010
00000000
00000101
00000000
00001010
00000000
00000100
00010000
,
00001000
00100000
00010000
01000000
00000000
01000000
00010000
10000000
,
00100000
01000000
00001000
00010000
00000100
00001000
00000001
00000100
,
00000010
00001000
00000001
00000200
00000000
00000310
00010000
00001000
,
00100000
00000000
00110000
00000000
11000000
00000000
10000000
01000000
,
00010000
00000000
00010000
00001000
00000010
00000000
00000010
00000001
,
00000110
00000000
00000000
00000000
00000001
00000000
00001000
00000100
00000000
00000100
00010000
00000000
00001000
00000000
00100000
00000000
,
01010000
00000000
00000000
00000000
10000000
00000000
00100000
01000000
00000000
01000000
00010000
00000000
00100000
00000000
00000000
00000000
,
00001000
00000000
00010000
00000000
00001010
00000000
00000100
00001000
00000000
00000001
00000010
00000000
00000100
00000000
00000100
00000000
,
00000010
00000001
00000100
00001000
00020000
00000000
00230000
00000000
,
10300000
01000000
00100000
00010000
01000000
00000000
00210000
00000000
,
00301000
00000000
00010000
00000010
00000100
00000010
00001000
00000000
,
00002010
00000000
00003100
00000000
00000001
00000100
00001000
00000000
,
00001000
00010000
00100000
20000000
00000000
00000000
31000000
00000000
,
01000000
00100000
00010000
00000000
00100000
00001000
00010000
00000000
,
00000010
00001000
00000100
00000020
00000000
00000000
00000031
00000000
,
00000101
00000000
00001100
00000000
00000100
00010000
00001000
00100000
,
00101000
00000000
10000000
01000000
00100000
00000000
00110000
00000000
,
10000000
01000000
00010000
01000000
00100000
10000000
00100000
00010000
,
01000000
00001000
00010000
00000010
00001000
00000010
00000001
00001000
,
00000100
00000010
00010000
00001000
00100000
00010000
10000000
01000000
,
01100000
00101000
00011000
00010100
,
00000100
00000001
00000100
00001000
00000010
00000001
00000010
00001000
,
00000100
00010000
00001000
00100000
10000000
00100000
00010000
01000000
,
10000000
01010000
01100000
10100000
,
20020000
00000000
00000000
00000000
,
30030000
00000000
00000000
00000000
,
00000001
00000000
00000011
00000000
00000010
00000100
00010000
00001000
,
01000000
00010000
00100000
00020000
00000000
01030000
00100000
10000000
,
01000000
10000000
10100000
00000000
01010000
00100000
00001000
00010000
,
00001000
00000100
00000010
00000100
00000000
00000010
00001000
00000001
,
00000100
00000010
00010000
00001000
00100000
00010000
10000000
00100000
,
01000000
00010000
10000000
00200000
00000000
01300000
00001000
00010000
,
00000100
00001000
00001100
00000000
00000011
00000010
00000001
00000010
,
00001000
00010000
00001000
00010000
01000000
00010000
01000000
10000000
,
11000000
00000000
00000000
00000000
;
