#TITLE:Monster;
#ARTIST:The Automatic;
#BANNER:Monster.png;
#BACKGROUND:Monster-bg.png;
#MUSIC:Monster.ogg;
#SAMPLESTART:35.658;
#SAMPLELENGTH:15;
#DISPLAYBPM:141;
#BPMS:0=141.315,36=141.454,52=141.315,84=141.454,116=141.315,132=141.732,136=140.625,140=138.462,144=141.732,148=141.315,164=141.454,180=142.105,192=143.617,195=134.328,196=140.762,212=141.454,228=141.315,244=141.454,252=140.992,258=141.663;
#BGCHANGES:2=Monster.avi=1=0=0=0;

//---------------dance-single - ----------------
#NOTES:
     dance-single:
     :
     Beginner:
     1:
     :
0000
0000
0000
0000
,
0000
0000
0000
0000
,
0000
0000
0000
0000
,
0001
0000
0000
0000
,
1000
0000
0000
0000
,
0010
0000
0000
0000
,
0100
0000
0000
0000
,
0001
0000
0001
0000
,
1000
0000
1000
0000
,
0100
0000
0000
0000
,
0010
0000
0000
0000
,
0001
0000
0000
0000
,
1000
0000
0000
0000
,
0010
0000
0000
0000
,
0100
0000
0000
0000
,
0001
0000
0001
0000
,
1000
0000
1000
0000
,
0010
0000
0000
0000
,
0100
0000
0000
0000
,
0001
0000
0000
0000
,
1000
0000
0000
0000
,
1001
0000
0000
0000
,
0010
0000
0000
0000
,
0110
0000
0000
0000
,
0001
0000
0000
0000
,
1001
0000
0000
0000
,
0100
0000
0000
0000
,
0110
0000
0000
0000
,
1000
0000
0000
0000
,
1001
0000
0000
0000
,
0100
0000
0000
0000
,
0001
0000
0000
0000
,
1000
0000
0000
0000
,
0010
0000
0000
0000
,
0100
0000
0000
0000
,
1000
0000
0000
0000
,
0000
0000
0000
0000
,
0001
0000
0001
0000
,
0010
0000
0000
0000
,
1000
0000
1000
0000
,
0100
0000
0000
0000
,
0010
0000
0010
0000
,
1000
0000
0000
0000
,
0100
0000
0100
0000
,
0001
0000
0000
0000
,
1000
0000
0000
0000
,
0000
0000
0000
0000
,
0000
0000
0000
0000
,
0000
0000
0000
0000
,
0010
0000
0000
0000
,
0100
0000
0000
0000
,
0001
0000
0001
0000
,
0010
0000
0010
0000
,
1000
0000
0000
0000
,
0100
0000
0000
0000
,
0001
0000
1000
0000
,
0010
0000
0000
0000
,
0100
0000
0000
0000
,
0010
0000
0000
0000
,
1000
0000
0000
0000
,
0001
0000
0000
0000
,
0010
0000
0000
0000
,
0100
0000
0000
0000
,
1000
0000
0000
0000
,
0001
0000
0100
0000
;

//---------------dance-single - ----------------
#NOTES:
     dance-single:
     :
     Easy:
     4:
     :
0000
0000
0000
0000
,
0000
0000
0000
0000
,
0000
0000
0000
0000
,
0100
0000
0001
0000
,
0010
0010
0100
0000
,
1000
0000
0010
0000
,
0100
0000
0001
0001
,
0010
0000
0100
0100
,
1000
0000
0100
0100
,
0010
0000
1000
0000
,
0001
0000
0100
0000
,
0010
0010
2000
0000
,
3100
0100
0002
0000
,
0013
0000
1000
0000
,
0001
0000
0100
0000
,
0001
0000
0010
0100
,
0100
0000
1000
0100
,
0100
0000
0010
0000
,
0001
0000
1000
0010
,
0100
0000
0001
1000
,
1000
0000
1000
0001
,
1001
0000
0010
0000
,
1001
0000
0100
0010
,
0110
0000
1001
0000
,
0110
0000
1000
0000
,
0010
0100
0001
0000
,
1000
0000
0010
0000
,
1000
1000
1000
0000
,
0001
0001
0001
0000
,
0100
0000
0010
0000
,
0100
0100
0010
0000
,
1000
0000
0001
0000
,
0010
0100
1000
0000
,
0110
0000
0001
0000
,
0110
0000
1000
0000
,
1001
0000
0000
0000
,
0000
0000
0000
0000
,
1000
0000
0010
0000
,
0100
0000
0001
0000
,
0001
0000
1000
0000
,
0100
0000
0010
0010
,
0001
0000
0100
0000
,
1000
0000
0100
0000
,
0001
0000
0010
0000
,
0100
0100
1000
0000
,
0010
0000
0000
0000
,
0000
0000
0000
0000
,
0100
0000
0010
0000
,
1000
0000
0001
0000
,
0010
0000
0100
0000
,
0001
0010
0010
0000
,
1000
0100
0100
0000
,
0010
0000
1000
0000
,
0001
0000
1000
0000
,
0100
0000
0010
0000
,
0001
0000
1000
0000
,
0001
0000
1000
0000
,
0100
0000
0010
0000
,
0001
0000
0100
0000
,
0010
1000
0100
0000
,
0100
0000
0010
0010
,
1000
0000
0001
0000
,
0100
0100
0001
0000
,
0010
0010
1000
0000
,
1001
0000
1001
0000
;

//---------------dance-single - ----------------
#NOTES:
     dance-single:
     :
     Medium:
     7:
     :
0000
0000
0000
0000
,
0000
0000
0000
0000
,
0000
0000
0000
0000
,
0000
0000
0000
0000
,
0000
1000
0000
0001
0010
0001
0100
0001
,
1000
0010
0100
1000
,
0010
0100
0001
0000
0010
0000
0100
0000
,
1000
0000
0010
1000
0001
0000
0010
0000
,
0100
0000
0010
0001
1000
0000
0010
0000
,
0100
0000
0001
0000
1000
0000
0001
0100
,
0001
0000
1000
0000
0010
1000
0010
0000
,
0100
0000
1000
0100
1000
0000
0010
0000
,
0100
0001
0100
0000
0001
0000
0010
0000
,
1000
0100
0001
0100
,
1000
0000
0010
0000
0001
0010
0001
0000
,
0010
1000
0100
0010
,
0001
0000
0010
0100
1000
0000
0100
0000
,
0010
0001
0010
0100
,
1000
0100
1000
0000
0001
0010
0001
0000
,
0010
0000
0100
0000
1000
0100
0001
0000
,
0001
0100
1000
0000
1000
0010
0001
0000
,
1010
0000
0001
0000
0100
0000
0010
1000
,
1001
0000
0100
0000
0010
0000
0001
0010
,
0011
0000
0100
0010
1010
0000
0110
0000
,
1001
0101
1010
0110
,
0011
0000
0100
0000
1000
0010
0100
0000
,
0001
0010
0100
0000
1000
0010
0100
0000
,
1010
0000
0101
0000
0001
0010
0100
0000
,
1010
1100
0010
0100
,
0010
1000
0011
0100
,
1010
0000
0101
0000
0010
1000
0100
0000
,
0011
0000
1100
0000
1000
0000
0010
0100
,
0001
0101
1010
0100
,
0010
1001
1100
0001
,
0010
0100
1000
0000
0010
0100
0001
0000
,
0010
0000
0000
0000
,
0000
0000
0000
1000
,
0010
0000
0100
0000
0001
0010
0100
0000
,
1000
0100
0001
0000
0001
0100
1000
0000
,
1000
0000
0010
0000
0100
0001
0010
0000
,
0001
0010
1000
0000
1000
0010
0001
0000
,
0100
0000
0010
0000
1000
0100
0010
0000
,
0001
0010
1000
0000
1000
0010
0001
0000
,
0001
0000
0100
0000
0010
1000
0100
0000
,
1000
0100
0001
0000
0100
0000
1000
0010
,
1010
0000
0000
0000
,
0000
0000
0000
0000
,
1001
0000
0000
0000
,
1001
0000
0000
0000
,
2000
0010
0100
0001
,
3020
0100
0001
1000
,
0230
0001
1000
0010
,
0302
1000
0010
0100
,
1003
0100
0010
0000
0101
0000
0010
0000
,
0100
1000
0001
0000
0011
0000
0100
0000
,
1000
0100
0001
0000
0001
0100
0010
0000
,
0100
1000
0001
0000
0100
0010
1000
0000
,
0100
0011
1100
0010
,
0001
0100
1000
0100
0010
0000
0100
0000
,
1100
0101
1000
0001
,
0101
0000
1100
0000
0001
0000
0100
0010
,
0001
0000
0010
0000
1000
0000
0100
0001
,
0010
0000
0100
0000
1000
0001
0100
0000
,
0100
0010
1000
0000
0101
0000
1010
0000
,
0101
1100
0011
0000
;

//---------------dance-single - ----------------
#NOTES:
     dance-single:
     :
     Hard:
     8:
     :
0000
0000
0000
0000
,
0000
0000
0000
0000
,
0000
0000
0000
0000
,
0000
0000
0000
0000
,
1000
0000
0001
0000
0100
0010
1000
0001
,
0011
0100
1000
0010
,
0100
0001
0001
1000
,
0012
0010
0100
1003
,
2100
0100
0010
3001
,
1000
0001
0100
0000
0010
1000
0001
0000
,
0100
0001
1000
0010
0100
0001
0010
0100
,
0000
1000
0010
0100
0001
0010
0100
1000
,
0000
0010
0100
0001
0000
1000
0100
0000
,
0010
0001
1000
0000
0100
0001
0100
0000
,
1000
0010
1000
0000
0010
0001
0010
0000
,
2000
3010
0011
1100
,
0002
0103
1010
1001
,
0100
0010
0001
1000
0100
0000
0010
0100
,
1000
0100
0001
0100
1000
0000
0010
0000
,
1000
0110
0001
0011
,
0001
1100
0010
0101
,
1000
0100
0011
0000
1100
0000
0100
1000
,
0010
0100
0001
0100
0010
1000
0100
0010
,
0011
0000
1100
0000
0010
1000
0001
0010
,
1010
0000
0011
0000
0010
0001
1000
0000
,
0100
1000
0001
0000
0001
0100
0010
0000
,
1000
0100
0001
0100
1000
0010
0001
0000
,
1010
0000
0101
0000
1000
0010
0100
0100
,
0011
0000
1100
0000
0100
0100
1000
0000
,
0001
0010
1000
0010
0100
1000
0010
0001
,
0010
0100
0001
0000
1000
0001
0100
0000
,
0110
0000
1001
0000
1000
0100
0010
0000
,
0011
0000
1100
0000
0001
0010
0100
0000
,
1000
0100
0001
0100
0010
0001
0100
1000
,
0100
0010
1000
0100
0001
1000
0010
0000
,
0220
0000
0000
0000
,
0000
0000
0000
0000
0000
0000
0000
0000
0330
0000
0000
0000
0001
1000
0001
1000
,
0001
0000
0000
0100
0010
0000
0100
0000
0000
0000
0001
0000
0000
0000
1010
0000
,
0000
0011
0000
0100
0002
0000
1003
0010
,
0100
0000
0000
0001
1000
0000
0010
0000
0000
0000
0100
0000
0000
0000
0101
0000
,
0000
1100
0000
0010
0001
0000
0100
0001
,
1000
0000
0000
0010
0100
0000
0010
0000
0000
0000
1000
0000
0000
0000
0101
0000
,
0000
1100
0000
0010
2000
0000
3001
0100
,
0010
0000
0000
1000
0001
0000
0100
0000
0000
0000
0010
0000
0000
0000
1010
0000
,
0000
0011
0010
0100
1000
0010
0100
0001
,
1001
0000
0000
0000
,
0000
0000
0000
0000
,
0002
2000
0000
0000
,
0000
0000
3003
0110
,
0001
0010
1100
0000
0011
0000
0010
0001
,
0100
0010
1000
0010
0100
0001
0010
0100
,
1100
0011
0110
1010
,
0101
0000
1100
0000
0100
1000
0001
0100
,
0010
0001
1000
0000
1000
0010
0100
0000
,
0001
0010
1000
0010
0001
0100
1000
0000
,
0101
0000
1010
0000
0001
0100
0010
0000
,
0011
1100
1010
0101
,
0010
0100
0001
0100
1000
0100
0001
0010
,
1000
0010
0001
0010
0100
1000
0100
0001
,
0100
0010
1000
0010
0001
0010
0100
1000
,
0100
0001
0100
1000
0010
0100
0001
0001
,
1010
0000
0101
0010
0100
0100
0001
1000
,
0011
0000
1100
0100
0010
0010
0001
1000
,
0110
1000
0001
0100
1001
0010
0100
0001
,
1010
0100
0101
0010
0110
0000
0000
0000
;

//---------------dance-double - ----------------
#NOTES:
     dance-double:
     :
     Beginner:
     1:
     :
00000000
00000000
00000000
00000000
,
00000000
00000000
00000000
00000000
,
00000000
00000000
00000000
00000000
,
00000000
00000000
00000000
00000000
,
00010000
00000000
00000000
00000000
,
00000010
00000000
00000000
00000000
,
00000100
00000000
00000000
00000000
,
00000001
00000000
00000000
00000000
,
00000100
00000000
00000000
00000000
,
00001000
00000000
00000000
00000000
,
00010000
00000000
00000000
00000000
,
01000000
00000000
00000000
00000000
,
10000000
00000000
00000000
00000000
,
00100000
00000000
00000000
00000000
,
00001000
00000000
00000000
00000000
,
00010000
00000000
00000000
00000000
,
00000100
00000000
00000000
00000000
,
00000001
00000000
00000000
00000000
,
00000010
00000000
00000000
00000000
,
00001000
00000000
00000000
00000000
,
00010000
00000000
00000000
00000000
,
01100000
00000000
00000000
00000000
,
10000000
00000000
00000000
00000000
,
00100000
00000000
00000000
00000000
,
00001000
00000000
00000000
00000000
,
00011000
00000000
00000000
00000000
,
00000010
00000000
00000000
00000000
,
00000100
00000000
00000000
00000000
,
00000001
00000000
00000000
00000000
,
00000010
00000000
00000000
00000000
,
00001000
00000000
00000000
00000000
,
00010000
00000000
00000000
00000000
,
01000000
00000000
00000000
00000000
,
10010000
00000000
00000000
00000000
,
00010000
00000000
00000000
00000000
,
00000100
00000000
00000000
00000000
,
00000000
00000000
00000000
00000000
,
00000001
00000000
00000000
00000000
,
00000100
00000000
00000000
00000000
,
00000010
00000000
00000000
00000000
,
00001000
00000000
00000000
00000000
,
00010000
00000000
00000000
00000000
,
00100000
00000000
00000000
00000000
,
10000000
00000000
00000000
00000000
,
00100000
00000000
00000000
00000000
,
00011000
00000000
00000000
00000000
,
00000000
00000000
00000000
00000000
,
00000001
00000000
00000000
00000000
,
00000100
00000000
00000000
00000000
,
00001000
00000000
00000000
00000000
,
00100000
00000000
00000000
00000000
,
10000000
00000000
00000000
00000000
,
01000000
00000000
00000000
00000000
,
00010000
00000000
00000000
00000000
,
00000010
00000000
00000000
00000000
,
00000100
00000000
00000000
00000000
,
00000001
00000000
00000000
00000000
,
00000100
00000000
00000000
00000000
,
00010000
00000000
00000000
00000000
,
01000000
00000000
00000000
00000000
,
10000000
00000000
00000000
00000000
,
00010000
00000000
00000000
00000000
,
00001000
00000000
00000000
00000000
,
00000010
00000000
00000000
00000000
,
00000100
00000000
00000001
00000000
;

//---------------dance-double - ----------------
#NOTES:
     dance-double:
     :
     Easy:
     3:
     :
00000000
00000000
00000000
00000000
,
00000000
00000000
00000000
00000000
,
00000000
00000000
00000000
00000000
,
00000000
00000000
00000000
00000000
,
00010000
00000000
00001000
00001000
,
00000010
00000000
00000100
00000000
,
00000001
00000000
00000100
00000100
,
00001000
00000000
00010000
00010000
,
00100000
00000000
01000000
00000000
,
00100000
00000000
10000000
00000000
,
01000000
00000000
00010000
00000000
,
00001000
00001000
00010000
00000000
,
00010000
00010000
00000100
00000000
,
00000010
00000000
00000100
00000000
,
00000001
00000001
00000100
00000000
,
00000010
00000000
00010000
00000000
,
00001000
00000000
01000000
00000000
,
00010000
00010000
10000000
00000000
,
01000000
00000000
00100000
00000000
,
00001000
00000000
00010000
00000000
,
00000100
00000000
00000010
00000000
,
00001001
00000000
00000100
00000000
,
00010000
00001000
00001000
00000000
,
00100000
00000000
01000000
00000000
,
00010000
00000000
10000000
00000000
,
01100000
00000000
10000000
00000000
,
00100000
00001000
00001000
00000000
,
00010000
00000100
00000100
00000000
,
00000001
00000010
00000010
00000000
,
00000110
00000000
00001000
00000000
,
00010000
00001000
00001000
00000000
,
00100000
00100000
01000000
00000000
,
10000000
00000000
00010000
00000000
,
10010000
00000000
10000000
00000000
,
01000000
00010000
00010000
00000000
,
00011000
00000000
00000000
00000000
,
00000000
00000000
00000000
00000010
,
00000100
00000000
00000001
00000000
,
00000010
00000000
00000100
00000000
,
00001000
00000000
00000000
00000000
,
00010000
00000000
00010000
00000000
,
00001000
00000000
00000000
00000000
,
00100000
00000000
00010000
00000000
,
01000000
00000000
00000000
00000000
,
10000000
00000000
01000000
00000000
,
00010000
00000000
00000000
00000000
,
01000000
00000000
00000000
00000000
,
00002000
00000000
00000000
00000000
,
00020000
00000000
00000000
00000000
,
00033000
00000000
00000000
00000000
,
00000100
00000000
00000010
00000000
,
00000001
00000000
00000000
00000000
,
00000100
00000100
00001000
00000000
,
00000010
00000000
00010000
00000000
,
00001000
00000000
00100000
00000000
,
00010000
00000000
01000000
00000000
,
00100000
10000000
10000000
00000000
,
01000000
00010000
00010000
00000000
,
00000100
00001000
00001000
00000000
,
00000001
00000001
00000010
00000000
,
00001000
00001000
00000100
00000000
,
00010000
00000000
00001000
00000000
,
00100000
00100000
00010000
00000000
,
01000000
01000000
00100000
00000000
,
10000000
00000000
10010000
00000000
;

//---------------dance-double - ----------------
#NOTES:
     dance-double:
     :
     Medium:
     7:
     :
00000000
00000000
00000000
00000000
,
00000000
00000000
00000000
00000000
,
00000000
00000000
00000000
00000000
,
00000000
00000000
00000000
00000000
,
00000000
00000000
00000100
00000000
00010000
00001000
01000000
00010000
,
00100000
00100000
01000000
10000000
,
00100000
01000000
00010000
00000000
00010000
00000000
00100000
00000000
,
00001000
00000000
00001000
00000000
00010000
00000010
00001000
00000000
,
00000100
00000000
00001000
00000001
00000010
00000000
00000100
00000000
,
00001000
00000000
00000001
00000000
00000100
00000000
00001000
00010000
,
00001000
00000000
00100000
00000000
01000000
10000000
01000000
00000000
,
00100000
00000000
00001000
00010000
00001000
00000000
00010000
00000000
,
00000010
00000100
00000001
00000000
00000001
00000000
00000010
00000000
,
00000100
00000100
00010000
00001000
,
00100000
00000000
00100000
00000000
00010000
00100000
00010000
00000000
,
10000000
10000000
01000000
00100000
,
00010000
00000000
00010000
00100000
01000000
00000000
10000000
00000000
,
00100000
00010000
00001000
00000010
,
00000001
00000100
00000001
00000000
00000100
00000000
00000010
00000000
,
00010000
00000000
00001000
00000000
00100000
00010000
00100000
00000000
,
00010000
00000000
10000000
01000000
10000000
00000000
00100000
00000000
,
00000000
00000000
01010000
00000000
00011000
00000000
00010000
00000010
,
00000100
00000001
00000010
00000000
00000100
00001000
00000001
00000000
,
00000100
00000010
00000200
00000302
,
00001003
00001100
00010000
00001000
,
00100000
00000000
01000000
00000000
10000000
00100000
01000000
00000000
,
00010000
00100000
01000000
00000000
10000000
00100000
00010000
00000000
,
00001000
00000000
00010000
00000000
00010000
00000010
00001000
00000000
,
00001000
00000100
00000001
00000000
00000100
00000000
00000010
00000000
,
00000100
00000000
00000010
00000000
00000001
00000100
00000010
00000000
,
00001000
00000100
00000010
00000000
00000001
00000100
00001000
00000000
,
00010000
00000000
00001000
00000000
00001000
01000000
00010000
00000000
,
00010000
00100000
10000000
00000000
00100000
00000000
01000000
00000000
,
00100000
11000000
01010000
00011000
,
00000100
00001000
00000010
00000000
00000100
00000001
00001000
00000000
,
00000010
00000000
00000000
00000000
,
00000000
00000000
00000000
00001001
,
00000100
00000000
00010000
00000000
00001000
00100000
00010000
00000000
,
10000000
01000000
00010000
00000000
00010000
01000000
10000000
00000000
,
10010000
00000000
00100000
00000000
01000000
00001000
00010000
00000000
,
00001000
00000100
00000001
00000000
00000001
00000100
00001000
00000000
,
00000100
00000000
00000010
00000000
00000100
00010000
00001000
00000000
,
00010000
00100000
10000000
00000000
10000000
00100000
00010000
00000000
,
00100000
00000000
01000000
00000000
00100000
10000000
01000000
00000000
,
01000000
00010000
00001000
00000000
00010000
00001000
00000010
00001000
,
00001010
00000000
00000000
00000000
,
00000000
00000000
00000000
00000000
,
00000110
00000000
00000000
00000000
,
00011000
00000000
00000000
00000000
,
02000000
10000000
00100000
00010000
,
03200000
10000000
01000000
00010000
,
00302000
00010000
00000010
00000100
,
00003002
00000010
00000100
00001003
,
00001000
00000100
00000010
00000000
00000101
00000000
00001100
00000000
,
00010000
00001000
01000000
00000000
00110000
00000000
01000000
00000000
,
10000000
01000000
00010000
00000000
00010000
01000000
00100000
00000000
,
01000000
00100000
10000000
00000000
01000000
00100000
00010000
00000000
,
00010000
00011000
00001010
00000100
,
00000001
00000010
00000100
00001000
00000100
00000000
00000010
00000000
,
00000101
00000000
00001010
00000000
00001000
00000000
00010000
00001000
,
00011000
00000000
01010000
00000000
00010000
00000000
01000000
00100000
,
00010000
00000000
00100000
00000000
10000000
00000000
01000000
00010000
,
00001000
00000000
00000010
00000000
00000100
00001000
00000001
00000000
,
00000010
00000100
00001000
00000000
00000101
00000000
00000110
00000000
,
00001100
00011000
00110000
00000000
;

//---------------dance-double - ----------------
#NOTES:
     dance-double:
     :
     Hard:
     8:
     :
00000000
00000000
00000000
00000000
,
00000000
00000000
00000000
00000000
,
00000000
00000000
00000000
00000000
,
00000000
00000000
00000000
00000000
,
00011000
00000000
00001100
00000000
00010000
00001000
00000100
00000000
,
00000010
00000100
00000001
00000000
00000010
00000100
00001000
00000000
,
00000010
00010000
00001000
00000000
00100000
00000000
11000000
00000000
,
02000000
00100000
10000000
00010000
,
03020000
00001000
00000100
00030010
,
00001000
00000100
00001000
00000000
00000001
00000010
00000001
00000000
,
00000100
00000010
00001000
00000000
00000100
00000000
00011000
00000000
,
00010000
00100000
01000000
00000000
11000000
00000000
00110000
00000000
,
01000000
00001000
00010000
00000000
00011000
00000000
00001010
00000000
,
00000001
00000100
00001000
00000100
00000001
00000000
00000011
00000000
,
00001000
00000010
00000100
00000010
00010000
00000000
00010010
00000000
,
00000010
00010000
00001000
00000000
00110000
00000000
11000000
00000000
,
10000000
00100000
00010000
00000000
00110000
00000000
11000000
00000000
,
01000000
10000000
01000000
00010000
00001000
00010000
00001000
00000100
,
00000010
00000001
00000010
00001000
00000100
00000010
00000001
00000000
,
00000010
00001100
00011000
00110000
,
01000000
00000000
00100000
10000000
01000000
00000000
10010000
00000000
,
10000000
01000000
00010000
01000000
00010000
00000000
00001000
00010000
,
00001000
00000100
00000010
00000000
00000100
00000001
00000010
00000000
,
00000110
00000000
00001001
00000000
00000100
00000010
00001000
00000000
,
00001100
00000000
00010100
00000000
00100000
00010000
10000000
00000000
,
01000000
10000000
00100000
01000000
00010000
00000000
00110000
00000000
,
00001000
00010000
00001000
00000010
00000100
00001000
00000001
00000000
,
00001100
00000000
00000011
00000000
00001000
00000010
00000100
00000001
,
00000010
00000000
00001100
00000000
00010000
00001000
01000000
00100000
,
10000000
00000000
00100000
01000000
00001000
00010000
01000000
10000000
,
00100000
01000000
00001000
00010000
00100000
00010000
00001000
00000000
,
00011000
00000000
00001010
00000000
00000100
00000001
00000010
00000000
,
00000110
00000000
00001100
00000000
00000001
00000010
00000100
00000000
,
00001000
00000010
00010000
00001000
00000100
00000010
00010000
00001000
,
00100000
01000000
10000000
01000000
00010000
10000000
00010000
00000000
,
02200000
00000000
00000000
00000000
,
00000000
00000000
00000000
00000000
00000000
00000000
00000000
00000000
03300000
00000000
00000000
00000000
00100000
00001000
00000000
00001000
,
00010000
00000000
00000000
00000100
00001000
00000000
00000010
00000000
00000000
00000000
00000100
00000000
00000000
00000000
00000011
00000000
,
00000000
00000000
00000100
00000000
00010000
00000000
00001000
00000000
00100000
00000000
00000000
01000000
10000000
00000000
00100000
00000000
,
01000000
00000000
00000000
00010000
10000000
00000000
00100000
00000000
00000000
00000000
01000000
00000000
00000000
00000000
00110000
00000000
,
00000000
00011000
00000000
00001000
00000100
00000010
00000011
00000000
,
00001010
00000000
00000000
00000100
00001000
00000000
00000100
00000000
00000000
00000000
00010000
00000000
00000000
00000000
00011000
00000000
,
00000000
01010000
00000000
00100000
20000000
00000000
30010000
01000000
,
00100000
00000000
00000000
10000000
00010000
00000000
00100000
00000000
00000000
00000000
01000000
00000000
00000000
00000000
00110000
00000000
,
00000000
00011000
00010000
00000100
00001000
00000010
00000100
00000001
,
00001001
00000000
00000000
00000000
,
00000000
00000000
00000000
00000000
,
00000100
00000000
00010000
00000000
00000000
00001000
00100000
00010000
,
01000000
00020000
00000000
10030000
,
10000000
01000000
00010000
01000000
00010000
00000000
00001000
00010000
,
00001000
00000100
00000010
00000000
00000100
00000001
00000010
00000000
,
00000110
00000000
00001001
00000000
00000100
00000010
00001000
00000000
,
00001100
00000000
00010100
00000000
00100000
00010000
10000000
00000000
,
01000000
10000000
00100000
01000000
00010000
00000000
00110000
00000000
,
00001000
00010000
00001000
00000010
00000100
00001000
00000001
00000000
,
00001100
00000000
00000011
00000000
00001000
00000010
00000100
00000001
,
00000011
00001100
00001010
00000101
,
00000001
00000010
00000100
00010000
00001000
00000100
00001000
00010000
,
00100000
10000000
00100000
00010000
00100000
01000000
10000000
01000000
,
00010000
01000000
00100000
10000000
01000000
00100000
00001000
00100000
,
01000000
00010000
00001000
00000100
00000010
00000100
00000001
00000010
,
00000110
00000000
00001001
00000100
00000010
00010000
00001000
01000000
,
01010000
00000000
11000000
01000000
00100000
00100000
01000000
10000000
,
00100000
01000000
00001000
00010000
00011000
00000100
00001000
00000010
,
00000011
00000100
00001100
00001000
00011000
00000000
00000000
00000000
;
