#TITLE:Hate To Say I Told You So;
#ARTIST:The Hives;
#BANNER:Hate To Say I Told You So.png;
#BACKGROUND:Hate To Say I Told You So-bg.png;
#MUSIC:Hate To Say I Told You So.ogg;
#SAMPLESTART:8.708;
#SAMPLELENGTH:15;
#DISPLAYBPM:118:138;
#BPMS:0=137.799,20=135.211,36=135.508,48=135,51=138.462,52=134.663,64=135.849,68=135.593,76=135.338,88=134.496,100=136.493,116=139.806,132=140.078,140=139.535,148=132.353,156=138.158,163=138.462,164=134.078,180=135.593,188=134.831,196=132.841,212=131.547,224=121.622,226=118.421,227=105.882,228=117.936;
#BGCHANGES:3=Hate To Say I Told You So.avi=1=0=0=0;

//---------------dance-single - ----------------
#NOTES:
     dance-single:
     :
     Beginner:
     1:
     :
0000
0000
0000
0000
,
0000
0000
0000
0000
,
0000
0000
0000
0000
,
1000
0000
0000
0000
,
0001
0000
0000
0000
,
1001
0000
0000
0000
,
1000
0000
0000
0000
,
0001
0000
0001
0000
,
1000
0000
1000
0000
,
0010
0000
0000
0000
,
0100
0000
0000
0000
,
0010
0000
0010
0000
,
0100
0000
0001
0000
,
1000
0000
0010
0000
,
0100
0000
0001
0000
,
0001
0000
1000
0000
,
1000
0000
0100
0000
,
0010
0000
0100
0000
,
0001
0000
1000
0000
,
0001
0000
0000
0000
,
1001
0000
0000
0000
,
0010
0000
0100
0000
,
1000
0000
0001
0000
,
0010
0000
0010
0000
,
0100
0000
1000
0000
,
0110
0000
0000
0000
,
0000
0000
0000
0000
,
0000
0000
0000
0000
,
0000
0000
0000
0000
,
1000
0000
0100
0000
,
0001
0000
0000
0000
,
0001
0000
0010
0000
,
1000
0000
0000
0000
,
1000
0000
0010
0000
,
0001
0000
0000
0000
,
0001
0000
0100
0000
,
1000
0000
0000
0000
,
0110
0000
0110
0000
,
0110
0000
0000
0000
,
1001
0000
0000
0000
,
0000
0000
0000
0000
,
0010
0000
0100
0000
,
1000
0000
0001
0000
,
0001
0000
1000
0000
,
0010
0000
0100
0100
,
0010
0000
0001
0000
,
1000
0000
0010
0000
,
0100
0000
0001
0000
,
1000
1000
0001
0000
,
1000
0000
0010
0000
,
0100
0000
0001
0000
,
0010
0000
0100
0000
,
1000
0000
0010
0000
,
0001
0000
0000
0000
,
1000
0000
0000
0000
,
1001
0000
0000
0000
,
1001
0000
0000
0000
,
0110
0000
0000
0000
;

//---------------dance-single - ----------------
#NOTES:
     dance-single:
     :
     Easy:
     3:
     :
0000
0000
0000
0000
,
0000
0000
0000
0000
,
0000
0000
0000
0000
,
0010
0000
0010
0010
,
0100
0000
0100
0100
,
1001
0000
1000
0000
,
0010
0000
0100
0000
,
0001
0001
0100
0000
,
0010
0010
1000
0000
,
1000
0000
0100
0000
,
0010
0000
0001
0000
,
1000
0000
0100
0000
,
0001
0001
0010
0000
,
0100
0000
1000
0000
,
0001
0000
0010
0000
,
0001
0001
1000
0000
,
0100
0100
0010
0000
,
1000
0000
0001
0000
,
0010
0000
0100
0000
,
1000
0000
0001
0000
,
1001
0000
0110
0000
,
1000
0000
0010
0000
,
1001
0000
0001
0000
,
0100
0000
0110
0000
,
1001
0000
0000
0000
,
1000
0000
0000
0000
,
0000
0000
0000
0000
,
0000
0000
0000
0000
,
0000
0000
0000
0000
,
0010
0000
0100
0000
,
0001
0000
0000
0000
,
1001
0000
0000
0000
,
0010
0000
0000
0000
,
0110
0000
1000
0000
,
0001
0000
0010
0000
,
0100
0000
0000
0000
,
0110
0000
0000
0000
,
1000
0001
1000
0001
,
1000
0000
0000
0000
,
0010
0000
0000
0000
,
0000
0000
0000
1001
,
0010
0000
0100
0000
,
1000
1000
0010
0000
,
0100
0100
0001
0000
,
0010
0010
0100
0000
,
1000
0000
0010
0000
,
0100
0000
0001
0010
,
0100
0000
1000
0000
,
0100
0100
0001
0000
,
0110
1000
0001
0000
,
0110
0100
0010
0000
,
1001
0100
0001
0000
,
1001
0010
1000
0000
,
1000
0000
0100
0000
,
0010
0010
0001
0000
,
0100
0000
1000
0000
,
0100
0100
0100
0100
,
0010
0000
0000
0000
;

//---------------dance-single - ----------------
#NOTES:
     dance-single:
     :
     Medium:
     6:
     :
0000
0000
0000
0000
,
0000
0000
0000
0000
,
0000
0000
0000
0000
,
0000
0000
0000
0000
,
0000
0000
0000
0000
1000
0010
0100
0000
,
0001
0000
1000
0000
0010
0100
1000
0000
,
0100
0010
0001
0000
1000
0000
0010
0000
,
0100
0000
0001
0000
0010
0100
1000
0000
,
0010
0100
0001
0000
1000
0000
0010
0000
,
0001
0000
0100
0000
1000
0100
0001
0000
,
0001
0100
1000
0000
0010
0000
0100
0000
,
0001
0010
1000
0000
1000
0010
0001
0000
,
0010
0100
1000
1001
,
1000
0000
0010
0000
0100
0001
0011
0000
,
0100
0000
1000
0000
0010
1000
1100
0000
,
0010
0000
1000
0000
0001
0010
0101
0000
,
0010
0000
1000
0000
0010
1000
0010
0000
,
0100
1000
0001
0000
0100
1000
0010
0000
,
0010
0001
1000
0000
1000
0000
0001
0000
,
0100
1000
0100
0000
0001
0010
0001
0000
,
1000
0010
0100
0001
0010
0000
1100
0000
,
0010
0000
1000
0000
0001
0100
0001
0000
,
1000
0010
1000
0000
0001
0100
0001
0000
,
0010
0000
0001
0000
1000
0001
0100
0000
,
1010
0110
0101
0001
,
0010
0000
0000
0000
,
0000
0000
0000
0000
,
0000
0000
0000
0000
,
0000
0000
0000
0000
,
1000
0000
0000
0010
0000
0000
0000
0001
,
0000
0000
0000
0010
0000
0000
0100
0000
,
1000
0100
0000
0000
0000
0000
0000
0000
,
0000
0000
0000
0010
,
0002
0000
0000
2003
0000
0000
0000
3200
,
0000
0320
0000
2030
0000
0000
3010
0000
,
0100
0010
0000
0000
0000
0000
0000
0000
,
0000
0000
0000
0000
,
1001
0011
1100
1010
,
0100
0001
0010
0001
0100
0010
1000
0010
,
0100
0000
0000
0000
,
0000
0000
0000
0011
,
0010
0100
1000
0000
1000
0100
0001
0000
,
0001
0100
1000
0000
1000
0010
0001
0000
,
0001
0100
0010
1000
0100
0000
0110
0000
,
1000
0010
0100
0001
0010
0000
0101
0000
,
1000
0000
0001
0000
0010
0100
1000
0000
,
0010
0100
0001
0000
1000
0100
0001
0000
,
0001
0010
1000
0000
1000
0010
0001
0000
,
1000
0100
0001
0000
1000
0010
0100
0000
,
0001
0000
0010
0000
0100
1000
0100
0000
,
1000
0010
1000
0000
0001
0010
0001
0000
,
1000
0000
0010
0000
0100
0001
0100
0000
,
1000
0100
1000
0010
0100
0000
0011
0000
,
0001
0010
0001
0000
1000
0010
1000
0100
,
0010
0101
1010
0100
,
0001
0010
0001
0000
1000
0100
1000
0000
,
1010
0011
1100
1001
,
0110
0000
0000
0000
;

//---------------dance-single - ----------------
#NOTES:
     dance-single:
     :
     Hard:
     7:
     :
0000
0000
0000
0000
,
0000
0000
0000
0000
,
0000
0000
0000
0000
,
1100
0000
0011
0000
,
1000
0100
0010
0001
0001
0010
0100
1000
,
1000
0100
0010
0000
0001
0010
1000
0000
,
1000
0010
0100
0000
0001
0100
0010
1000
,
0100
0010
0001
1000
0000
0100
0010
0100
,
0000
1000
0010
0100
0001
0010
1100
0000
,
0010
0001
1000
0000
0100
0010
0001
0000
,
1000
0010
0100
0100
0001
0010
0100
1000
,
0010
0100
0001
0000
0001
0100
1000
0000
,
1000
0100
0001
0010
0100
0000
0011
0000
,
0001
0010
0100
0000
1000
0100
0001
0000
,
0001
0100
0010
0000
1000
0010
0100
0001
,
0010
0100
1000
0001
0000
0010
0100
0010
,
0000
0001
0100
0010
1000
0100
0011
0000
,
0100
1000
0001
0000
0010
0100
1000
0000
,
0001
0100
0010
0010
1000
0100
0010
0001
,
0100
0010
1000
0000
1000
0010
0001
0000
,
0001
0000
0010
0000
1000
0000
0100
0000
0010
0000
0000
1000
0100
0000
0010
0000
,
0001
0001
0010
0100
1000
0000
1010
0000
,
1000
1000
0100
0010
0001
0000
0011
0000
,
0001
1000
0100
0100
0010
0010
0001
1000
,
0100
0000
0000
1000
0000
0000
0010
0000
0100
0000
0001
0010
0001
0000
0000
0000
,
2000
0000
0100
0000
,
0010
0000
0001
3000
,
0002
0100
0010
1000
,
0010
0100
0010
1003
,
1000
0100
0010
0001
0000
0001
0100
0010
,
0000
1000
0100
0010
0000
0010
0001
1000
,
0100
0022
0000
0000
0000
0000
0000
0000
,
0000
0000
0000
0000
0033
0000
0001
1000
,
0010
0100
0001
0000
0100
1000
0100
0000
,
0001
0100
1000
0100
0001
0010
1000
0000
,
0001
1000
0100
0000
0100
1000
0010
0000
,
0200
0000
0000
0300
,
1001
0110
0011
1100
,
0110
0101
1010
1001
,
0220
0000
0000
0000
,
0000
0000
0000
0000
0330
1000
0001
0000
,
0101
0000
1010
0000
0100
0010
1000
0001
,
0110
0000
1100
0000
0010
0001
1000
0100
,
0011
0000
1100
0000
1001
0001
0100
0010
,
1000
0010
0101
0000
1010
0000
0100
0001
,
1010
0000
0101
0000
0010
0100
1000
0001
,
0110
0000
0011
0000
0100
1000
0001
0010
,
1100
0011
1001
0110
,
0010
0100
1000
0100
0001
0100
1000
0000
,
0011
0010
0100
1000
1100
1000
0010
0100
,
0110
0100
0001
0010
0011
0010
0100
1000
,
1100
0100
0010
0001
0011
0001
0100
0010
,
0110
0010
1000
0100
1100
0010
0110
0000
,
0001
0010
1000
0010
0001
0100
1000
0100
,
0001
1000
0010
0100
0001
0100
1000
0100
,
0010
1000
0100
0010
0001
1000
0010
0100
,
0001
0010
0100
1000
1100
0010
0100
0001
,
2002
0000
0000
0000
,
0000
0000
0000
0000
,
0000
0000
3003
0000
;

//---------------dance-double - ----------------
#NOTES:
     dance-double:
     :
     Beginner:
     1:
     :
00000000
00000000
00000000
00000000
,
00000000
00000000
00000000
00000000
,
00000000
00000000
00000000
00000000
,
10000000
00000000
00100000
00000000
,
00010000
00000000
00001000
00000000
,
00000010
00000000
00001000
00000000
,
00000001
00000000
00000100
00000000
,
00000010
00000000
00010000
00000000
,
00001000
00000000
00100000
00000000
,
00010000
00000000
10000000
00000000
,
01000000
00000000
00010000
00000000
,
00001000
00000000
00000100
00000000
,
00000001
00000000
00000010
00000000
,
00000100
00000000
00010000
00000000
,
00001000
00000000
00100000
00000000
,
01000000
00000000
10000000
00000000
,
00100000
00000000
01000000
00000000
,
00010000
00000000
00100000
00000000
,
00001000
00000000
00010000
00000000
,
00000100
00000000
00001000
00000000
,
00000001
00000000
00000010
00000000
,
00000100
00000000
00000000
00000000
,
00001000
00000000
00000000
00000000
,
00010000
00000000
00000000
00000000
,
00100000
00000000
00000000
00000000
,
10000000
00000000
00000000
00000000
,
00000000
00000000
00000000
00000000
,
00000000
00000000
00000000
00000000
,
00000000
00000000
00000000
00000000
,
00010000
00000000
00000000
00000000
,
00100000
00000000
00000000
00000000
,
00001000
00000000
00000000
00000000
,
00010000
00000000
00000000
00000000
,
00000010
00000000
00000000
00000000
,
00000100
00000000
00000000
00000000
,
00000001
00000000
00000000
00000000
,
00000010
00000000
00000000
00000000
,
00001001
00000000
00001001
00000000
,
00001001
00000000
00001000
00000000
,
00010000
00000000
00000000
00000000
,
00000000
00000000
00000000
00000000
,
00100000
00000000
10000000
00000000
,
01000000
00000000
00010000
00000000
,
00001000
00000000
00000100
00000000
,
00000001
00000000
00000010
00000000
,
00000001
00000000
00000100
00000000
,
00001000
00000000
00010000
00000000
,
01000000
00000000
10000000
00000000
,
00100000
00000000
00010000
00000000
,
10000000
00000000
00100000
00000000
,
01000000
00000000
00010000
00000000
,
00100000
00000000
00001000
00000000
,
00000010
00000000
00000100
00000000
,
00000001
00000000
00000010
00000000
,
00001000
00000000
00010000
00000000
,
00100000
00000000
01000000
00000000
,
10000000
00000000
00010000
00000000
,
10010000
00000000
00000000
00000000
;

//---------------dance-double - ----------------
#NOTES:
     dance-double:
     :
     Easy:
     3:
     :
00000000
00000000
00000000
00000000
,
00000000
00000000
00000000
00000000
,
00000000
00000000
00000000
00000000
,
00000100
00001000
00010000
00010000
,
01000000
10000000
01000000
00100000
,
10000000
00000000
00100000
00000000
,
00010000
00001000
00000100
00000000
,
00000001
00000000
00000100
00000000
,
00000010
00001000
00010000
00000000
,
01100000
00000000
10000000
00000000
,
01000000
00100000
00010000
00000000
,
00011000
00000000
00000100
00000000
,
00000010
00000001
00000001
00000000
,
00000010
00000100
00000100
00000000
,
00001000
00000000
00010000
00000000
,
00100000
00100000
01000000
00000000
,
10000000
00000000
00100000
00000000
,
01100000
00000000
00010000
00000000
,
00011000
00000000
00000010
00000000
,
00001000
00000100
00000001
00000000
,
00000010
00000000
00000100
00000000
,
00000002
00000000
00000203
00000000
,
00002300
00000000
00023000
00000000
,
00230000
00000000
20300000
00000000
,
31000000
00100000
00010000
00000000
,
00011000
00000000
00000000
00000000
,
00000000
00000000
00000000
00000000
,
00000000
00000000
00000000
00000000
,
00000000
00000000
00000000
00000000
,
00001000
00000100
00000010
00000000
,
00000001
00000100
00000000
00000000
,
00001000
00010000
00100000
00000000
,
10000000
00000000
01000000
00000000
,
00010000
00000000
00001000
00000000
,
00001000
00000000
00000010
00000010
,
00000100
00000000
00000001
00000000
,
00000010
00000000
00000100
00000000
,
00000110
00000000
00001001
00000000
,
00011000
00000000
01100000
00000000
,
00000000
00000000
00000000
00000000
,
00000000
00000000
00000000
10000000
,
01000000
00100000
00010000
00010000
,
00001000
00001000
00000100
00000010
,
00000001
00000000
00000010
00000000
,
00000100
00001000
00010000
00000000
,
00100000
00000000
01000000
00000000
,
10000000
01000000
00010000
00000000
,
00000010
00000100
00000001
00000000
,
00000001
00000100
00000010
00000000
,
00001001
00000000
00000010
00001000
,
00000100
00000000
00010000
00000000
,
00011000
00000000
01000000
00010000
,
00100000
00000000
01000000
00000000
,
10000000
00100000
00010000
00000000
,
00001000
00000010
00000001
00000000
,
00000001
00000100
00001000
00000000
,
00010000
01000000
10000000
00000000
,
01100000
00000000
00000000
00000000
;

//---------------dance-double - ----------------
#NOTES:
     dance-double:
     :
     Medium:
     6:
     :
00000000
00000000
00000000
00000000
,
00000000
00000000
00000000
00000000
,
00000000
00000000
00000000
00000000
,
10010000
00000000
01000000
00100000
,
00010000
00001000
00000010
00000100
,
00000001
00000001
00000100
00000000
00000010
00000000
00001000
00000000
,
00000100
00000100
00010000
00000000
00001000
00000000
00100000
00000000
,
01000000
10000000
01000000
00000000
00100000
00010000
00100000
00000000
,
00001000
00010000
00000100
00001000
00000010
00000000
00000100
00000000
,
00000001
00000000
00000100
00000000
00000010
00001000
00000010
00000000
,
00010000
00000000
00001000
00000000
00010000
00001000
01000000
00000000
,
00010000
01000000
00010000
00000000
10000000
01000000
10000000
00000000
,
01100000
00000000
00110000
00000000
00001000
00010000
00000100
00000000
,
00000010
00000001
00000100
00000000
00000100
00001000
00000010
00000000
,
00001000
00000100
00010000
00000000
00010000
00100000
01000000
00000000
,
00100000
10000000
01000000
00000000
00100000
00001000
00010000
00000000
,
01000000
00001000
00010000
00000000
00000100
00010000
00000010
00000000
,
00000100
00000000
00000001
00000000
00000100
00001000
00000010
00000000
,
00010000
00001000
01000000
00000000
00010000
10000000
01000000
00000000
,
00100000
00001000
00010000
00000100
00001000
00000000
00000010
00000000
,
00000100
00000001
00000010
00000000
00000100
00000000
00000100
00001000
,
00000020
00000100
00000000
00001000
,
00000000
00010000
00000000
00001000
,
00000130
00001000
00010000
00100000
,
10000000
00000000
01000000
00000000
00100000
00001000
00010000
00000000
,
00011000
00000000
00000000
00000000
,
00000000
00000000
00000000
00000000
,
00000000
00000000
00000000
00000000
,
00000000
00000000
00000000
00000000
,
00000010
00000000
00001000
00000000
00000100
00001000
00000100
00000000
,
00010000
00000000
00000010
00000000
00010000
00001000
00010000
00000000
,
00100000
00000000
10000000
00000000
01000000
10000000
01000000
00000000
,
00010000
00000000
00000000
00000000
,
00000010
00000000
00000100
00000000
00000001
00000100
00000001
00000000
,
00001000
00000000
00000100
00000000
00010000
00001000
01000000
00000000
,
00100000
10000000
01000000
00000000
,
00020000
00000000
00000000
00000000
,
00031000
00011000
00010010
00000110
,
00000101
00000000
00001000
00000100
00010000
00001000
01000000
00000000
,
10100000
00000000
00000000
00000000
,
00000000
00000000
00000000
00000000
00000000
10000000
10000000
00000000
,
01100000
00000000
00100000
00000000
00010000
00001000
00010000
00000000
,
00001000
00010000
00001000
00000000
00000100
00000000
00000010
00000000
,
00000001
00000010
00000001
00000000
00000100
00000000
00001000
00000000
,
00010000
00001000
00010000
00000000
01000000
00000000
10000000
00000000
,
10000000
01000000
00100000
00000000
01000000
00100000
00001000
00000000
,
00010000
00001000
00000010
00000000
00001000
00000010
00000100
00000000
,
00000001
00000100
00001000
00000000
00010000
00000000
00001000
00000000
,
00010000
00100000
10000000
00000000
00100000
00000000
01000000
00000000
,
11000000
01100000
00110000
00011000
,
00001100
00000110
00000011
00000101
,
00001010
00010100
00011000
00101000
,
01010000
00000000
10100000
00000000
10000000
00010000
10010000
00000000
,
10000000
01000000
00010000
00000000
01000000
00100000
00001000
00000000
,
00010000
00001000
00000010
00000000
00000100
00000010
00000001
00000000
,
00000001
00000100
00001000
00000000
00010000
01000000
10000000
00000000
,
10000000
00100000
00010000
00000000
00001000
00000010
00000001
00000000
,
00002002
00000000
00000000
00000000
,
00000000
00000000
00000000
00000000
,
00000000
00000000
00003003
00000000
;

//---------------dance-double - ----------------
#NOTES:
     dance-double:
     :
     Hard:
     8:
     :
00000000
00000000
00000000
00000000
,
00000000
00000000
00000000
00000000
,
00000000
00000000
00000000
00000000
,
00010000
01000000
00100000
00010000
00001000
00000100
00000010
00000100
,
00001000
00000100
00000001
00000010
00001000
00010000
01000000
10000000
,
10000000
00100000
00010000
00001000
00000000
00010000
00001000
00000100
,
00000000
00000100
00000010
00000001
00001000
00000100
00000110
00000000
,
00001000
00000100
00000010
00000001
00000100
00001000
00010000
00100000
,
10000000
01000000
00100000
00010000
10000000
00000000
01100000
00000000
,
01000000
00100000
00010000
10000000
01000000
00100000
00001000
00010000
,
00000100
00001000
00000010
00000100
00000001
00000010
00000100
00001000
,
00000010
00001000
00001010
00000000
00000101
00000000
00000010
00000000
,
00000100
00000010
00010000
00001000
00100000
00010000
01100000
00000000
,
10000000
01000000
00010000
01000000
00100000
10000000
00100000
00010000
,
00100000
00001000
00010000
00000010
00001000
00000001
00000100
00000010
,
00000110
00010100
00101000
01010000
,
00100000
00010000
10000000
01000000
00100000
00001000
00010000
00000000
,
00000010
00001000
00000100
00000010
00000001
00000010
00000001
00001000
,
00000000
00000100
00010000
00001000
00000000
00100000
00010000
10000000
,
00100000
10000000
00010000
01000000
00100000
10000000
01000000
00010000
,
00001000
00010000
01000000
00010000
00001000
00010000
00000010
00001000
,
00001010
00000000
00000100
00000100
00000001
00000001
00000010
00000010
,
00000100
00000100
00010000
00010000
00001000
00001000
01000000
01000000
,
00100000
00100000
10000000
01000000
00100000
00100000
00010000
00001000
,
00001100
00000110
00000011
00001001
,
00000120
00000000
00002030
00000000
,
00023000
00000000
02030000
00000000
,
13000000
10000000
01000000
00100000
00100000
00100000
00001000
00010000
,
00010000
00010000
00000010
00000100
00000100
00000100
00000001
00000100
,
00000010
00001000
00000100
00010000
00000000
00010000
00001000
00000010
,
00000000
00001000
00010000
00100000
00000000
00100000
01000000
00100000
,
01000000
00010000
10000000
00000000
01000000
00000000
00010000
00000000
,
00001000
00000000
00000010
00000000
00000001
00000000
00000100
00000010
,
00000001
00000010
00000100
00000010
00000000
00010000
00001000
00100000
,
00000000
00100000
01000000
10000000
00100000
01000000
00010000
00100000
,
00001000
00020000
00000000
00000000
00000000
00000000
00000000
00000000
,
00000000
00000000
00000000
00030000
,
00001100
00010010
01001000
00011000
,
01010000
00000000
10100000
00000000
01000000
00010000
00100000
01000000
,
20000000
00000000
00000000
00000000
,
00000000
00000000
00000000
00000000
00000000
30100000
01000000
00000000
,
00010000
01000000
10000000
01000000
00010000
00100000
10000000
00100000
,
00001000
00010000
01000000
00010000
00001000
00000010
00001000
00010000
,
00001000
00000010
00000100
00001000
00000010
00000100
00000001
00000010
,
00000100
00001000
00001100
00000000
00011000
00000000
00110000
00000000
,
01000000
00010000
00100000
01000000
10000000
01000000
00010000
00001000
,
00010000
00001000
00000100
00001000
00000100
00000001
00000010
00000100
,
00001000
00000010
00000100
00000001
00000010
00000100
00001000
00000010
,
00010000
00001000
00100000
00010000
10000000
01000000
11000000
00000000
,
01100000
00000000
00101000
00000000
00100000
00001000
00010000
00000010
,
00001010
00000000
00000101
00000000
00000010
00000100
00000001
00000100
,
00010000
00001000
00100000
00010000
00100000
01000000
01100000
00000000
,
01000000
10000000
00100000
01000000
01010000
00000000
00011000
00000000
,
00001010
00000010
00001000
00000001
00000011
00000000
00001100
00000000
,
00011000
00010000
00001000
01000000
01010000
00000000
11000000
00000000
,
10000000
00100000
01000000
00010000
00100000
00001000
00010000
00000100
,
00001000
00000001
00000010
00000100
00001000
00000010
00000101
00000000
,
00002020
00000000
00000000
00000000
,
00000000
00000000
00000000
00000000
,
00000000
00000000
00003030
00000000
;
