#TITLE:Girls;
#ARTIST:The Prodigy;
#BANNER:Girls.png;
#BACKGROUND:Girls-bg.png;
#MUSIC:Girls.ogg;
#SAMPLESTART:17.32;
#SAMPLELENGTH:15;
#DISPLAYBPM:125;
#BPMS:0=124.711;
#BGCHANGES:3=Girls.avi=1=0=0=0;

//---------------dance-single - ----------------
#NOTES:
     dance-single:
     :
     Beginner:
     1:
     :
0000
0000
0000
0000
,
0000
0000
0000
0000
,
0000
0000
0000
0000
,
1000
0001
0000
0000
,
0001
0000
0000
0000
,
0010
0000
0100
0000
,
1000
0000
0000
0000
,
0100
0000
0010
0000
,
0001
0000
0000
0000
,
1000
0000
0100
0000
,
0001
0000
0000
0000
,
0001
0000
0100
0000
,
1000
0000
0000
0000
,
0010
0000
0000
0000
,
0100
0000
0000
0000
,
1000
0000
0010
0000
,
0001
0000
0000
0000
,
0100
0000
0000
0000
,
0010
0000
0000
0000
,
0001
0000
0100
0000
,
1000
0000
0000
0000
,
0010
0000
1000
0000
,
0001
0000
0100
0000
,
1000
0000
0001
0000
,
0010
0000
0100
0000
,
0100
0000
0001
0000
,
1000
0000
0010
0000
,
0001
0000
1000
0000
,
0100
0000
0010
0000
,
0001
0000
0000
0000
,
1000
0000
0000
0000
,
0010
0000
0000
0000
,
0100
0000
0000
0000
,
0100
0000
0100
0000
,
0001
0000
0001
0000
,
1000
0000
1000
0000
,
0010
0000
0010
0000
,
0100
0000
0100
0000
,
0001
0000
0001
0000
,
0100
0000
0001
0000
,
0010
0000
1000
0000
,
0100
0000
0001
0001
,
0001
0000
0010
0000
,
1000
0000
0000
0000
,
0100
0000
0010
0000
,
0001
0000
0000
0000
,
1000
0000
0100
0000
,
0001
0000
0000
0000
,
0001
0000
0010
0000
,
0100
0000
0000
0000
,
0110
0000
0000
0000
;

//---------------dance-single - ----------------
#NOTES:
     dance-single:
     :
     Easy:
     3:
     :
0000
0000
0000
0000
,
0000
0000
0000
0000
,
0000
0000
0000
0000
,
1000
0000
0001
0000
,
0010
0000
0100
0000
,
0010
0000
1000
0000
,
0000
0001
0000
0010
,
0100
1000
0000
0001
,
0000
0010
0000
0100
,
1000
1000
0000
0001
,
0000
0010
0000
0100
,
0100
0010
0000
0100
,
0000
0001
0000
1000
,
0010
0000
1000
0000
,
0001
0000
0100
0100
,
1000
0000
0010
0000
,
0001
0001
0100
0000
,
0001
0000
1000
0000
,
0010
0100
0001
0000
,
1000
0000
0010
0000
,
0100
0001
0010
0000
,
1000
1000
0000
0000
,
0001
0001
0000
0010
,
0000
0100
0100
0000
,
1000
1000
0000
0010
,
0000
0100
0000
0001
,
0000
0010
0000
0010
,
1000
1000
0000
1000
,
0100
0001
0000
0001
,
0100
1000
0000
0010
,
0000
1000
0010
0001
,
1000
0010
0000
0100
,
1000
0100
0001
0001
,
0010
0000
0100
0000
,
1000
0000
0001
0000
,
0010
1000
1000
0000
,
0010
0001
0001
0000
,
0100
0000
0100
0000
,
0010
1000
0100
0000
,
0001
0000
1000
0000
,
0100
0010
0010
0010
,
0010
0000
0000
0000
,
1000
0001
0000
0010
,
0000
0100
0000
1000
,
0010
0010
0000
1000
,
0000
0001
0100
1000
,
0000
1000
0100
0001
,
0000
0001
0100
1000
,
1000
0010
0001
0000
,
0001
0010
1000
0000
,
0110
0000
0000
0000
;

//---------------dance-single - ----------------
#NOTES:
     dance-single:
     :
     Medium:
     6:
     :
0000
0000
0000
0000
,
0000
0000
0000
0000
,
0000
0000
0000
0000
,
1000
0010
0100
0001
,
0010
0100
1000
1001
,
1001
0000
0010
0000
1000
0001
0100
0000
,
0010
0000
1000
0000
0001
1000
0100
0000
,
0100
1000
0001
0000
0010
0001
1000
0000
,
0100
0000
0001
0000
0100
1000
0010
0000
,
0100
0000
0001
0000
0010
1000
0010
0000
,
0001
0000
0100
0000
1000
0100
1000
0000
,
0100
0000
0001
0000
0010
0000
0100
1000
,
0010
0000
0110
0000
1000
0001
1000
0000
,
0012
0000
1000
0000
0013
0100
1000
0000
,
2010
0000
0001
0000
3010
0100
0001
0000
,
0102
0000
1000
0000
0103
0010
1000
0000
,
2100
0000
0001
0000
3100
0010
0001
0000
,
0120
0000
1000
0000
0031
0010
1000
0000
,
0210
0000
0001
0000
1300
0100
0001
0000
,
0010
0001
0100
0000
0010
1000
0100
0000
,
1000
0001
0010
0100
1000
0000
0010
0010
,
0100
0000
0011
0000
1000
0100
1000
0000
,
0010
0000
1010
0000
0001
0100
0001
0000
,
1000
0100
0001
0000
0001
0100
1000
0000
,
0001
1000
0010
0100
0001
0000
1001
1000
,
0100
0010
0001
0000
1000
0010
0100
0000
,
0001
0010
1000
0010
0001
0000
1100
0000
,
0200
0000
1000
0000
0001
0000
1300
0100
,
0020
0000
1000
0000
0100
0000
0031
0010
,
0100
1000
0100
0000
0001
0010
1000
0000
,
0100
0010
0001
0001
0100
0000
1010
0000
,
0001
0010
0100
1000
0001
0100
0002
0000
,
0013
0001
1000
0100
0010
0001
2000
0000
,
3010
0010
0100
0000
0100
0100
0001
0000
,
1000
1000
0001
0001
0100
0100
0010
0000
,
0100
0001
0001
0000
0010
0100
0100
0000
,
1000
0010
0100
0001
0010
0100
1000
0000
,
0100
0100
0010
0000
0010
0010
1000
0000
,
0001
0001
1000
1000
0010
0010
0100
0000
,
0010
1000
1000
0000
0100
0010
0010
0000
,
0001
0100
0010
1000
0100
0010
0011
0000
,
1001
0000
0100
0000
0001
1000
0010
0000
,
0100
0000
0001
0000
1000
0001
0010
0000
,
0010
0001
1000
0000
0100
1000
0001
0000
,
0010
0000
1000
0000
0010
0001
0100
0000
,
0010
0000
1000
0000
0100
0001
0100
0000
,
1000
0000
0010
0000
0001
0010
0001
0000
,
0010
0000
1000
0000
0100
0000
0010
0001
,
0100
0000
0110
0000
0001
1000
0001
0000
,
1000
0100
0010
0001
0001
0010
0100
1000
,
0110
0000
0000
0000
;

//---------------dance-single - ----------------
#NOTES:
     dance-single:
     :
     Hard:
     8:
     :
0000
0000
0000
0000
,
0000
0000
0000
0000
,
0000
0000
0000
0000
,
1000
0100
0001
0100
1000
0010
0001
0010
,
1000
0100
0010
0001
1000
0001
1001
0000
,
0110
0000
0000
0000
1000
0000
0001
0020
0000
0000
0000
0000
0130
0000
1000
0000
,
0000
1000
0100
0000
0010
0000
0001
0100
0000
0100
0010
0000
1000
0000
0001
0000
,
0000
1000
0100
0000
0010
0000
0001
0000
0000
0100
0010
0000
1000
0000
0001
0000
,
1000
0100
1000
0000
0010
0000
0100
0002
0000
0000
0000
0000
1000
0000
1003
0000
,
0110
0000
0000
0000
0001
0000
1000
0200
0000
0000
0000
0000
0310
0000
0001
0000
,
0000
0001
0010
0000
0100
0000
1000
0010
0000
0010
0100
0000
0001
0000
1000
0000
,
0000
0001
0010
0000
0100
0000
1000
0000
0000
0010
0100
0000
0001
0000
1000
0000
,
0001
0010
0001
0000
0100
0000
0010
2000
0000
0000
0000
0000
3001
0000
0000
0000
,
1000
0000
0000
0000
0010
0100
0000
0001
0000
0010
0001
0000
0000
0000
1000
0100
,
1000
0000
0000
0000
0010
0100
0000
0001
0000
0000
0000
0000
0000
0000
0001
0010
,
0001
0000
0000
0000
1000
0010
0000
0100
0000
0001
1000
0000
0000
0000
0100
1000
,
0100
0000
0000
0000
0001
0100
0000
1000
0000
0000
0000
0000
0010
0000
0010
0000
,
0001
0000
0000
0000
0100
0010
0000
1000
0000
0100
1000
0000
0000
0000
0001
0010
,
0001
0000
0000
0000
0100
0010
0000
1000
0000
0000
0000
0000
0000
0000
1000
0100
,
1000
0000
0000
0000
0001
0100
0000
0010
0000
1000
0001
0000
0000
0000
0010
0001
,
0010
0000
0000
0000
1000
0010
0000
0001
0000
0000
0000
0000
0110
0000
0000
0000
,
0001
0100
1000
0100
0001
0010
1000
0010
,
0001
0010
0100
1000
0100
0010
0100
0001
,
0100
1000
0010
0100
0001
0010
0001
0010
,
0100
1000
0100
1000
0010
0100
0001
0000
,
0010
0100
0001
0010
0100
1000
0100
0010
,
1000
0010
0001
0100
1000
0100
0001
0100
,
2000
0000
0000
0000
0001
0000
0000
3002
0000
0000
0000
0000
0100
0000
0000
0000
,
0203
0010
0000
0010
,
0310
1000
0000
0001
0100
0000
0010
0100
0000
0001
0000
1000
0010
0000
0000
0000
,
0100
0001
0000
1000
0010
0000
0100
0010
0000
1000
0000
0001
0200
0000
0000
0000
,
0301
1000
0000
1000
0001
0000
0100
0010
0000
1000
0000
0001
0100
0000
0000
0000
,
1000
0010
0000
0010
1000
0000
0100
1000
0000
0001
0000
0010
0100
0000
0100
0000
,
1000
2000
0001
0000
3001
0002
1000
0000
,
0013
0000
0010
0000
0100
0000
0100
0000
1000
0000
1000
0000
0001
0010
0001
0000
,
0001
0002
1000
0000
1003
2000
0001
0000
,
3100
0000
0100
0000
0010
0000
0010
0000
0001
0010
0001
0000
1000
0100
1000
0000
,
0010
0100
0001
0100
1000
0100
0001
0010
,
1000
0010
0001
0100
0010
1000
0001
0001
,
0100
0010
1000
0010
0001
0010
1000
0100
,
0001
0100
1000
0010
0100
0001
2200
0000
,
3300
0000
0000
0000
0000
0000
0001
0010
,
1000
0010
0001
0010
1000
0100
0001
0100
,
1000
0100
0010
0001
0010
0100
0010
1000
,
0010
0001
0100
0010
1000
0100
1000
0100
,
0010
0001
0010
0001
0100
0010
1000
0000
,
0100
0010
1000
0100
0010
0001
0010
0100
,
0001
0100
1000
0010
0001
0010
1000
0010
,
0000
1000
0100
0000
0010
0000
0001
0000
0000
0001
0010
0000
0100
0000
1000
0000
,
0001
0000
1000
0000
0001
0000
0100
0001
0000
0010
1000
0000
1001
0000
0000
0000
;

//---------------dance-double - ----------------
#NOTES:
     dance-double:
     :
     Beginner:
     1:
     :
00000000
00000000
00000000
00000000
,
00000000
00000000
00000000
00000000
,
00000000
00000000
00000000
00000000
,
00000001
00000000
00001000
00000000
,
00000010
00000000
00000000
00000000
,
00001000
00000000
00000000
00000000
,
00010000
00000000
00000000
00000000
,
00100000
00000000
00000000
00000000
,
10000000
00000000
00000000
00000000
,
01000000
00000000
00000000
00000000
,
00010000
00000000
00000000
00000000
,
00001000
00000000
00000000
00000000
,
00000010
00000000
00000000
00000000
,
00000001
00000000
00000000
00000000
,
00000100
00000000
00000000
00000000
,
00001000
00000000
00000000
00000000
,
00010000
00000000
00000000
00000000
,
01000000
00000000
00000000
00000000
,
10000000
00000000
00000000
00000000
,
01000000
00000000
00000000
00000000
,
00010000
00000000
00000000
00000000
,
00000100
00000000
00000000
00000000
,
00000001
00000000
00000000
00000000
,
00000010
00000000
00000000
00000000
,
00001000
00000000
00000000
00000000
,
00010000
00000000
00000000
00000000
,
00100000
00000000
00000000
00000000
,
10000000
00000000
00000000
00000000
,
01000000
00000000
00000000
00000000
,
00010000
00000000
00000000
00000000
,
00001000
00000000
00000000
00000000
,
00000100
00000000
00000000
00000000
,
00000010
00000000
00000000
00000000
,
00000001
00000000
00000010
00000000
,
00000100
00000000
00000000
00000000
,
00001000
00000000
00010000
00000000
,
00100000
00000000
00000000
00000000
,
10000000
00000000
01000000
00000000
,
00010000
00000000
00000000
00000000
,
00001000
00000000
00000100
00000000
,
00000001
00000000
00000001
00000000
,
00000000
00000000
00000000
00000000
,
00000100
00000000
00000000
00000000
,
00001000
00000000
00000000
00000000
,
00010000
00000000
00000000
00000000
,
01000000
00000000
00000000
00000000
,
10000000
00000000
00000000
00000000
,
00010000
00000000
00000000
00000000
,
00001000
00000000
00000000
00000000
,
00000010
00000000
00000010
00000000
,
00000001
00000000
00000000
00000000
;

//---------------dance-double - ----------------
#NOTES:
     dance-double:
     :
     Easy:
     4:
     :
00000000
00000000
00000000
00000000
,
00000000
00000000
00000000
00000000
,
00000000
00000000
00000000
00000000
,
10000000
10000000
00100000
00000000
,
00010000
00000000
00001000
00001000
,
00000010
00000000
00000100
00000000
,
00000001
00000001
00000010
00000000
,
00000100
00000000
00001000
00000000
,
00010000
00010000
00010000
00000000
,
01100000
00000000
10000000
00000000
,
00010000
00010000
00100000
00000000
,
00001000
00000000
00000010
00000000
,
00000100
00000100
00000100
00000000
,
00000010
00000000
00000001
00000000
,
00000100
00000000
00001000
00000000
,
00010000
00000000
01000000
00000000
,
10000000
10000000
00100000
00000000
,
01000000
00000000
10000000
00000000
,
00100000
00000000
00010000
00000000
,
00001000
00000000
00000010
00000000
,
00000001
00000001
00000100
00000000
,
00000010
00000000
00001000
00000000
,
00011000
00000000
00100000
00000000
,
01000000
00000000
10000000
00000000
,
00100000
00100000
00100000
00000000
,
01000000
00000000
00010000
00000000
,
00011000
00000000
00000100
00000000
,
00000010
00000000
00000001
00000000
,
00000100
00000100
00000100
00000000
,
00000010
00000000
00001000
00000000
,
00011000
00000000
00100000
00000000
,
01000000
00000000
10000000
00000000
,
00100000
00100000
00100000
00000000
,
00001000
00000000
00010000
00000000
,
00000100
00000000
00001000
00000000
,
00000001
00000000
00000100
00000000
,
00000010
00000000
00010000
00000000
,
00001000
00000000
01000000
00000000
,
00010000
00000000
01000000
00000000
,
00100000
00000000
10000000
00000000
,
00010000
00000000
01000000
00001000
,
00010000
00000000
00000000
00000000
,
00000010
00000000
00001000
00000000
,
00000010
00000000
00000100
00000000
,
00010000
00000000
00100000
00000000
,
00010000
00010000
01000000
00000000
,
10000000
00000000
01000000
00000000
,
00010000
00000000
00100000
00000000
,
00001000
00000000
00010000
00000000
,
00001000
00001000
00000010
00000000
;

//---------------dance-double - ----------------
#NOTES:
     dance-double:
     :
     Medium:
     7:
     :
00000000
00000000
00000000
00000000
,
00000000
00000000
00000000
00000000
,
00000000
00000000
00000000
00000000
,
00001000
00010000
00100000
01000000
,
10000000
01000000
00200000
01000000
,
10300000
00000000
01000000
00000000
00100000
00001000
00010000
00000000
,
00000100
00010000
00001000
00000000
00010000
00000100
00001000
00000000
,
00000010
00000000
00000100
00000000
00000001
00000010
00000100
00000000
,
00001000
00000100
00000001
00000000
00000100
00000000
00001000
00000000
,
00000010
00000000
00010000
00000000
00001000
00010000
00001000
00000000
,
00100000
00000000
00001000
00000000
01000000
00010000
01000000
00000000
,
00100000
10000000
01000000
00010000
,
00001000
00010000
00001000
00000000
00000100
00000001
00000100
00000000
,
00000010
00000000
00010000
00001000
00010000
00000000
01000000
00000000
,
00010000
00000000
10000000
01000000
00100000
00000000
00000000
00000000
,
00001000
00000000
00010000
00001000
00010000
00000000
00000010
00000000
,
00000100
00000000
00000001
00000000
00000100
00000010
00000100
00000000
,
00000001
00001000
00000010
00010000
,
00001000
01000000
00010000
00000000
10000000
00000000
01000000
00000000
,
00100000
00000000
00001000
00000000
00010000
00000100
00001000
00000000
,
00000010
00001000
00000100
00000000
00000010
00000000
00000001
00000000
,
00001000
00000010
00001000
00000000
00000100
00000000
00010000
00000000
,
00001000
00100000
00010000
00000000
10000000
01000000
00100000
00000000
,
00010000
01000000
00001000
00011000
,
00000010
00001000
00000001
00000000
00000100
00000010
00000001
00000000
,
00000010
00010000
00001000
00000000
01000000
00010000
10000000
00000000
,
01000000
10000000
00100000
00000000
01000000
00001000
00010000
00000000
,
00000200
00000001
00000301
00000000
00002000
00000010
00003010
00000000
,
00000100
00010000
00001000
00000000
00100000
00000000
00010000
00000000
,
10000000
01000000
00100000
00010000
01000000
00000000
00110000
00000000
,
00001000
00010000
00000100
00001000
00000010
00000000
00001100
00000000
,
00000010
00000001
00000100
00000000
00000100
00001000
00010000
00000000
,
00001000
00010000
00100000
10000000
01000000
00000000
11000000
00000000
,
00100000
00100000
00002000
00000000
01003000
01000000
00020000
00000000
,
00130000
00001000
00010000
00000010
00000100
00000001
00001000
00000000
,
00000001
00000001
00000020
00000000
00000130
00000100
00020000
00000000
,
00031000
00001000
00100000
00100000
01000000
01000000
10000000
00000000
,
00010000
00010000
10000000
00000000
01000000
01000000
00100000
00000000
,
00001000
00001000
00010000
00000000
00000100
00000100
00001000
00000000
,
00000010
00000010
00000100
00000100
00000001
00000001
00001000
00001000
,
00000100
00010000
00010000
00001000
00001000
00000000
00100000
00000000
,
01010000
00000000
00000000
00000000
00000000
00000000
10000000
01000000
,
10000000
00000000
00100000
00000000
01000000
00001000
01000000
00000000
,
00001000
00000000
00010000
00000000
00000010
00000100
00000010
00000000
,
00000100
00000000
00001000
00000000
00000001
00000010
00000001
00000000
,
00001000
00000000
00000100
00000000
00010000
00001000
00010000
00000000
,
01000000
00000000
10000000
00000000
00100000
00010000
00010000
00000000
,
01000000
00001000
00010000
00000000
00000010
00000000
00000100
00000000
,
00000001
00000010
00000100
00000000
00001000
00000100
00000001
00000000
,
00000100
00010000
00011000
01010000
,
10100000
00000000
00000000
00000000
;

//---------------dance-double - ----------------
#NOTES:
     dance-double:
     :
     Hard:
     8:
     :
00000000
00000000
00000000
00000000
,
00000000
00000000
00000000
00000000
,
00000000
00000000
00000000
00000000
,
00000100
00010000
00010000
00001000
00001000
00100000
00100000
00001000
,
00010000
00000100
00000100
00010000
00010000
00001000
00011000
00000000
,
00000010
00000100
00000001
00000000
00000001
00000100
00001000
00000000
,
00000100
00001000
00010000
00000000
00001000
01000000
00010000
00000000
,
00100000
00010000
10000000
00000000
01000000
10000000
00100000
00000000
,
01000000
00001000
00010000
00000010
00001000
00000000
00000101
00000000
,
00000010
00000100
00010000
00001000
00000100
00000010
00010000
00001000
,
00100000
01000000
10000000
00010000
01000000
00001000
00010000
00000000
,
00001100
00000011
00001010
00000101
,
00000100
00000010
00010000
00000100
00001000
00000000
00011000
00000000
,
01010000
01000000
00100000
10000000
01000000
00100000
00001000
00000000
,
00010000
00000100
00001000
00000100
00000001
00000100
00001100
00000000
,
00000010
00000100
00001000
00000100
00010000
00001000
01000000
00010000
,
00100000
00010000
10000000
01000000
00100000
00010000
01100000
00000000
,
00002000
00000000
00000000
00000000
00013000
00000100
00000000
00001000
00000000
00000100
00000010
00000000
00000000
00000000
00000001
00000010
,
00000100
00000000
00000000
00000000
00000100
00010000
00000000
00020000
00000000
00000000
00000000
00000000
00000000
00000000
00000000
00000000
,
01030000
10000000
00100000
01000000
00001000
00010000
01000000
00100000
,
00001000
00010000
00000010
00001000
00000100
00001000
00000001
00000000
,
00000010
00000100
00001000
00001000
00000100
00010000
00001000
00100000
,
01000000
01000000
10000000
00100000
01000000
00001000
00010000
00000000
,
00001000
00000100
00000001
00000000
00000001
00000100
00001000
00000000
,
00000100
00000001
00000010
00001000
00010000
00000000
00011000
00010000
,
01000000
00000000
10000000
00000000
00100000
00000000
01000000
00010000
00000000
00100000
00000000
00001000
00000000
00010000
00000000
00000100
,
00001000
00000000
00000010
00000100
00000000
00000001
00000000
00000000
00000010
00000000
00000100
00001000
00000000
00000000
00000000
00000000
,
00000100
00000000
00010000
00000000
00001000
00000000
00100000
00020000
00000000
00000000
00000000
00000000
01030000
00000000
00100000
00000000
,
10000000
00000000
01000000
00000000
00100000
00000000
00001000
00020000
00000000
00000000
00000000
00000000
00030100
00000000
00000000
00000000
,
00001000
00000100
00000001
00000100
00001000
00000010
00000001
00000010
,
00000100
00001000
00010000
00001000
00010000
00000000
01010000
00000000
,
10000000
00010000
01000000
10000000
01000000
00010000
00100000
00001000
,
00010000
00001000
00000100
00000001
00000010
00000100
00001000
00000000
,
00000010
00000010
00000200
00000000
00000301
00000001
00000020
00000000
,
00000130
00000100
00010000
00010000
00001000
00000000
00110000
00000000
,
10000000
10000000
00200000
00000000
01300000
01000000
00020000
00000000
,
00130000
00000000
00001000
00000000
00010000
00000000
00000100
00000000
00001000
00000000
00000000
00000001
00000100
00000000
00000000
00000000
,
00000010
00000010
00000100
00000100
00000001
00001000
00000100
00000100
,
00010000
00001000
00100000
00100000
00010000
10000000
01000000
00000000
,
10000000
00100000
01000000
01000000
00001000
00010000
00000100
00000100
,
00001000
00000010
00000100
00000001
00000010
00000000
00000100
00000000
,
00001000
00000000
00010000
00000000
01000000
00000000
10000000
01000000
,
10000000
01000000
00010000
00100000
01000000
00010000
00001000
00010000
,
00000100
00001000
00000010
00001000
00000100
00000001
00000100
00001000
,
00000010
00000100
00000001
00000100
00001000
00010000
01000000
00100000
,
00010000
10000000
01000000
10000000
00100000
01000000
01010000
00000000
,
11000000
01000000
00010000
01000000
10000000
00100000
01000000
00001000
,
00010000
00000010
00000100
00000001
00001000
00000100
00000010
00000001
,
00000010
00001000
00010000
00001000
00010000
01000000
10000000
00100000
,
01000000
00001000
00010000
01000000
10000000
00100000
01100000
00000000
,
00020000
00000000
00000000
00000000
,
00030000
00000000
00000000
00000000
;
