#TITLE:Cish Cash;
#ARTIST:Basement Jaxx feat. Souixsie Sioux;
#BANNER:Cish Cash.png;
#BACKGROUND:Cish Cash-bg.png;
#MUSIC:Cish Cash.ogg;
#SAMPLESTART:26.498;
#SAMPLELENGTH:15;
#DISPLAYBPM:154;
#BPMS:0=153.976;
#BGCHANGES:3=Cish Cash.avi=1=0=0=0;

//---------------dance-single - ----------------
#NOTES:
     dance-single:
     :
     Beginner:
     1:
     :
0000
0000
0000
0000
,
0000
0000
0000
0000
,
0000
0000
0000
0000
,
0000
0000
0000
0000
,
0000
0000
0000
0000
,
0002
0000
0000
0003
,
0000
0000
0000
0000
,
2000
0000
0000
3000
,
0000
0000
0000
0000
,
0010
0000
0000
0000
,
0100
0000
0100
0000
,
0010
0000
0000
0000
,
0001
0000
0001
0000
,
0100
0000
0000
0000
,
1000
0000
1000
0000
,
0010
0000
0000
0000
,
0100
0000
0010
0000
,
0100
0000
0000
0000
,
1000
0000
1000
0000
,
0001
0000
0000
0000
,
0010
0000
0010
0000
,
0100
0000
0000
0000
,
1000
0000
1000
0000
,
0010
0000
0000
0000
,
0001
0000
0010
0000
,
1000
0000
0100
0000
,
1000
0000
0100
0000
,
0001
0000
0100
0000
,
0001
0000
0100
0000
,
0010
0000
0000
0000
,
0100
0000
0000
0000
,
0010
0000
0010
0000
,
0100
0000
0100
0000
,
1001
0000
0000
0000
,
0010
0000
0100
0000
,
0001
0000
0000
0000
,
1000
0000
0000
0000
,
0110
0000
0000
0000
,
1000
0000
0001
0000
,
0100
0000
0010
0000
,
0100
0000
1000
0000
,
0002
0000
0000
0003
,
0000
0000
0000
0000
,
0200
0000
0000
0300
,
0000
0000
0000
0000
,
0010
0000
0000
0000
,
0100
0000
0000
0000
,
1000
0000
0000
0000
,
0100
0000
0010
0000
,
0001
0000
0000
0000
,
0100
0000
0100
0000
,
0010
0000
0000
0000
,
1000
0000
1000
0000
,
0100
0000
0000
0000
,
0010
0000
0010
0000
,
0001
0001
0001
0000
,
1000
0000
0100
0000
,
1000
0000
0000
0000
,
0010
0000
0100
0000
,
0010
0000
0000
0000
,
0001
0000
0100
0000
,
1000
0000
0000
0000
,
0010
0000
0100
0000
,
0010
0000
0000
0000
,
0001
0000
1000
0000
,
0100
0000
0000
0000
;

//---------------dance-single - ----------------
#NOTES:
     dance-single:
     :
     Easy:
     3:
     :
0000
0000
0000
0000
,
0000
0000
0000
0000
,
0000
0000
0000
0000
,
0000
0000
0000
0000
,
0000
0000
0000
0000
,
1000
0000
0001
0000
,
1000
0000
0001
0000
,
1000
0000
0001
0000
,
1000
1000
0010
0100
,
0001
0010
0100
1000
,
0001
0000
0100
0100
,
0020
1030
0100
0001
,
0010
1000
0200
0300
,
0010
0010
0100
1000
,
1001
0000
1001
0000
,
1000
0010
1000
0010
,
0100
0100
0100
0100
,
1000
0100
0010
0001
,
1000
0000
0010
0010
,
0200
0301
0010
1000
,
0100
0001
0020
0030
,
0100
0100
0010
0001
,
1001
0000
1001
0000
,
0100
0010
0100
0010
,
1000
1000
1000
1000
,
1001
0000
2000
3100
,
1000
0010
0010
0001
,
1001
0000
0002
0103
,
0001
0100
0100
1000
,
0110
0000
2000
3010
,
0100
0100
0001
0010
,
0200
0000
1300
0010
,
0002
0003
2000
3000
,
0200
0000
0310
0000
,
0200
0000
0301
0000
,
0010
0010
0010
0010
,
0100
0100
0010
0100
,
0002
0000
0103
0000
,
0002
0000
0013
0000
,
1000
1000
1000
1000
,
0001
0001
1000
0001
,
1001
0000
0000
0000
,
0100
0000
0010
0000
,
1001
0000
0000
0000
,
0010
0000
0100
0000
,
2000
0000
3000
0000
,
0002
0000
0003
0000
,
0100
0100
0100
0000
,
0010
0010
0010
0000
,
1000
0100
0010
0001
,
2000
0000
3010
0000
,
0001
0100
0010
1000
,
0002
0000
0103
0000
,
1000
0010
0001
0100
,
0110
0000
1001
0000
,
0010
0010
0010
0010
,
0100
0100
0100
1000
,
1001
0000
0010
0100
,
1000
0010
0010
0001
,
1001
0000
0010
0100
,
0001
0100
0100
1000
,
0110
0000
1000
0010
,
0100
0100
0001
0010
,
0100
0010
0001
1000
,
0010
0010
0100
0002
,
1003
0000
0000
0000
;

//---------------dance-single - ----------------
#NOTES:
     dance-single:
     :
     Medium:
     5:
     :
0000
0000
0000
0000
,
0000
0000
0000
0000
,
0000
0000
0000
0000
,
0000
0000
0000
0000
,
0000
0000
0000
0000
,
1001
0000
0000
1000
,
0001
0000
0100
0010
0000
0000
1000
0000
,
0100
0010
0200
0000
0000
0000
1300
0000
,
0001
1000
0002
0000
0000
0000
0103
0000
,
0020
0000
0000
1030
,
0100
0000
0001
0000
0100
1000
0100
0000
,
2000
0000
0000
3010
,
0100
0000
0001
0000
0010
0100
0010
0000
,
1000
0100
1000
0001
,
0100
0000
0001
0000
1000
0001
1000
0000
,
2000
0000
3010
0000
0001
0000
1000
0001
,
1000
1000
0010
0010
,
0200
0001
0010
0301
,
0010
0000
1000
0000
0010
0001
0010
0000
,
0002
0100
1000
0103
,
0010
0000
1000
0000
0100
0010
0100
0000
,
0001
0010
0001
1000
,
0010
0000
1000
0000
0001
1000
0001
0000
,
0200
0000
0310
0000
1000
0100
1000
0000
,
0010
0000
0010
0000
0001
1000
0001
0000
,
0110
0000
1000
0100
,
0110
0000
0000
0000
0001
0100
0001
0000
,
1001
0000
1000
0100
,
1001
0000
0000
0000
0001
0010
0001
0000
,
0110
0000
1000
0010
,
0110
0000
0000
0000
0100
0001
0100
0000
,
1100
0101
0010
0100
,
1000
0100
0010
0000
1000
0100
0010
0001
,
2000
0000
0000
0010
0000
0000
0000
0000
3010
0000
0000
0000
0000
0000
0000
0000
,
1000
0000
0000
0001
0000
0000
0000
0000
1001
0000
0000
0000
0000
0000
0000
0000
,
0100
1000
0010
0000
0100
0000
0100
0000
,
0001
0100
0010
0000
0001
0100
0010
1000
,
0200
0000
0000
0001
0000
0000
0000
0000
0301
0000
0000
0000
0000
0000
0000
0000
,
0100
0000
0000
0010
0000
0000
0000
0000
1001
0000
0000
0000
0000
0000
0000
0000
,
1000
0010
0100
0000
0010
0000
0010
0000
,
1000
0100
1000
0000
0001
0100
0001
0100
,
0010
1000
0000
1000
,
0000
0100
0000
0010
,
0000
0001
0000
0001
,
0000
0100
0000
0010
,
2000
0000
0000
0000
,
3010
0100
0010
0100
,
0001
0100
0001
0000
1000
0000
1100
0000
,
0100
0010
0100
0010
0100
0010
0100
0000
,
1000
0001
0100
0010
,
1000
0000
0000
0110
0000
0000
0001
0000
,
1000
0010
0001
1000
,
0001
0000
0000
0110
0000
0000
1000
0000
,
0010
1000
0010
0100
,
0010
0000
0000
1001
0000
0000
0110
0000
,
1000
0100
1000
0000
0001
0100
0001
0000
,
1000
0100
0010
0001
1000
0100
0010
0001
,
0010
0100
1000
0001
,
0100
0010
1000
0100
,
1000
0100
1000
0000
0001
0100
0001
0000
,
1000
0100
1000
0100
1000
0100
1000
0000
,
0001
0010
0100
1000
,
0010
0100
1000
0100
,
0001
0010
0100
1000
,
0001
0000
0100
0000
0010
1000
0002
0000
,
0103
0000
0000
0000
;

//---------------dance-single - ----------------
#NOTES:
     dance-single:
     :
     Hard:
     8:
     :
0000
0000
0000
0000
,
0000
0000
0000
0000
,
0000
0000
0000
0000
,
0000
0000
0000
0000
,
0000
0000
0000
0000
,
1000
0100
1000
0100
2000
0000
3010
0000
,
0100
0000
0001
0010
0000
0000
1001
0000
,
0001
0010
0100
0000
1000
0000
1000
0000
,
0100
1000
0010
0100
0001
1000
0100
0000
,
1000
0000
0100
0000
0001
0100
0010
0000
,
0001
0000
1000
0200
0000
0000
0310
0000
,
0001
0000
0100
0000
0010
0100
0001
0000
,
0010
0100
1000
0000
0100
1000
0010
0000
,
0001
0000
0100
0000
1000
0100
0010
0000
,
1000
0000
0001
0200
0000
0000
0310
0000
,
0100
0001
0010
0000
0100
0000
0100
0000
,
1000
0100
0010
0001
1000
0100
0010
0000
,
0001
0000
1000
0000
0010
0100
0001
0000
,
0001
0100
1000
0000
0002
0000
0003
0000
,
0010
0000
0100
0000
1000
0001
1000
0000
,
1000
0100
0010
0000
0200
0000
0300
0000
,
0010
0001
0100
0000
0010
0000
1000
0000
,
0100
0000
0010
0001
0000
0000
0110
0000
,
0010
0001
0010
0001
0020
0000
0130
0000
,
1000
0001
1000
0001
1000
0010
0100
0001
,
1000
1000
1000
0000
0220
0000
0330
0000
,
0100
0001
1000
0000
0001
0000
0101
0000
,
0100
0100
0100
0000
2002
0000
3003
0000
,
0010
0100
1000
0000
1001
0000
1001
0000
,
0010
0010
0010
0000
2100
0000
3001
0000
,
0100
0010
1000
0000
0001
0000
0110
0000
,
1000
0100
1000
0100
2000
0000
3010
0000
,
0100
0001
0010
0100
0010
0001
1000
0000
,
0100
0000
0000
1000
0000
0000
0010
0000
0101
0000
0000
0100
0000
0000
0000
0000
,
0010
0000
0000
0100
0000
0000
0001
0000
1000
0000
0000
1000
0000
0000
0000
0000
,
0001
0100
0001
0100
0001
0100
0010
0000
,
1000
0100
1000
0000
0001
0100
0001
0000
,
0100
0000
0000
0001
0000
0000
0010
0000
1100
0000
0000
0100
0000
0000
0000
0000
,
1000
0000
0000
0001
0000
0000
0010
0000
0100
0000
0000
0100
0000
0000
0000
0000
,
1000
0100
1000
0100
0010
0001
1000
0000
,
0010
1000
0100
0010
0001
0100
0010
0100
,
0002
0000
0000
0000
,
0103
0100
0100
0100
,
0200
0000
0000
0000
,
1300
1000
1000
1000
,
0010
0100
0001
0010
,
1000
0100
0001
0010
,
0100
1000
0100
0000
0010
0001
0010
0000
,
0100
1000
0010
0100
0001
0010
0100
1000
,
1000
0000
1000
0000
0010
0100
0001
0010
,
0100
0000
0100
0000
1000
0001
1000
0001
,
1000
0000
1000
0000
0010
0100
0001
0000
,
0010
0000
0010
0100
1000
0100
1000
0100
,
1000
0000
1000
0000
0001
0010
0100
0010
,
0001
0000
0001
0000
0100
0010
0100
0010
,
0110
0110
0110
1001
,
1000
0100
0010
0001
1000
0100
0010
0001
,
2000
3100
0020
0130
,
0001
0000
1000
0100
0000
0000
0110
0000
,
0002
1003
0200
1300
,
0010
0000
0000
0100
0001
0000
1001
0000
,
1000
0100
0001
0010
,
1010
1100
0101
0011
,
1000
0100
1000
0000
0100
0000
0100
0000
,
0001
0100
0001
0000
0010
0000
0100
0000
,
1001
0000
0000
0000
;

//---------------dance-double - ----------------
#NOTES:
     dance-double:
     :
     Beginner:
     1:
     :
00000000
00000000
00000000
00000000
,
00000000
00000000
00000000
00000000
,
00000000
00000000
00000000
00000000
,
00000000
00000000
00000000
00000000
,
00000000
00000000
00000000
00000000
,
00002000
00000000
00000000
00003000
,
00000000
00000000
00000000
00000000
,
00000002
00000000
00000000
00000003
,
00000000
00000000
00000000
00000000
,
00000010
00000000
00000000
00000000
,
00000100
00000000
00000100
00000000
,
00010000
00000000
00000000
00000000
,
00001000
00000000
00001000
00000000
,
01000000
00000000
00000000
00000000
,
00100000
00000000
00100000
00000000
,
10000000
00000000
00000000
00000000
,
00010000
00000000
10000000
00000000
,
00010000
00000000
00000000
00000000
,
00100000
00000000
00100000
00000000
,
00001000
00000000
00000000
00000000
,
00010000
00000000
00010000
00000000
,
00000100
00000000
00000000
00000000
,
00001000
00000000
00001000
00000000
,
00000010
00000000
00000000
00000000
,
00000001
00000000
00000100
00000000
,
00000010
00000000
00001000
00000000
,
00010000
00000000
01000000
00000000
,
00100000
00000000
10000000
00000000
,
01000000
00000000
10000000
00000000
,
00010000
00000000
00000000
00000000
,
00100000
00000000
00000000
00000000
,
00001000
00000000
00001000
00000000
,
00010000
00000000
00010000
00000000
,
00011000
00000000
00000000
00000000
,
00010000
00000000
00000100
00000000
,
00000010
00000000
00000000
00000000
,
00000100
00000000
00000000
00000000
,
00000110
00000000
00000000
00000000
,
00000001
00000000
00001000
00000000
,
00000100
00000000
00000010
00000000
,
00000100
00000000
00010000
00000000
,
00002000
00000000
00000000
00003000
,
00000000
00000000
00000000
00000000
,
00020000
00000000
00000000
00030000
,
00000000
00000000
00000000
00000000
,
01000000
00000000
00000000
00000000
,
00100000
00000000
00000000
00000000
,
00010000
00000000
00000000
00000000
,
01000000
00000000
00100000
00000000
,
00010000
00000000
00000000
00000000
,
10000000
00000000
10000000
00000000
,
00010000
00000000
00000000
00000000
,
01000000
00000000
01000000
00000000
,
00010000
00000000
00000000
00000000
,
00100000
00000000
00100000
00000000
,
00001000
00001000
00001000
00000000
,
00010000
00000000
00000100
00000000
,
00010000
00000000
00000000
00000000
,
00000100
00000000
00000010
00000000
,
00000100
00000000
00000000
00000000
,
00001000
00000000
00000010
00000000
,
00000001
00000000
00000000
00000000
,
00000010
00000000
00000100
00000000
,
00000010
00000000
00000000
00000000
,
00010000
00000000
00001000
00000000
,
00010000
00000000
00000000
00000000
;

//---------------dance-double - ----------------
#NOTES:
     dance-double:
     :
     Easy:
     3:
     :
00000000
00000000
00000000
00000000
,
00000000
00000000
00000000
00000000
,
00000000
00000000
00000000
00000000
,
00000000
00000000
00000000
00000000
,
00000000
00000000
00000000
00000000
,
00010000
00000000
00000100
00000000
,
00001000
00000000
01000000
00000000
,
00010000
00000000
00000100
00000000
,
00001000
00001000
00000010
00000100
,
00000001
00000100
00001000
00010000
,
00100000
00000000
10000000
10000000
,
00020000
10030000
01000000
00100000
,
00001000
00010000
00000200
00000300
,
00000010
00000010
00000001
00001000
,
00001001
00000000
00001001
00000000
,
00000100
00000010
00000100
00000010
,
00010000
00010000
00010000
00010000
,
00001000
01000000
00100000
10000000
,
01000000
00000000
00100000
00100000
,
00020000
00031000
00010000
00001000
,
00000100
00000010
00000002
00000003
,
00001000
00001000
00000010
00000100
,
00000110
00000000
00000110
00000000
,
00010000
00001000
00010000
00001000
,
00010000
00010000
00010000
00010000
,
00011000
00000000
00200000
00310000
,
01000000
00100000
00100000
01000000
,
01100000
00000000
20000000
31000000
,
00010000
00100000
00100000
00001000
,
00011000
00000000
00020000
00030100
,
00001000
00001000
00000010
00000100
,
00000002
00000000
00000013
00000100
,
00002000
00003000
00000020
00000030
,
00000200
00000000
00010300
00000000
,
02000000
00000000
03100000
00000000
,
10000000
10000000
10000000
10000000
,
01000000
01000000
00100000
10000000
,
00020000
00000000
00130000
00000000
,
00002000
00000000
00013000
00000000
,
00000100
00000100
00000100
00000100
,
00000010
00000010
00000100
00000010
,
00000110
00000000
00000000
00000000
,
00000001
00000000
00001000
00000000
,
00001100
00000000
00000000
00000000
,
00010000
00000000
00001000
00000000
,
00200000
00000000
00300000
00000000
,
00020000
00000000
00030000
00000000
,
10000000
01000000
10000000
00000000
,
00100000
01000000
00100000
00000000
,
01000000
00010000
00100000
00001000
,
00020000
00000000
00031000
00000000
,
00010000
00000100
00001000
00000001
,
00000200
00000000
00000310
00000000
,
00000001
00000100
00001000
00010000
,
00011000
00000000
00110000
00000000
,
00100000
00010000
00100000
01000000
,
10000000
00100000
10000000
00010000
,
01100000
00000000
00100000
00001000
,
00010000
00001000
00001000
00000010
,
00000110
00000000
00000100
00001000
,
00000001
00000100
00000100
00000010
,
00000110
00000000
00010000
00001000
,
01000000
01000000
00100000
10000000
,
00100000
01000000
00010000
00100000
,
00001000
00001000
00010000
00002000
,
00003100
00000000
00000000
00000000
;

//---------------dance-double - ----------------
#NOTES:
     dance-double:
     :
     Medium:
     6:
     :
00000000
00000000
00000000
00000000
,
00000000
00000000
00000000
00000000
,
00000000
00000000
00000000
00000000
,
00000000
00000000
00000000
00000000
,
00000000
00000000
00000000
00000000
,
00001001
00000000
00000000
00000100
,
00000010
00000000
00010000
00001000
00000000
00000000
00010000
00000000
,
01000000
00100000
00020000
00000000
00000000
00000000
01030000
00000000
,
00100000
10000000
02000000
00000000
00000000
00000000
03100000
00000000
,
00020000
00000000
00000000
00031000
,
00000100
00000000
00001000
00000000
00000010
00000100
00000010
00000000
,
00002000
00000000
00000000
00003001
,
00000010
00000000
00000001
00000000
00000100
00001000
00000100
00000000
,
00010000
01000000
00100000
10000000
,
01000000
00000000
00100000
00000000
01000000
00100000
01000000
00000000
,
00200000
00000000
00301000
00000000
00010000
00000000
00001000
00000100
,
00001000
00000010
00000100
00000100
,
00000002
00000010
00001000
00000013
,
00000100
00000000
00010000
00000000
00001000
00010000
00001000
00000000
,
02000000
00010000
00100000
03010000
,
00100000
00000000
01000000
00000000
10000000
00100000
10000000
00000000
,
01000000
00010000
00100000
00010000
,
00001000
00000000
00000100
00000000
00000010
00000100
00000010
00000000
,
00000002
00000000
00001003
00000000
00000010
00000100
00000010
00000000
,
00010000
00000000
00010000
00000000
00001000
00010000
00001000
00000000
,
00011000
00000000
01000000
00010000
,
01010000
00000000
00000000
00000000
10000000
00100000
10000000
00000000
,
10100000
00000000
00000000
01000000
00000000
00000000
00010000
00000000
,
00110000
00000000
00000000
00000000
00001000
00010000
00001000
00000000
,
00011000
00000000
00000100
00001000
,
00001100
00000000
00000000
00000000
00000010
00000100
00000010
00000000
,
00000011
00001010
00000001
00000100
,
00000010
00000100
00001000
00000000
00010000
00100000
01000000
00010000
,
00200000
00000000
00000000
01000000
00000000
00000000
00000000
00000000
01300000
00000000
00000000
00000000
00000000
00000000
00000000
00000000
,
10000000
00000000
00000000
01000000
00000000
00000000
00000000
00000000
11000000
00000000
00000000
00000000
00000000
00000000
00000000
00000000
,
00010000
00100000
00001000
00000000
00010000
00000000
00010000
00000000
,
00001000
00000100
00000010
00000000
00000100
00000001
00000010
00000100
,
00020000
00000000
00000000
00001000
00000000
00000000
00000000
00000000
00031000
00000000
00000000
00000000
00000000
00000000
00000000
00000000
,
00100000
00000000
00000000
00010000
00000000
00000000
00000000
00000000
00110000
00000000
00000000
00000000
00000000
00000000
00000000
00000000
,
01000000
00100000
00010000
00000000
10000000
00000000
10000000
00000000
,
00100000
01000000
00100000
00000000
01000000
00001000
01000000
00001000
,
00010000
00001000
00000000
00000100
,
00000000
00000010
00000000
00001000
,
00000000
00000100
00000000
00000100
,
00000000
00000010
00000000
00000001
,
00000200
00000000
00000000
00000000
,
00000310
00001000
00000100
00010000
,
00001000
00010000
00001000
00000000
00100000
00000000
00110000
00000000
,
00010000
00100000
00010000
00100000
00010000
00100000
00010000
00000000
,
10000000
00100000
01000000
00010000
,
10000000
00000000
00000000
01100000
00000000
00000000
00010000
00000000
,
00001000
00000010
00000100
00000001
,
00000100
00000000
00000000
00000110
00000000
00000000
00010000
00000000
,
00001000
01000000
00100000
10000000
,
01000000
00000000
00000000
00110000
00000000
00000000
00011000
00000000
,
00001000
00010000
00001000
00000000
00000100
00000010
00000100
00000000
,
00000001
00000010
00000001
00000100
00000010
00001000
00000100
00010000
,
00001000
01000000
00100000
10000000
,
01000000
00100000
01000000
10000000
,
00100000
01000000
00100000
00000000
01000000
00001000
01000000
00000000
,
00001000
00010000
00001000
00010000
00001000
00010000
00001000
00000000
,
00000100
00000001
00000010
00000100
,
00001000
00000001
00000100
00001000
,
00010000
00100000
10000000
01000000
,
10000000
00000000
00010000
00000000
00100000
01000000
20000000
00000000
,
30100000
00000000
00000000
00000000
;

//---------------dance-double - ----------------
#NOTES:
     dance-double:
     :
     Hard:
     8:
     :
00000000
00000000
00000000
00000000
,
00000000
00000000
00000000
00000000
,
00000000
00000000
00000000
00000000
,
00000000
00000000
00000000
00000000
,
00000000
00000000
00000000
00000000
,
00010000
00001000
00010000
00001000
00000200
00000000
00000310
00000000
,
00010000
00000000
01000000
00100000
00000000
00000000
11000000
00000000
,
10000000
01000000
00100000
00000000
00010000
00000000
00010000
00000000
,
00001000
00000100
00000010
00000001
00000100
00000010
00000100
00000000
,
00000001
00000000
00000100
00000000
00001000
00010000
00001000
00000000
,
00010000
00000000
01000000
00200000
00000000
00000000
00310000
00000000
,
01000000
00000000
00100000
00000000
10000000
01000000
00100000
00000000
,
01000000
10000000
00010000
00000000
01000000
00010000
00100000
00000000
,
00001000
00000000
00010000
00000000
00001000
00000100
00000010
00000000
,
00001000
00000000
00000100
00000020
00000000
00000000
00001030
00000000
,
00000010
00000001
00000100
00000000
00000010
00000000
00000010
00000000
,
00000100
00001000
00010000
00100000
10000000
01000000
00010000
00000000
,
01000000
00000000
10000000
00000000
00010000
01000000
00100000
00000000
,
01000000
00001000
00010000
00000000
00002000
00000000
00003000
00000000
,
00010000
00000000
00000100
00000000
00000010
00000100
00000010
00000000
,
00000001
00000100
00000010
00000000
00000200
00000000
00000300
00000000
,
00001000
00010000
01000000
00000000
00100000
00000000
00010000
00000000
,
00100000
00000000
01000000
10000000
00000000
00000000
10100000
00000000
,
01000000
00010000
01000000
00010000
00200000
00000000
00301000
00000000
,
00010000
00001000
00010000
00001000
00010000
00001000
00000100
00000010
,
00001000
00001000
00001000
00000000
00002002
00000000
00003003
00000000
,
00000001
00000100
00001000
00000000
00000100
00000000
00011000
00000000
,
01000000
01000000
01000000
00000000
00220000
00000000
00330000
00000000
,
01000000
10000000
00100000
00000000
01010000
00000000
01010000
00000000
,
00010000
00010000
00010000
00000000
00021000
00000000
00031000
00000000
,
00010000
00001000
00000100
00000000
00000001
00000000
00001001
00000000
,
00000001
00000100
00000001
00000100
00000020
00000000
00001030
00000000
,
00000100
00000010
00010000
00001000
00000100
00001000
00010000
00000000
,
00100000
00000000
00000000
01000000
00000000
00000000
00010000
00000000
00110000
00000000
00000000
01000000
00000000
00000000
00000000
00000000
,
10000000
00000000
00000000
01000000
00000000
00000000
10000000
00000000
00010000
00000000
00000000
00010000
00000000
00000000
00000000
00000000
,
00100000
01000000
00100000
01000000
00100000
01000000
00010000
00000000
,
00001000
00010000
00001000
00000000
00000100
00000010
00000100
00000000
,
00000010
00000000
00000000
00001000
00000000
00000000
00000100
00000000
00011000
00000000
00000000
00000100
00000000
00000000
00000000
00000000
,
00000010
00000000
00000000
00000001
00000000
00000000
00001000
00000000
00000010
00000000
00000000
00000010
00000000
00000000
00000000
00000000
,
00000100
00001000
00000100
00001000
00010000
00100000
01000000
00000000
,
00010000
00100000
01000000
10000000
01000000
10000000
01000000
00100000
,
00020000
00000000
00000000
00000000
,
00031000
00001000
00001000
00001000
,
00000200
00000000
00000000
00000000
,
00000301
00000001
00000001
00000001
,
00000100
00001000
00000010
00000100
,
00010000
01000000
00100000
10000000
,
00010000
10000000
00010000
00000000
01000000
00010000
01000000
00000000
,
00001000
00010000
00001000
00000100
00000001
00000010
00000100
00000010
,
00000010
00000000
00000100
00000000
00001000
00000010
00000100
00010000
,
01000000
00000000
01000000
00000000
00010000
01000000
00010000
01000000
,
00100000
00000000
00100000
00000000
10000000
01000000
00010000
00000000
,
01000000
00000000
01000000
00100000
00010000
00100000
00010000
00100000
,
00010000
00000000
00010000
00000000
00001000
00000100
00000010
00000001
,
00000010
00000000
00000001
00000000
00000100
00000010
00000100
00000010
,
00000110
00001100
00011000
00110000
,
01000000
00100000
00010000
01000000
00100000
10000000
01000000
00100000
,
00002000
00013000
00002000
00003100
,
00000010
00000000
00001000
00000100
00000000
00000000
00001010
00000000
,
00000200
00000301
00000200
00000310
,
00001000
00000000
00000000
00000100
00010000
00000000
00011000
00000000
,
01000000
00100000
00010000
10000000
,
11000000
01010000
00001100
00000101
,
00001000
00000100
00001000
00000000
00000010
00000000
00000010
00000000
,
00000100
00000001
00000100
00000000
00000010
00000000
00001000
00000000
,
00001100
00000000
00000000
00000000
;
