#TITLE:Caught By The Fuzz;
#ARTIST:Supergrass;
#BANNER:Caught By The Fuzz.png;
#BACKGROUND:Caught By The Fuzz-bg.png;
#MUSIC:Caught By The Fuzz.ogg;
#SAMPLESTART:7.342;
#SAMPLELENGTH:15;
#DISPLAYBPM:145:165;
#BPMS:0=163.451,20=162.896,36=162.162,60=160,64=165.138,68=162.162,84=160.356,92=160.714,96=163.636,100=160,108=162.528,116=162.162,120=161.194,132=160.935,145=163.636,148=160.714,152=162.896,164=160.714,180=158.242,188=154.506,196=149.378,200=145.161,204=160.714,212=162.528,220=163.636,224=160,228=162.162,240=159.292,244=160,252=159.645,260=161.435,264=160.356,272=150,273=156.977,276=158.59,284=159.898,291=150,292=164.491;
#BGCHANGES:3.5=Caught By The Fuzz.avi=1=0=0=0;

//---------------dance-single - ----------------
#NOTES:
     dance-single:
     :
     Beginner:
     1:
     :
0000
0000
0000
0000
,
0000
0000
0000
0000
,
0000
0000
0000
0000
,
0010
0000
0000
0000
,
0010
0000
0000
0000
,
1000
0000
0000
0000
,
1000
0000
0000
0000
,
0001
0000
0000
0000
,
0001
0000
0000
0000
,
1000
0000
0000
0000
,
0001
0000
0000
0000
,
1000
0000
0000
0000
,
0001
0000
0000
0000
,
0010
0000
0000
0000
,
0010
0000
0000
0000
,
0100
0000
0000
0000
,
0100
0000
0000
0000
,
1000
0000
0000
0000
,
1000
1000
0000
0000
,
0010
0000
0000
0000
,
0010
0010
0000
0000
,
0001
0000
0000
0000
,
0001
0001
0000
0000
,
0100
0000
0000
0000
,
0100
0000
0000
0000
,
0010
0000
0000
0000
,
0010
0000
0000
0000
,
1000
0000
0000
0000
,
1000
0000
0000
0000
,
0001
0000
0000
0000
,
0001
0000
0000
0000
,
0100
0000
0000
0000
,
0100
0000
0000
0000
,
0010
0000
0000
0000
,
1000
0000
0000
0000
,
0001
0000
0000
0000
,
0100
0000
0000
0000
,
0001
0000
0000
0000
,
0001
0001
0000
0000
,
1000
0000
0000
0000
,
1000
1000
0000
0000
,
0100
0000
0000
0000
,
0100
0100
0000
0000
,
0010
0000
0000
0000
,
0010
0010
0010
0000
,
0100
0000
0000
0000
,
0100
0100
0100
0000
,
1000
1000
0000
0000
,
0001
0001
0000
0000
,
0010
0000
0000
0000
,
0000
0000
0000
0000
,
1000
0000
0000
0000
,
0001
0000
0000
0000
,
0100
0000
0000
0000
,
0010
0000
0000
0000
,
1000
0000
0000
0000
,
0001
0000
0000
0000
,
0010
0000
0000
0000
,
0100
0000
0000
0000
,
1000
0000
0000
0000
,
0001
0000
0000
0000
,
0001
0000
0000
0000
,
1000
0000
0000
0000
,
0010
0000
0000
0000
,
0010
0010
0010
0000
,
0100
0000
0000
0000
,
0100
0100
0100
0000
,
0001
0000
0000
0000
,
1000
0000
0000
0000
,
1001
0000
0000
0000
,
1001
0000
0000
0000
,
1001
0000
0000
0000
,
1001
0000
0000
0000
,
1001
0000
0000
0000
;

//---------------dance-single - ----------------
#NOTES:
     dance-single:
     :
     Easy:
     4:
     :
0000
0000
0000
0000
,
0000
0000
0000
0000
,
0000
0000
0000
0000
,
1000
0100
0010
0001
,
0100
0010
1000
0001
,
1000
0000
0010
1000
,
0001
0000
0010
0100
,
0001
0000
0100
1000
,
0010
0110
0001
1001
,
0100
1000
0100
0000
,
0100
0010
0001
0000
,
0010
1000
0100
0000
,
0100
0110
0001
1001
,
0010
0001
1000
0000
,
0100
0001
1000
0000
,
0010
1001
0010
0010
,
1000
1000
0100
0100
,
0010
0000
0001
0000
,
1000
0000
0100
0000
,
0010
0001
0100
1000
,
0020
0000
0000
0030
,
0001
0001
0100
0100
,
0010
0010
1000
1000
,
1001
0000
1001
0000
,
0010
0100
0010
1001
,
0100
0010
0010
0100
,
0001
1000
1000
0001
,
0010
0001
0001
0010
,
0100
1000
1000
0100
,
0010
0100
0010
1000
,
1000
0001
1000
0001
,
0001
0010
0001
1000
,
1000
0001
0100
1000
,
1000
0100
0010
0001
,
0001
0100
0010
1000
,
1000
0001
0100
0110
,
0001
1001
0100
0110
,
0001
0000
1000
0000
,
0100
0000
0110
0000
,
0100
0001
0010
1000
,
0200
0000
0000
0300
,
0001
0001
0010
0010
,
1000
1000
0100
0100
,
2002
0000
0000
3003
,
0000
0000
0100
0000
,
0220
0000
0000
0330
,
0000
0000
1000
0000
,
0200
0000
0000
0300
,
0020
0000
0000
0030
,
1000
0000
1000
1001
,
0001
0000
0100
0110
,
1000
0010
0001
0000
,
0100
0001
0010
0000
,
1000
0010
0100
0000
,
0010
0100
0010
1000
,
0001
0010
0100
0000
,
0010
1000
0001
0000
,
0001
0010
0001
0000
,
1000
0100
0100
0100
,
0010
0010
0001
0000
,
0010
0010
1000
0000
,
0010
0010
0001
1000
,
0010
0010
0100
0000
,
0020
0030
0200
0300
,
0002
0003
2000
3000
,
0010
0010
0100
0100
,
2002
0000
0000
3003
,
0100
0100
0001
0000
,
1000
1000
0010
0000
,
0001
0000
0100
0000
,
1000
0000
0010
0000
,
1001
0000
0110
0000
,
0110
0000
1001
0000
,
0220
0000
0000
0000
,
0000
0000
0330
0110
;

//---------------dance-single - ----------------
#NOTES:
     dance-single:
     :
     Medium:
     6:
     :
0000
0000
0000
0000
,
0000
0000
0000
0000
,
0000
0000
0000
0000
,
1000
0001
0010
0010
,
0001
1000
0100
0100
,
1000
0000
0100
0000
0010
0001
0010
0000
,
0001
0000
1000
0000
0010
1000
0010
0000
,
0100
0000
0001
0000
1000
0010
1000
0000
,
1000
0000
0001
0000
0001
0010
0001
0010
,
0001
0000
0100
0000
1000
0100
0001
0000
,
0010
0000
0100
0000
1000
0010
0001
0000
,
0010
0000
0100
0000
0001
1000
0001
0000
,
0100
0000
0010
0000
1000
0100
1000
0100
,
1000
0000
0010
0000
0100
0010
1000
0000
,
0100
0000
0010
0000
0001
0100
0010
0000
,
1000
0000
0001
0000
0010
0100
0001
0000
,
0100
0000
1000
0000
0010
0100
1000
0100
,
0001
0000
0000
0001
0100
0000
0000
0100
,
0010
0000
0000
0010
1000
0000
0000
1000
,
0001
1001
1000
1100
,
0012
0000
1000
1003
,
1010
0000
0000
0101
0000
0000
0000
0011
,
0000
0000
0000
1100
0000
0000
0200
0020
,
0000
0000
0000
0000
0000
0000
0000
0000
0330
0000
0000
0000
0000
0000
0000
0000
2002
0000
0000
0000
0000
0000
0000
0000
0000
0000
0000
0000
0000
0000
0000
0000
0000
0000
0000
0000
0000
0000
0000
0000
3003
0000
0000
0000
0000
0000
0000
0000
0000
0220
0000
0000
0000
0000
0000
0000
0000
0000
0000
0000
0000
0000
0000
0000
,
0000
0330
1001
0000
0010
0100
0010
0100
,
0010
0000
1000
0000
0001
0100
0001
0000
,
0010
0000
0001
0000
1000
0100
1000
0000
,
0010
0000
0100
0000
1000
0100
0001
0000
,
0100
0000
0010
0000
1000
0001
0100
0010
,
1000
0000
0010
0000
0001
0010
0100
0000
,
0001
0000
0010
0000
1000
0010
0100
0000
,
1000
0000
0010
0000
0100
1000
0100
0000
,
0001
0000
0010
0000
0001
0100
0010
0100
,
0001
0000
0001
0000
0010
0100
0010
0000
,
0100
0000
1000
0000
0010
0100
0001
0000
,
1000
0000
1000
0000
0100
0001
0100
0000
,
0110
0110
1001
1001
,
0010
0000
0000
0010
1000
0000
0000
1000
,
0100
0000
0000
0100
0001
0000
0000
0100
,
1000
0001
1000
0001
1000
0001
1000
0001
,
0010
0110
1001
1001
,
0010
0000
0000
0110
0000
0000
0000
0011
,
0000
0000
0000
2200
0000
3300
0010
0002
,
1000
1000
1000
1000
,
0010
0013
0101
1010
,
2001
0001
0001
0001
,
0010
3010
1100
0011
,
0001
1000
0001
1000
0010
0000
0100
0000
,
0010
0100
0010
0100
0001
0000
0100
0000
,
1000
0000
0000
0010
0000
0000
0001
0000
,
0000
0100
0000
0000
1001
0000
0110
0000
,
1000
1000
0001
0001
1000
0000
0001
0000
,
0010
0010
0001
0001
0010
0000
0001
0000
,
1000
1000
0100
0100
1000
0000
0100
0000
,
0010
0010
0001
0001
1000
1000
0100
0100
,
0010
0001
0100
0001
1000
0000
1000
0000
,
0010
1000
0100
1000
0001
0000
0100
0000
,
0001
0100
0100
0001
0100
0000
0001
0000
,
1000
0100
0100
1000
0100
0000
1000
0000
,
0010
0001
1000
0001
0010
0000
0011
0000
,
1000
0001
0100
0001
1000
0000
1001
0000
,
0100
1000
0001
1000
0100
0000
1100
0000
,
1001
1010
0110
0101
,
1001
0000
0000
0010
0100
0000
0000
0001
,
1000
0000
0000
0100
0010
0000
0000
0001
,
1000
1000
0001
0001
0100
0100
0010
0010
,
0100
1001
1001
0110
,
1001
0000
0000
0101
0000
0000
0000
1100
,
0000
0000
0000
0110
0000
0000
0010
0100
,
0010
0000
0010
1000
0010
0000
1000
0100
,
1000
0000
1000
0001
1000
0000
0001
1000
,
0001
0000
0001
0100
0001
0000
0100
0010
,
0100
0000
0010
0100
0010
0000
0100
0000
,
2002
0000
0000
0000
,
0000
0000
3003
0110
;

//---------------dance-single - ----------------
#NOTES:
     dance-single:
     :
     Hard:
     9:
     :
0000
0000
0000
0000
,
0000
0000
0000
0000
,
0000
0000
0000
0000
,
1000
0000
0001
0000
1000
0001
1000
0000
,
0010
1000
0100
0010
0001
0100
0010
0000
,
0100
0001
0100
0001
1000
0010
0100
0000
,
0001
0010
0001
0010
0100
1000
0001
0000
,
1000
0010
1000
0010
0100
0001
1000
0000
,
0010
1000
0010
1000
0001
0100
0010
0000
,
0100
0010
0100
0010
0100
0001
1000
0000
,
0100
0010
0100
0010
0100
1000
0010
0000
,
1000
0001
1000
0001
1000
0100
0010
0000
,
0001
1000
0001
1000
0001
0100
1000
0000
,
0100
0001
0010
0001
1000
0001
0010
0000
,
0001
1000
0100
1000
0010
1000
0100
0000
,
0010
0100
0010
0100
0010
0100
0010
0000
,
0011
1001
1010
0110
,
0001
0000
0000
0100
0000
0000
1000
0000
0100
0000
0000
0010
0000
0000
1000
0000
,
0001
1000
0000
2000
0000
3000
1100
0000
,
0010
0100
0010
0100
1000
0001
1000
0001
,
0200
0000
0001
0000
0001
0000
0301
1000
,
0001
1000
0000
0010
0000
0100
0000
0001
,
0000
0010
0000
0200
0000
0000
1300
0002
,
0000
0013
0100
1100
,
0001
0000
0000
0000
1001
0000
0000
0000
0010
0100
0010
0100
0010
0000
0100
0000
,
0010
1000
0001
0100
0001
1000
0010
0000
,
0100
0001
1000
0010
1000
0001
0100
0000
,
0010
1000
0100
0010
0100
1000
0010
0000
,
0100
0010
0001
0010
1000
0010
0100
0010
,
1000
0100
0001
0100
1000
0010
1000
0000
,
0001
0010
1000
0010
0001
0010
0100
0000
,
0010
0001
0100
0001
0010
0001
1000
0000
,
0010
1000
0001
0100
1000
0100
0010
1000
,
0100
0001
0100
0010
0001
0010
1000
0000
,
0010
0001
0100
1000
0100
0010
1000
0000
,
0010
1000
0100
0010
1000
0010
0100
0000
,
0100
0010
1000
0001
0100
0010
0001
1000
,
0001
0000
0000
0100
0000
0000
0010
0000
1000
0000
0000
0100
0000
0000
0010
0000
,
0001
1000
0000
2000
0000
0000
3001
0100
,
0010
0100
0010
0100
0001
0100
0001
0100
,
0020
0000
1030
0020
0000
0000
0130
0010
,
1000
0100
0000
0010
0000
0001
0000
0100
,
0000
0010
0000
2000
0000
0000
3001
0100
,
0020
1000
0000
0001
,
0000
1030
1200
0301
,
0200
0010
0000
0010
,
0000
0310
0021
1030
,
1000
0010
1010
0000
0010
0001
0011
0000
,
0001
0100
0101
0000
0100
1000
1100
0000
,
0100
0000
0100
0010
0000
0010
1000
0000
,
1000
0001
0000
0001
1001
0000
0110
0000
,
0001
0010
0100
0001
0100
0010
0001
0000
,
1000
0010
0100
1000
0100
0001
0010
0000
,
0100
1000
0010
0001
0010
0100
0001
0000
,
0100
1000
0001
0010
1000
0001
0100
1000
,
0100
0010
0100
0001
0100
0010
0100
0000
,
0010
1000
0100
1000
0001
1000
0010
0000
,
1000
0001
0010
1000
0010
0100
1000
0000
,
0001
0010
0100
0001
0100
1000
0010
0001
,
0010
1000
0100
0010
0001
0100
0010
0000
,
1000
0100
1000
0010
0100
0001
1000
0000
,
0001
1000
0001
0100
0010
1000
0010
0000
,
0100
0010
0100
0001
0010
0100
1000
0001
,
0100
0000
0000
1000
0000
0000
0100
0000
0001
0000
0000
0010
0000
0000
1000
0000
,
0010
0100
0000
0200
0000
0000
0310
0001
,
1000
0100
1000
0100
0010
0001
0010
0001
,
0100
0000
1001
0000
0010
0000
1000
0001
,
0100
0010
0000
1001
0000
0100
0000
0110
,
0000
0001
0000
2001
0000
0000
3001
0200
,
0000
0000
1300
0200
0000
0000
0301
0020
,
0000
0000
1030
0020
0000
0000
0031
2000
,
0000
0000
3010
0200
0000
0000
0301
0020
,
0000
0000
0130
1000
0000
0000
1001
0000
,
0220
0000
0000
0000
,
0000
0000
0330
1001
;

//---------------dance-double - ----------------
#NOTES:
     dance-double:
     :
     Beginner:
     1:
     :
00000000
00000000
00000000
00000000
,
00000000
00000000
00000000
00000000
,
00000000
00000000
00000000
00000000
,
10000000
00000000
00000000
00000000
,
00010000
00000000
00000000
00000000
,
10000000
00000000
00000000
00000000
,
01000000
00000000
00000000
00000000
,
00100000
00000000
00000000
00000000
,
00010000
00000000
00000000
00000000
,
01000000
00000000
00000000
00000000
,
10000000
00000000
00000000
00000000
,
01000000
00000000
00000000
00000000
,
00100000
00000000
00000000
00000000
,
00010000
00000000
00000000
00000000
,
00001000
00000000
00000000
00000000
,
00010000
00000000
00000000
00000000
,
00000010
00000000
00000000
00000000
,
00002000
00000000
00000000
00003000
,
00000002
00000000
00000000
00000003
,
00000010
00000010
00000010
00000000
,
00000100
00000100
00000100
00000000
,
00001000
00000000
00000000
00000000
,
00000010
00000000
00000000
00000000
,
00000100
00000000
00000000
00000000
,
00001000
00000000
00000000
00000000
,
00010000
00000000
00000000
00000000
,
00001000
00000000
00000000
00000000
,
01000000
00000000
00000000
00000000
,
00010000
00000000
00000000
00000000
,
10000000
00000000
00000000
00000000
,
00100000
00000000
00000000
00000000
,
01000000
00000000
00000000
00000000
,
00010000
00000000
00000000
00000000
,
00100000
00000000
00000000
00000000
,
00001000
00000000
00000000
00000000
,
00010000
00000000
00000000
00000000
,
00001000
00000000
00000000
00000000
,
00020000
00000000
00000000
00030000
,
00002000
00000000
00000000
00003000
,
00010000
00010000
00010000
00000000
,
00001000
00001000
00001000
00000000
,
00000010
00000000
00000000
00000000
,
00000001
00000000
00000000
00000000
,
00000200
00000000
00000000
00000000
,
00000000
00000300
00000100
00000000
,
00002000
00000000
00000000
00000000
,
00000000
00003000
00001000
00000000
,
00020000
00000000
00000000
00030000
,
02000000
00000000
00000000
03000000
,
10000000
00000000
00000000
00000000
,
00000000
00000000
00100000
00100000
,
00100000
00000000
00000000
00000000
,
01000000
00000000
00000000
00000000
,
00010000
00000000
00000000
00000000
,
10000000
00000000
00000000
00000000
,
01000000
00000000
00000000
00000000
,
00010000
00000000
00000000
00000000
,
00001000
00000000
00000000
00000000
,
00000100
00000000
00000000
00000000
,
00001000
00000000
00000000
00000000
,
00000001
00000000
00000000
00000000
,
00000010
00000000
00000000
00000000
,
00000100
00000000
00000000
00000000
,
00020000
00000000
00000000
00030000
,
00002000
00000000
00000000
00003000
,
00010000
00010000
00010000
00000000
,
00001000
00001000
00001000
00000000
,
00100000
00000000
00000000
00000000
,
01000000
00000000
00000000
00000000
,
00010000
00010000
00000000
00000000
,
00001000
00001000
00000000
00000000
,
00000100
00000100
00000000
00000000
,
00001000
00001000
00000000
00000000
,
00011000
00000000
00000000
00000000
;

//---------------dance-double - ----------------
#NOTES:
     dance-double:
     :
     Easy:
     3:
     :
00000000
00000000
00000000
00000000
,
00000000
00000000
00000000
00000000
,
00000000
00000000
00000000
00000000
,
10000000
00000000
00010000
00000000
,
10000000
00000000
10010000
00000000
,
00100000
00000000
01000000
00000000
,
10000000
00000000
00010000
00000000
,
00100000
00000000
01000000
00000000
,
00010000
00000000
00001000
00000000
,
00000010
00000000
00000100
00000000
,
00001000
00000000
00000001
00000000
,
00000010
00000000
00000100
00000000
,
00010000
00000000
00001000
00000000
,
00010000
00000000
00100000
00000000
,
00010000
00000000
00001000
00000000
,
00000010
00000000
00001000
00000000
,
00010000
00001000
00011000
00000000
,
00010000
00000000
01000000
00000000
,
10000000
00000000
00100000
00000000
,
10010000
00000000
01100000
00000000
,
20020000
00000000
00000000
30030000
,
00100000
00000000
01000000
00000000
,
00010000
00000000
00100000
00000000
,
00001000
00010000
00001000
00010000
,
00000100
00000000
00010000
00000000
,
00001000
00000000
00000100
00000000
,
00001000
00000000
00000010
00000000
,
00000001
00000000
00000010
00000000
,
00000001
00000000
00000100
00000000
,
00001000
00000000
00010000
00000000
,
01000000
00000000
10000000
00000000
,
01000000
00000000
10000000
00000000
,
00100000
00000000
00010000
00000000
,
00001000
00000000
00000100
00000000
,
00001000
00000000
00010000
00000000
,
01000000
00000000
00010000
00000000
,
00001000
00010000
00011000
00000000
,
00001000
00000000
00000010
00000000
,
00000001
00000000
00000100
00000000
,
00000110
00000000
00001001
00000000
,
00000220
00000000
00000000
00000330
,
00000001
00000000
00001000
00000000
,
00000010
00000000
00000100
00000000
,
00001002
00000000
00000100
00000000
,
00001003
00000000
00001001
00000000
,
00000120
00000000
00001000
00000000
,
00000130
00000000
00011000
00000000
,
00010000
00100000
00010000
00000000
,
00100000
10000000
00100000
00000000
,
01100000
00000000
00000000
10010000
,
00000000
00000000
01100000
10010000
,
10000000
00000000
01000000
00000000
,
00100000
00000000
00010000
00000000
,
10000000
00000000
00010000
00000000
,
01000000
00000000
00100000
00000000
,
00010000
00000000
00001000
00000000
,
00000010
00000000
00000100
00000000
,
00001000
00000000
00000001
00000000
,
00000010
00000000
00001000
00000000
,
00010000
00000000
00100000
00000000
,
10000000
00000000
01000000
00000000
,
00010000
00000000
00001000
00000000
,
00010000
00001000
00011000
00000000
,
00010000
00000000
01100000
00000000
,
10000000
00000000
10010000
00000000
,
00010000
00100000
01000000
10000000
,
02200000
00000000
00000000
03300000
,
10010000
00000000
10000000
00000000
,
01100000
00000000
00010000
00000000
,
00011000
00000000
00011000
00000000
,
00000100
00000000
00000110
00000000
,
00000001
00000000
00000110
00000000
,
00001000
00000000
00011000
00000000
,
00022000
00000000
00000000
00000000
,
00000000
00000000
00033000
00011000
;

//---------------dance-double - ----------------
#NOTES:
     dance-double:
     :
     Medium:
     6:
     :
00000000
00000000
00000000
00000000
,
00000000
00000000
00000000
00000000
,
00000000
00000000
00000000
00000000
,
00010000
10000000
00100000
00100000
,
00010000
00001000
00000100
00000100
,
00000001
00000000
00000100
00000000
00000010
00001000
00000010
00000000
,
00001000
00000000
00000001
00000000
00000010
00000001
00000010
00000000
,
00000100
00000000
00001000
00000000
00000001
00000010
00000001
00000000
,
00000001
00000000
00001000
00000000
00001000
00000010
00010000
00001000
,
00010000
00000000
01000000
00000000
10000000
01000000
00010000
00000000
,
01000000
00000000
00100000
00000000
10000000
00100000
00010000
00000000
,
00100000
00000000
01000000
00000000
10000000
00010000
10000000
00000000
,
01000000
00000000
00100000
00000000
00001000
00010000
00001000
00010000
,
00001000
00000000
00000100
00000000
00000010
00000100
00000001
00000000
,
00000010
00000000
00000100
00000000
00001000
00000010
00000100
00000000
,
00000001
00000000
00001000
00000000
00000100
00000010
00001000
00000000
,
00000010
00000000
00000001
00000000
00000100
00000010
00000001
00000010
,
00001000
00000000
00000000
00000100
00010000
00000000
00000000
00001000
,
00100000
00000000
00000000
00010000
00100000
00000000
01000000
00000000
,
10000000
10010000
00010000
01010000
,
00120000
00000000
10000000
10030000
,
10100000
00000000
00000000
01010000
00000000
00000000
00000000
00110000
,
00000000
00000000
00000000
11000000
00000000
00000000
02000000
00200000
,
00000000
03300000
00220000
00000000
00000000
00330000
00022000
00000000
,
00000000
00033000
00011000
00000000
00001000
00010000
00001000
00010000
,
00001000
00000000
00000010
00000000
00000001
00000100
00000001
00000000
,
00000010
00000000
00000001
00000000
00001000
00000100
00001000
00000000
,
00000010
00000000
00000100
00000000
00001000
00000100
00000001
00000000
,
00000100
00000000
00000010
00000000
00001000
00000001
00000100
00001000
,
00010000
00000000
00100000
00000000
00010000
00100000
01000000
00000000
,
00010000
00000000
00100000
00000000
10000000
00100000
01000000
00000000
,
10000000
00000000
00100000
00000000
01000000
10000000
01000000
00000000
,
00010000
00000000
00100000
00000000
00001000
01000000
00010000
01000000
,
00001000
00000000
00010000
00000000
00000010
00000100
00000010
00000000
,
00000100
00000000
00000001
00000000
00000010
00000100
00001000
00000000
,
00000001
00000000
00000001
00000000
00000100
00001000
00000100
00000000
,
00000110
00000110
00001001
00001001
,
00001000
00000000
00000000
00000010
00010000
00000000
00000000
00001000
,
01000000
00000000
00000000
00010000
10000000
00000000
00000000
01000000
,
10000000
00010000
10000000
00010000
10000000
00010000
10000000
00010000
,
00100000
01100000
10010000
10010000
,
00100000
00000000
00000000
01100000
00000000
00000000
00000000
00110000
,
00000000
00000000
00000000
22000000
00000000
33000000
00100000
00020000
,
10000000
10000000
10000000
10000000
,
00100000
00130000
01010000
10100000
,
00200000
01000000
01000000
01000000
,
10000000
10300000
11000000
00110000
,
00001000
00100000
00001000
00100000
00001000
00000000
00010000
00000000
,
00000010
00010000
00000010
00010000
00000010
00000000
00001000
00000000
,
00000001
00000000
00000000
00000010
00000000
00000000
00001000
00000000
,
00000000
00000010
00000000
00000000
00001001
00000000
00000110
00000000
,
00000001
00000001
00001000
00001000
00000001
00000000
00001000
00000000
,
00000010
00000010
00001000
00001000
00000010
00000000
00001000
00000000
,
00000001
00000001
00000100
00000100
00000001
00000000
00000100
00000000
,
00000010
00000010
00010000
00010000
00001000
00001000
01000000
01000000
,
00100000
10000000
01000000
10000000
00010000
00000000
00010000
00000000
,
00100000
00010000
01000000
00010000
10000000
00000000
01000000
00000000
,
10000000
01000000
01000000
10000000
01000000
00000000
10000000
00000000
,
00010000
01000000
01000000
00010000
01000000
00000000
00010000
00000000
,
00100000
00001000
00010000
00001000
00100000
00000000
00101000
00000000
,
00010000
00000100
00001000
00000100
00010000
00000000
00010100
00000000
,
00001000
00000100
00010000
00001000
00100000
00000000
00110000
00000000
,
10010000
10100000
01100000
01010000
,
10010000
00000000
00000000
00100000
01000000
00000000
00000000
00010000
,
10000000
00000000
00000000
01000000
00100000
00000000
00000000
00010000
,
10000000
10000000
00010000
00010000
01000000
01000000
00100000
00100000
,
01000000
10010000
10010000
01100000
,
10010000
00000000
00000000
01010000
00000000
00000000
00000000
11000000
,
00000000
00000000
00000000
01100000
00000000
00000000
00100000
01000000
,
00100000
00000000
00100000
00010000
00100000
00000000
00100000
00001000
,
00100000
00000000
00001000
00010000
00001000
00000000
00010000
00001000
,
00010000
00000000
00010000
00000100
00010000
00000000
00000100
00001000
,
00000100
00000000
00000100
00000010
00000100
00000000
00000010
00000000
,
00002002
00000000
00000000
00000000
,
00000000
00000000
00003003
00000110
;

//---------------dance-double - ----------------
#NOTES:
     dance-double:
     :
     Hard:
     8:
     :
00000000
00000000
00000000
00000000
,
00000000
00000000
00000000
00000000
,
00000000
00000000
00000000
00000000
,
00010000
00100000
10000000
01000000
,
10000000
01000000
00010000
01000000
10000000
00100000
10000000
00000000
,
01000000
00010000
01000000
00100000
00010000
01000000
10000000
00000000
,
01000000
00010000
00100000
00010000
01000000
00010000
10000000
00000000
,
00100000
10000000
01000000
00010000
01000000
10000000
00100000
00000000
,
00010000
00100000
00010000
00001000
00010000
00001000
00000010
00000000
,
00000001
00000010
00000001
00000100
00001000
00000100
00000001
00000000
,
00000010
00000001
00000100
00000001
00001000
00000010
00001000
00000000
,
00000100
00001000
00000100
00000001
00000100
00001000
00000001
00000000
,
00000010
00001000
00000010
00001000
00010000
00001000
00010000
00000000
,
00100000
00010000
00001000
00010000
00001000
00000100
00001000
00000000
,
00010000
00001000
00010000
01000000
00010000
00001000
00010000
00000000
,
00001000
00000100
00001000
00010000
00001000
00010000
00001000
00000000
,
00000010
00001000
00010000
01000000
10000000
01000000
11000000
00000000
,
10000000
00000000
00000000
01000000
00000000
00000000
00010000
00000000
01000000
00000000
00000000
10000000
00000000
00000000
00100000
00000000
,
00010000
00100000
00000000
20000000
00000000
00000000
30000000
00000000
,
00100000
00010000
00001000
00000010
00000001
00000100
00001000
00010000
,
00002000
00000000
00010000
00000000
00010000
00000000
00013000
00100000
,
10000000
00100000
00000000
10000000
00000000
01000000
00000000
10000000
,
00000000
01000000
00000000
00020000
00000000
00000000
00031000
00010000
,
00001000
00011000
00000100
00001100
,
00000001
00000000
00000000
00000000
00000101
00000000
00000000
00000000
00000010
00001000
00000010
00001000
00000010
00000000
00001000
00000000
,
00000010
00001000
00000100
00000010
00000001
00001000
00000100
00000000
,
00000010
00000001
00000100
00001000
00000100
00000001
00001000
00000000
,
00000010
00001000
00000100
00001000
00000001
00000010
00000100
00000000
,
00001000
00000100
00010000
00001000
00010000
00001000
00100000
00010000
,
10000000
00100000
10000000
01000000
00100000
00010000
10000000
00000000
,
00100000
10000000
01000000
00100000
00010000
00100000
10000000
00000000
,
00100000
00010000
01000000
00100000
10000000
00100000
00010000
00000000
,
00100000
00010000
00001000
00010000
00001000
00000100
00001000
00000000
,
00010000
00100000
00010000
00001000
00010000
01000000
00010000
00000000
,
00001000
00000010
00001000
00010000
00001000
00000100
00001000
00000000
,
00010000
01010000
00010000
00011000
,
00001000
00001100
00001000
00011000
,
00010000
00000000
00000000
01000000
00000000
00000000
00010000
00000000
00001000
00000000
00000000
00000100
00000000
00000000
00001000
00000000
,
00010000
00100000
00000000
00200000
00000000
00000000
00310000
00001000
,
00000010
00001000
00010000
00001000
00000010
00001000
00010000
00001000
,
00000010
00000000
00000001
00000020
00000000
00000000
00001030
00010000
,
00001000
00000100
00000000
00000001
00000000
00000010
00000000
00001000
,
00000000
00010000
00000000
00200000
00000000
00000000
10300000
01000000
,
00020000
01000000
00000000
01000000
,
00000000
01030000
00010000
00001000
,
00000200
00000010
00000000
00000001
,
00000000
00000310
00001000
00000100
,
00010000
00001000
00100000
00001000
,
00010000
00000100
00010000
00001000
,
00011000
00000000
00000000
00001010
00000000
00000000
00011000
00000000
,
00000000
01010000
00000000
00000000
00011000
00000000
00011000
00000000
,
00010000
01000000
10000000
00010000
10000000
00100000
10000000
00000000
,
01000000
10000000
00100000
01000000
00100000
00010000
00100000
00000000
,
10000000
00100000
01000000
00010000
01000000
10000000
01000000
00000000
,
00100000
10000000
00010000
01000000
00010000
00100000
00010000
00000000
,
00100000
00001000
00010000
00001000
00010000
00000010
00001000
00000000
,
00000100
00001000
00000001
00000100
00000010
00001000
00000100
00000000
,
00000010
00000001
00001000
00000010
00000100
00000001
00000010
00000000
,
00000100
00001000
00000010
00000100
00000001
00001000
00000010
00000000
,
00001000
00000100
00010000
00001000
00100000
00010000
01000000
00000000
,
00100000
10000000
01000000
00100000
00010000
01000000
00100000
00000000
,
01000000
00010000
00100000
00001000
00010000
00000100
00001000
00000000
,
00000010
00000100
00001000
00010000
01000000
00100000
00010000
00000000
,
10000000
00000000
00000000
00100000
00000000
00000000
00010000
00000000
10000000
00000000
00000000
01000000
00000000
00000000
00010000
00000000
,
00100000
00010000
00000000
20000000
00000000
00000000
31000000
00100000
,
00010000
10000000
01000000
00100000
00010000
10000000
01000000
00010000
,
00002000
00000000
00010000
00000000
00010000
00000000
00013000
00001000
,
00000100
00000001
00000000
00000010
00000000
00000100
00000000
00010000
,
00000000
00001000
00000000
00020000
00000000
00000000
00031000
01000000
,
00000000
00000000
00010000
10000000
00000000
00000000
10000000
00010000
,
00000000
00000000
01000000
00001000
00000000
00000000
00010000
00000010
,
00000000
00000000
00001000
00000001
00000000
00000000
00000001
00001000
,
00000000
00000000
00000100
00010000
00000000
00000000
00001000
00000000
,
00022000
00000000
00000000
00000000
,
00000000
00000000
00033000
00010010
;
