#TITLE:Acceptable In The 80's;
#ARTIST:Calvin Harris;
#BANNER:Acceptable In The 80's.png;
#BACKGROUND:Acceptable In The 80's-bg.png;
#MUSIC:Acceptable In The 80's.ogg;
#SAMPLESTART:9.377;
#SAMPLELENGTH:15;
#DISPLAYBPM:128;
#BPMS:0=127.968,212=128.114;
#BGCHANGES:4=Acceptable In The 80's.avi=1=0=0=0,211=Acceptable In The 80's-bg.png=1=0=0=1;

//---------------dance-single - ----------------
#NOTES:
     dance-single:
     :
     Beginner:
     1:
     :
0000
0000
0000
0000
,
0000
0000
0000
0000
,
0000
0000
0000
0000
,
0000
0000
0000
0000
,
0010
0000
0000
0000
,
1000
0000
0000
0000
,
0001
0000
0000
0000
,
0100
0000
0001
0001
,
0001
0000
0000
0000
,
0010
0000
0000
0000
,
0100
0000
0000
0000
,
1000
0000
0010
0010
,
0010
0000
0000
0000
,
0100
0000
0000
0000
,
0001
0000
0000
0000
,
1000
0000
0100
0100
,
0100
0000
0000
0000
,
0001
0000
0000
0000
,
0100
0000
0000
0000
,
1000
0000
0010
0010
,
0010
0000
0000
0000
,
1000
0000
1000
0000
,
0001
0000
0001
0000
,
0100
0000
0100
0100
,
0100
0000
0000
0000
,
0010
0000
0010
0000
,
0100
0000
0100
0000
,
0001
0000
1000
1000
,
1000
0000
0000
0000
,
0100
0000
0100
0000
,
0010
0000
0010
0000
,
0001
0000
0100
0100
,
0100
0000
0000
0000
,
0010
0000
0010
0000
,
1000
0000
1000
0000
,
0100
0000
0010
0010
,
0010
0000
0000
0000
,
0001
0001
0000
0000
,
1000
1000
0000
0000
,
0100
0000
0100
0100
,
0010
0000
0000
0000
,
0100
0100
0000
0000
,
1000
1000
0000
0000
,
0001
0000
0001
0001
,
0001
0000
0000
0000
,
1001
0000
0000
0000
,
1000
0000
0000
0000
,
0001
0000
1001
1001
,
0010
0000
0000
0000
,
0110
0000
0000
0000
,
0100
0000
0000
0000
,
0010
0000
0110
0110
;

//---------------dance-single - ----------------
#NOTES:
     dance-single:
     :
     Easy:
     3:
     :
0000
0000
0000
0000
,
0000
0000
0000
0000
,
0000
0000
0000
0000
,
0000
0000
0000
0000
,
0010
0000
0010
0100
,
0001
0000
0001
1000
,
1000
0000
1000
0001
,
0100
0000
0110
0110
,
0001
0000
1000
0100
,
0010
0000
0001
1000
,
0100
0000
0010
0001
,
1000
0000
1001
1001
,
1000
0000
0100
0001
,
0100
0000
1000
0010
,
0001
0000
0010
1000
,
0001
0000
1001
1001
,
0001
0000
0010
1000
,
0010
0000
0100
1000
,
0010
0000
0001
0010
,
1000
0000
1001
1001
,
0100
0000
0100
0000
,
1000
0000
1000
0000
,
0001
0000
0001
0000
,
0010
0000
0110
0110
,
0001
0000
0001
0000
,
0100
0000
0100
0000
,
1000
0000
1000
0000
,
0100
0000
0110
0110
,
0010
0000
0010
0000
,
0001
0000
0001
0000
,
0010
0000
0010
0000
,
1000
0000
1001
1001
,
0010
0000
0100
0000
,
0001
0000
1000
0000
,
0100
0000
0010
0000
,
1000
0000
1001
1001
,
0010
1000
0010
1001
,
1000
0001
1000
0110
,
0001
0100
0001
1001
,
0010
0100
0110
0110
,
0010
0001
0100
0110
,
0010
1000
0100
0110
,
1000
0001
0100
1001
,
0010
0100
1001
1001
,
1000
0100
0010
0110
,
0001
0100
0010
1001
,
0010
0100
0001
1001
,
0010
0100
1000
1001
,
1000
0100
0001
0110
,
0001
0100
1000
0110
,
1000
0001
1000
0110
,
0010
0100
1001
0110
;

//---------------dance-single - ----------------
#NOTES:
     dance-single:
     :
     Medium:
     4:
     :
0000
0000
0000
0000
,
0000
0000
0000
0000
,
0000
0000
0000
0000
,
0000
0000
0000
0000
,
1000
0100
0010
0001
,
1000
0010
1000
0000
0100
0000
1000
0000
,
0001
0100
0001
0010
,
0200
1000
1000
1300
,
0010
0100
0001
0010
,
0100
1000
0100
0000
0010
0000
0001
0000
,
0100
0010
1000
0010
,
0200
0001
0001
0301
,
0010
0100
0010
0001
,
1000
0010
0100
0000
0001
0000
1000
0000
,
0100
1000
0010
1010
,
0101
0100
0010
1000
,
0100
0010
0100
1000
,
0001
0100
0010
0000
0100
0000
0001
0000
,
0010
0100
1000
1100
,
0011
0001
1000
0010
,
1000
0101
0001
1100
,
1000
0101
0001
1100
,
0010
0000
0100
0000
0000
0010
1000
0000
,
0001
0010
0100
1000
,
0001
1010
1000
0011
,
0001
1010
1000
0011
,
0100
0000
0010
0000
0000
0100
0001
0000
,
1000
0100
0010
0001
,
1000
0011
0001
1100
,
1000
0011
0001
1100
,
0010
0000
0100
0000
0000
0001
0010
0000
,
0100
0010
0001
1000
,
0001
1010
1000
0101
,
0001
1010
1000
0101
,
0010
0200
0000
0000
,
1000
1000
1000
1300
,
0001
0100
0010
1000
,
0001
0010
0001
0000
0100
0000
0001
0000
,
1000
0100
1000
0010
,
0200
0001
0001
0301
,
0010
0100
1000
0010
,
0100
0001
0100
0000
0010
0000
1000
0000
,
0100
0010
0001
0010
,
0200
1000
1000
1300
,
0010
0100
0010
1000
,
0001
0010
0100
0000
1000
0000
0001
0000
,
0100
0001
0010
0011
,
1100
0100
0010
0001
,
0100
0010
0100
0001
,
1000
0100
0010
0000
0100
0000
1000
0000
,
0010
0100
0001
0101
,
1010
1000
0001
1001
;

//---------------dance-single - ----------------
#NOTES:
     dance-single:
     :
     Hard:
     6:
     :
0000
0000
0000
0000
,
0000
0000
0000
0000
,
0000
0000
0000
0000
,
0000
0000
0000
0000
,
0000
0000
0000
0000
,
0010
0000
0001
0000
1000
0100
1000
0000
,
0010
0100
0001
0001
,
1000
0000
0010
0000
0100
0001
0100
0000
,
0001
0000
0010
0000
0100
1000
0100
0000
,
0010
0000
0001
0000
1000
0010
0100
0000
,
0001
0000
0100
0000
0010
1000
0001
0000
,
1000
0100
0001
0010
,
1100
0101
0010
1001
,
0210
0000
0301
0000
0100
0001
0010
0000
,
0210
1300
0010
0100
,
0001
0100
0001
0000
1000
0010
1000
0000
,
0011
1010
0101
1100
,
0010
0001
0100
0001
0010
0000
0011
0000
,
0010
0010
0100
0100
,
0010
1000
0100
1000
0010
0000
1010
0000
,
0100
0101
0020
0200
,
0330
0001
0100
0000
1000
0000
0100
0010
,
0000
1000
0100
0010
0001
0000
0001
0010
,
0100
0000
0110
0000
0000
1000
0010
0000
,
0110
0000
0101
1100
,
0000
0001
0010
0000
0100
0000
1000
0001
,
0000
1000
0010
0001
0100
0000
0010
1000
,
0100
0000
0010
0000
0000
0001
0010
0000
,
0110
0000
0011
0101
,
0010
0000
0001
1000
0010
0000
0010
1000
,
0100
0000
0001
0100
1000
0000
0010
0100
,
0001
0000
0100
0000
0000
0010
1000
0000
,
1010
0000
1100
0011
,
0110
0000
0010
0001
0001
0000
0010
0100
,
1000
0000
0010
0100
0100
0000
0001
1000
,
1000
0100
0001
1000
,
0210
0000
0010
0310
,
0010
1000
0100
1000
0010
0000
1001
0000
,
0010
0001
0100
0001
0010
0000
1001
0000
,
0010
0001
0100
0000
0010
0001
0100
0000
,
0000
0010
0010
0000
0010
0000
0010
0000
,
1000
0100
1000
0000
1000
0100
1000
0000
,
0010
1000
0100
0010
,
0010
0001
0010
0000
0010
1000
0010
0000
,
1010
1010
0101
0101
,
1001
0000
1000
0000
,
0001
0000
0001
0100
0010
0000
0010
0000
,
1000
0000
0000
1000
0100
0000
0010
0000
,
0001
0000
0000
0010
0001
0000
0100
0000
,
0010
0100
1000
0000
0000
0000
1010
0000
,
0010
0000
0010
1000
0100
0000
0100
1000
,
0001
0000
0100
0001
1000
0000
0010
0000
,
1001
0000
0000
0000
;

//---------------dance-double - ----------------
#NOTES:
     dance-double:
     :
     Beginner:
     1:
     :
00000000
00000000
00000000
00000000
,
00000000
00000000
00000000
00000000
,
00000000
00000000
00000000
00000000
,
00000000
00000000
00000000
00000000
,
00000000
00000000
00000000
00000000
,
00100000
00000000
00000000
00000000
,
10000000
00000000
00000000
00000000
,
01000000
00000000
00000000
00000000
,
00010000
00000000
00001000
00001000
,
00001000
00000000
00000000
00000000
,
00000010
00000000
00000000
00000000
,
00000001
00000000
00000000
00000000
,
00000100
00000000
00000001
00000001
,
00000001
00000000
00000000
00000000
,
00000010
00000000
00000000
00000000
,
00000100
00000000
00000000
00000000
,
00001000
00000000
00000010
00000010
,
00000010
00000000
00000000
00000000
,
00010000
00000000
00000000
00000000
,
00001000
00000000
00000000
00000000
,
01000000
00000000
00010000
00010000
,
00010000
00000000
00000000
00000000
,
01000000
00000000
00000000
00000000
,
00100000
00000000
00000000
00000000
,
10000000
00000000
01000000
01000000
,
01000000
00000000
00000000
00000000
,
00010000
00000000
00000000
00000000
,
00001000
00000000
00000000
00000000
,
00000100
00000000
00000001
00000001
,
00000001
00000000
00000000
00000000
,
00001001
00000000
00000000
00000000
,
00000010
00000000
00000000
00000000
,
00001000
00000000
00011000
00011000
,
00010000
00000000
00000000
00000000
,
00100000
00000000
00000000
00000000
,
10010000
00000000
00000000
00000000
,
01100000
00000000
01100000
01100000
,
01000000
00000000
00000000
00000000
,
00001000
00000000
00000000
00000000
,
00010000
00000000
00000000
00000000
,
00000100
00000000
00000010
00000010
,
00000010
00000000
00000000
00000000
,
00000100
00000000
00000000
00000000
,
00010000
00000000
00000000
00000000
,
00001000
00000000
00100000
00100000
,
00100000
00000000
00000000
00000000
,
01000000
00000000
00000000
00000000
,
00001000
00000000
00000000
00000000
,
00010000
00000000
00001000
00001000
,
00001000
00000000
00000000
00000000
,
00010000
00000000
00000000
00000000
,
00001000
00000000
00000000
00000000
,
00010000
00000000
00011000
00011000
;

//---------------dance-double - ----------------
#NOTES:
     dance-double:
     :
     Easy:
     3:
     :
00000000
00000000
00000000
00000000
,
00000000
00000000
00000000
00000000
,
00000000
00000000
00000000
00000000
,
00000000
00000000
00000000
00000000
,
00000000
00000000
00000000
00000000
,
00100000
20000000
00000000
30010000
,
01000000
00001000
00000000
00011000
,
00010000
00000020
00000000
00000130
,
00000010
00001000
00001001
00001001
,
00000001
00000200
00000000
00001300
,
00010000
00000010
00000000
00000110
,
00001000
00020000
00000000
00130000
,
01000000
00001000
00011000
00011000
,
00010000
00200000
00000000
01300000
,
00010000
10000000
00000000
10010000
,
01000000
00200000
00000000
00310000
,
10000000
01000000
01100000
01100000
,
00100000
00010000
00000000
01000000
,
00100000
10000000
00000000
01100000
,
00010000
00001000
00000000
00000010
,
00000001
00000100
00001001
00000110
,
00000010
00001000
00000001
00000200
,
00000000
00000320
00000000
00020030
,
00000000
00032000
00000000
00103000
,
01000000
10000000
01100000
01100000
,
10000000
01000000
00010000
00002000
,
00000000
00003200
00000000
00000302
,
00000000
00000023
00000000
00001030
,
00010000
00100000
01100000
01100000
,
00010000
10000000
01000000
00100000
,
00001000
00010000
00000100
00001000
,
00000001
00001000
00000010
00000100
,
00001000
00000100
00000002
00000023
,
00001030
00010000
00000100
00001000
,
00000010
00010000
00001000
01000000
,
00010000
00100000
10000000
01000000
,
20020000
30030000
01100000
01100000
,
10000000
01000000
00000000
01100000
,
00100000
00010000
00000000
00011000
,
00001000
00000100
00000000
00000110
,
00000010
00000001
00001001
00000110
,
00000010
00010000
00000000
00011000
,
00001000
01000000
00000000
10010000
,
00100000
00001000
00000000
00011000
,
00010000
00000100
00001001
00001001
,
00000010
00001000
00000010
00001001
,
00000100
00010000
00000100
00011000
,
00100000
00010000
00100000
10010000
,
00100000
01000000
01100000
01100000
,
00100000
00001000
00010000
00011000
,
00000100
00001000
00000001
00000110
,
00000010
00000100
00001000
00011000
,
00010000
00001000
00011000
00011000
;

//---------------dance-double - ----------------
#NOTES:
     dance-double:
     :
     Medium:
     5:
     :
00000000
00000000
00000000
00000000
,
00000000
00000000
00000000
00000000
,
00000000
00000000
00000000
00000000
,
00000000
00000000
00000000
00000000
,
00000000
00000000
00000000
00000000
,
00010000
00100000
02000000
13000000
,
10000000
00100000
02000000
03010000
,
00100000
00001000
00020000
00031000
,
00010000
00000010
00001010
00000110
,
00000001
00000100
00000020
00000130
,
00001000
00010000
00200000
00310000
,
00100000
10000000
02000000
13000000
,
00010000
01000000
01001000
00011000
,
00000010
00000100
00002000
00013000
,
00100000
01000000
00020000
00031000
,
00000200
00010300
00002000
00103000
,
00200000
00310000
00110000
00011000
,
00001000
00000010
00000002
00001003
,
00000100
00000001
00000020
00000130
,
00020000
00031000
02000000
03010000
,
00002000
00013000
00011000
00001010
,
00000010
00001000
00000100
00000010
,
00000001
00000000
00000100
00000000
00001000
00000000
00010000
00100000
,
10000000
00000000
02000000
00000000
03100000
00010000
01000000
00000000
,
00200000
01300000
01100000
10010000
,
01000000
00010000
00100000
01000000
,
10000000
00000000
00100000
00000000
00010000
00000000
00001000
00000100
,
00000001
00000000
00000020
00000000
00000130
00001000
00000010
00000000
,
00000200
00000310
00000110
00001001
,
00000001
00001000
00000010
00001000
,
00000100
00000000
00010000
00000000
00001000
00000000
00100000
00010000
,
01000000
00000000
20000000
00000000
31000000
00010000
00100000
00000000
,
00010000
00100000
11000000
00110000
,
10000000
00010000
01000000
00010000
,
00100000
00000000
00001000
00000000
00010000
00000000
00001000
00000010
,
00000002
00002003
00000001
00003100
,
00000022
00000033
00001001
00001100
,
00010000
00000000
00001000
00000000
00010000
00001000
00100000
00001000
,
00010000
01000000
00100000
00010000
,
10000000
11000000
00010000
00110000
,
00100000
01100000
11000000
10010000
,
10000000
00000000
00100000
00000000
01000000
00001000
00010000
00001000
,
01000000
00010000
00100000
01000000
,
00010000
00011000
00000010
00001010
,
00000100
00000110
00000101
00001001
,
00000010
00000000
00000001
00000000
00000100
00000010
00001000
00000010
,
00000100
00001000
00010000
00001000
,
00010000
00001000
00100000
00000000
00010000
00000000
10000000
00000000
,
00010000
10000000
01000000
00000000
00110000
00000000
11000000
00000000
,
00010000
00000000
01000000
00000000
00100000
10000000
00010000
10000000
,
00100000
10000000
01000000
00010000
,
00001000
01000000
00010000
00000000
00100000
00000000
00001000
00000000
,
00010000
00000100
00001000
00000000
00011000
00000000
00011000
00000000
;

//---------------dance-double - ----------------
#NOTES:
     dance-double:
     :
     Hard:
     7:
     :
00000000
00000000
00000000
00000000
,
00000000
00000000
00000000
00000000
,
00000000
00000000
00000000
00000000
,
00000000
00000000
00000000
00000000
,
00000000
00000000
00000000
00000000
,
00000100
00000010
00000001
00000000
00000100
00000010
00000100
00000001
,
00000010
00000100
00010000
00000000
00001000
00000000
01000000
00100000
,
00000000
01000000
00010000
00000000
10000000
00000000
01000000
00000000
,
00100000
00010000
01000000
00100000
,
10000000
00010000
01000000
00000000
00100000
10000000
01000000
00010000
,
00001000
00100000
01000000
00000000
00100000
00000000
00001000
00010000
,
00001000
00000010
00000001
00000100
,
00000010
00010000
00000100
00001000
,
00000001
00000010
00001000
00000000
00010000
00001000
00000100
00000001
,
00000010
00000100
00010000
00000000
00001000
00000000
01000000
00001000
,
00000000
01000000
00010000
00000000
00100000
00000000
00001000
00000000
,
01000000
00100000
10000000
01000000
,
10000000
00100000
00010000
00000000
00001000
00010000
00000100
00001000
,
00000010
00000100
00000001
00000000
00001000
00000000
00000001
00000010
,
00001000
00010000
00100000
10000000
,
01000000
00100000
00001000
00010000
,
00000100
00000010
00000001
00000000
00000100
00000000
00000010
00001000
,
00000100
00000000
00001000
00000001
00000100
00001000
00010000
00000100
,
00000010
00001000
00010000
00100000
,
10000000
01000000
00100000
00010000
,
01000000
00100000
10000000
00000000
00010000
00000000
00100000
01000000
,
10000000
00000000
00100000
00010000
00001000
00010000
00000010
00001000
,
00000100
00000010
00000001
00000100
,
00001000
00010000
01000000
10000000
,
00100000
01000000
00001000
00000000
00010000
00000000
00000100
00000010
,
00000001
00000000
00000100
00000000
00000010
00000000
00010000
00001000
,
00000010
00000000
00000001
00000000
00000000
00001000
00000001
00000000
,
00000101
00000010
00010000
00001000
,
00100000
01000000
10000000
00000000
00010000
00000000
01000000
00100000
,
00010000
00000000
00001000
00000000
00010000
00000000
00001000
00000100
,
00000001
00000000
00000010
00000000
00000000
00000001
00001000
00000000
,
00001100
00000010
00000001
00000100
,
00000010
00010000
00000100
00000000
00001000
00000010
00000100
00000010
,
00001000
00000001
00000010
00000000
00000100
00000000
00010000
00001000
,
00000000
01000000
00010000
00000000
00100000
00000000
01000000
00000000
,
10000000
00100000
10000000
01000000
,
00100000
00001000
00010000
00000000
00100000
10000000
01000000
00100000
,
00001000
00010000
00001000
00000000
00000010
00000000
00000001
00000100
,
00001000
00000100
00000010
00010000
,
00001000
00000010
00000001
00000100
,
00000001
00000010
00000001
00000100
00000010
00000100
00000001
00001000
,
00000100
00010000
00001000
00000000
00100000
00000000
00010000
01000000
,
00000000
00100000
01000000
00000000
00001000
00000000
00011000
00000000
,
01001000
00000000
01000000
00100000
10000000
01000000
10000000
00000000
,
00100000
10000000
01000000
10000000
00100000
01000000
00001000
01000000
,
00010000
00100000
00010000
00000000
01000000
00000000
00001000
00010000
,
00000100
00000010
00000001
00000101
,
00000110
00000000
00000010
00010000
00001000
00010000
00001000
00000000
;
